#TITLE:Hey Ya!;
#ARTIST:Outkast;
#BANNER:Hey Ya!-bn.png;
#BACKGROUND:Hey Ya!-bg.png;
#JACKET:Hey Ya!-jacket.png;
#MUSIC:Hey Ya!.ogg;
#OFFSET:0.345;
#SAMPLESTART:67.013;
#SAMPLELENGTH:20;
#DISPLAYBPM:159;
#BPMS:0=159;
#BGCHANGES:;

//---------------dance-single - ----------------
#NOTES:
     dance-single:
     :
     Beginner:
     4:
     :
0000
0000
0000
0000
,
1001
0000
0100
0000
,
1000
0000
0001
0000
,
0100
0000
0010
0000
,
1000
1000
2000
0000
,
0000
0000
0000
0000
,
3000
0000
0110
0000
,
0001
0000
0010
0000
,
0100
0000
1000
0000
,
0001
0000
0100
0100
,
0200
0000
0000
0000
,
0000
0000
0300
0000
,
1001
0000
0010
0000
,
1000
0000
0001
0000
,
1000
0000
0100
0000
,
0010
0010
0020
0000
,
0000
0000
0000
0000
,
0030
0000
0110
0000
,
0100
0000
1000
0000
,
0010
0000
1000
0000
,
0100
0000
0001
0001
,
0002
0000
0000
0000
,
0000
0000
0003
0000
,
1001
0000
0000
0000
,
0220
0000
0000
0000
,
0000
0000
0330
0000
,
1000
0000
0002
0000
,
0000
0000
0000
0000
,
0003
0000
1001
0000
,
0000
0000
0220
0000
,
0000
0000
0000
0000
,
0330
0000
0010
0000
,
0200
0000
0000
0000
,
0000
0000
0300
0000
,
0110
0000
0000
0000
,
2002
0000
0000
0000
,
0000
0000
3003
0000
,
0001
0000
0020
0000
,
0000
0000
0000
0000
,
0030
0000
0110
0000
,
0000
0000
2002
0000
,
0000
0000
0000
0000
,
3003
0000
0100
0000
,
2000
0000
0000
0000
,
0000
0000
3000
0000
,
1001
0000
0010
0000
,
0010
0000
1000
0000
,
1000
0000
0100
0000
,
0001
0001
0001
0000
,
0010
0000
0001
0000
,
1000
0000
0110
0000
,
0100
0000
0100
0000
,
0010
0000
0001
0001
,
0001
0000
0001
0001
,
0001
0000
0001
0001
,
0001
0000
0001
0000
,
1001
0000
0000
0110
,
0000
0000
0000
1000
,
1000
0000
0100
0000
,
0010
0010
0010
0000
,
0001
0000
1000
0000
,
0001
0000
0110
0000
,
0010
0000
1000
0000
,
0100
0000
1001
0000
,
0010
0000
0100
0100
,
0100
0000
0010
0000
,
1000
0000
0001
0000
,
0010
0000
0000
0001
,
0001
0000
0000
1000
,
1000
0000
0000
0010
,
0010
0000
1000
0000
,
0100
0000
1000
1000
,
1000
1000
1000
1000
,
0000
0000
0010
0000
,
0000
0100
0100
0000
,
0000
0001
0001
0000
,
0010
0000
0001
0000
,
0100
0100
0100
0100
,
0100
0100
0000
0010
,
0010
0000
0000
0000
,
0000
1000
1000
0000
,
0001
0001
0001
0000
,
0000
0100
0100
0000
,
0010
0000
0220
0000
,
0000
0330
0000
0000
,
0001
0000
2002
0000
,
0000
3003
0000
0000
,
0100
0000
0220
0000
,
0330
0000
1000
0000
,
2002
0000
0000
0000
,
0000
0000
0000
3003
;

//---------------dance-single - ----------------
#NOTES:
     dance-single:
     :
     Easy:
     7:
     :
0000
0000
0000
0000
,
1001
0010
1000
0100
,
0110
0001
0100
0010
,
1010
0100
1000
0001
,
0011
0011
0022
0000
,
0000
0000
0030
1000
,
1000
1003
0010
1001
,
0220
0330
0001
0100
,
0010
1000
1100
0100
,
1000
0001
0101
0101
,
0202
0000
0000
0000
,
0300
0100
0100
0103
,
0010
1010
0202
0303
,
0010
0001
0100
1000
,
1100
0010
1000
0100
,
1010
1010
2020
0000
,
0000
0000
0030
0001
,
0001
3001
0010
0011
,
2200
3300
0001
0100
,
0010
1000
1001
0001
,
0010
1000
1100
1100
,
2200
0000
0000
0000
,
3000
0010
0010
0310
,
2002
0000
0000
0000
3003
1000
0001
0000
,
0220
0000
0000
0330
,
0010
0000
0000
1000
0000
1000
0000
0000
,
2200
3300
0202
0000
,
0000
0000
0300
0010
,
0010
0013
0022
0000
,
0033
0001
0100
0000
0220
0000
0000
0000
,
0000
0000
0330
0000
0010
0000
0000
1000
,
0000
1000
0000
0000
2020
0000
3030
0000
,
2200
0000
0000
0000
,
0300
0001
0001
3001
,
0202
0000
0000
0000
0303
0100
0010
0000
,
0220
0000
0000
0330
,
1000
0000
0000
0001
0000
0001
0000
0000
,
0202
0303
0022
0000
,
0000
0000
0030
0100
,
0100
0103
2002
0000
,
3003
1000
0010
0000
0220
0000
0000
0000
,
0000
0000
0330
0000
0010
0000
0000
0100
,
0000
0100
0000
0000
0202
0000
0303
0000
,
2020
0000
0000
0000
,
3000
1000
1000
1030
,
1001
0000
0000
0010
0000
0100
0000
0000
,
0001
0000
0000
1000
0000
0100
0000
0000
,
0010
0000
0000
0001
0000
1000
0000
0000
,
1010
0000
1010
0000
1010
0000
0000
0001
,
0000
1000
0000
0000
0010
0000
0000
0100
,
0000
0001
0000
0000
0110
0000
0000
0010
,
0000
1000
0000
0000
1100
0000
0000
1000
,
0000
0001
0001
0001
,
0001
0001
0001
0001
,
0001
0001
0001
0001
,
0001
0001
0001
0100
,
0101
0000
0000
0120
,
1030
0000
0000
0100
0000
1000
0000
0000
,
0001
0000
0000
0010
0000
0001
0000
0000
,
0011
0000
0011
0000
0011
0000
0000
0100
,
0000
1000
0000
0000
1010
0000
0000
0010
,
0000
0100
0000
0000
0110
0000
0000
0001
,
0000
1000
0000
0000
0010
0000
0000
1000
,
0000
0100
0000
0000
1000
0000
0000
0001
,
0000
0100
0000
0000
0101
0000
0101
0000
,
0101
0000
0000
0010
0000
1000
0000
0000
,
0100
0000
0000
1000
0000
0001
1000
0000
,
0010
0000
0000
1001
0000
0110
0000
0000
,
1000
0000
0000
1100
0000
0011
0000
0000
,
0100
0000
0000
0101
0000
1010
0000
0000
,
0002
0000
2003
0000
3002
0000
0003
0100
,
0000
0010
0000
0000
1000
0000
0010
0000
,
0100
0001
1100
0101
,
0000
0000
0010
0000
1000
0000
0000
1010
,
0000
0011
0000
0000
0100
0000
0000
0110
,
0000
1001
0000
0000
0020
0000
0230
0000
,
0320
0000
0030
1000
0000
0001
0000
0000
,
0010
0001
0100
1000
,
1010
0101
0000
0001
,
0010
0000
0000
1001
0000
0011
0000
0000
,
1000
0000
0000
1100
0000
0110
0000
0000
,
2000
0000
3020
0000
0230
0000
0300
0001
,
0000
1000
0000
0000
0020
0000
0030
0000
,
1000
0001
0022
0000
,
0000
0033
2000
3000
,
0010
0100
2020
0000
,
0000
3030
1100
1100
,
1100
0000
0000
0001
0000
1000
0000
0000
,
1000
0001
0100
0010
,
2002
0000
0000
0000
,
0000
0000
0000
3003
;

//---------------dance-single - ----------------
#NOTES:
     dance-single:
     :
     Medium:
     11:
     :
0000
0000
0000
0000
,
1001
0000
1010
0000
0001
0100
1000
0000
,
0110
0000
0010
1000
0000
0001
1000
0100
,
0110
0000
0001
0100
0000
0010
1000
0001
,
0011
0110
2200
0000
,
0000
0000
0300
0001
,
0001
3001
0010
0101
,
2020
0000
3030
0001
1000
0000
0010
1000
,
0000
0001
0010
0100
1000
0000
0010
0100
,
0000
0001
1000
0000
1100
0000
0110
0000
,
0022
0000
0000
0000
,
0030
1000
1000
1003
,
0100
0000
1100
0000
0202
0000
0303
0001
,
0010
0000
0010
0001
0000
1000
0001
0100
,
0010
0000
1000
0100
0000
1000
0010
0100
,
0101
1001
2020
0000
,
0000
0000
0030
0100
,
0100
3100
0010
1001
,
0220
0000
0330
0010
1000
0000
0100
1000
,
0000
0001
0100
0010
1000
0000
0100
0010
,
0000
0010
0001
1000
1100
0000
1001
0000
,
0202
0000
0000
0000
,
0300
0010
0010
0013
,
2002
0000
3003
0000
1000
0100
0010
0001
,
0200
0000
0000
0000
,
0000
0000
0300
0000
0001
0010
0001
1000
,
0010
1000
0100
0010
0001
0100
0001
1000
,
0000
1100
0000
0202
0000
0303
0000
1000
,
0010
1000
0010
1000
0010
0100
0000
0000
,
0010
1000
0001
0100
0002
0000
0003
0010
,
0001
1000
0001
1000
0010
0100
0000
0000
,
0001
0010
0001
1000
0100
1000
0010
0100
,
0001
0010
0100
1000
0000
1100
0000
0022
,
0000
0033
0000
0100
0001
1000
0001
1000
,
0001
0010
0000
0000
0001
1000
0100
1000
,
0020
0000
0030
0100
0001
0010
0001
0010
,
0100
1000
0000
0000
0010
0100
0010
1000
,
0100
0010
0001
0100
0001
1000
0001
0010
,
0000
0011
0000
1010
0000
0000
1001
0000
,
0000
1010
0000
0001
0012
0000
0100
0000
,
1003
0010
0100
0001
0010
0100
0000
0000
,
0000
1100
0000
0110
0000
0000
0011
0000
,
0001
0100
0001
0010
0100
1000
0010
1000
,
0100
0010
0001
1000
0000
1000
0001
0100
,
0000
0000
0000
0000
0000
0010
0001
0100
,
0001
1000
0000
0000
0000
2010
3010
0000
,
0200
0000
0000
1300
0000
0001
1000
0000
,
0020
0000
0000
0130
0000
0001
0100
0000
,
0101
0000
1100
0000
0101
0000
0000
1000
,
0000
0010
0100
0000
1001
0000
0010
0001
,
0000
1000
0100
0000
1001
0000
0010
1000
,
0000
0100
0010
0000
0011
0000
0001
1000
,
0000
1000
0001
0100
0001
0000
0001
0010
,
0001
0000
0001
0100
0001
0000
0001
1000
,
0001
0000
0001
0010
0001
0000
0001
1000
,
0001
0000
0001
0100
0001
0000
0010
0100
,
1000
0001
0000
0100
0000
0010
2000
0000
,
3100
0000
1000
0001
0000
1000
0001
0000
,
0010
0000
0100
1000
0000
0100
1000
0000
,
1010
0000
0101
0000
1010
0000
0000
0001
,
0000
0010
0100
0000
1100
0000
0000
0010
,
0000
1000
0001
0000
0110
0000
0010
1000
,
0000
0100
0001
0000
0011
0000
0010
0100
,
0000
1000
0001
0000
0101
0000
0100
0010
,
0000
1000
0001
0000
0011
0000
0110
0000
,
1100
0000
0010
1000
0000
0100
0010
0000
,
0001
0000
1000
0010
0000
1000
0001
0000
,
1000
0100
0000
1100
0000
1000
0001
0000
,
0100
0010
0000
0110
0000
0001
1000
0000
,
0010
1000
0000
1010
0000
0001
0100
0000
,
1001
0000
0110
0000
1001
0000
0000
2000
,
0000
3002
0000
0000
1003
0010
1000
0010
,
1000
0010
1000
0000
1100
0000
0101
0000
,
0000
0001
1000
0000
0010
0100
0000
0110
,
0000
0001
1000
0000
0100
0010
0000
0011
,
0000
0100
0001
0000
0101
0000
1010
0000
,
0101
0000
0000
1000
0001
1000
0100
0000
,
0010
0001
0010
0001
0010
0001
0010
0000
,
0011
0000
1100
0000
0000
0001
0100
0010
,
1000
0000
0000
0000
0000
0100
1000
0000
,
0000
0001
1000
0001
1000
0000
0000
0000
,
0000
0010
0100
0010
0100
0000
0000
0000
,
0000
0001
0010
0100
2000
0000
3000
0000
,
0010
1000
0001
0100
0202
0000
0000
0000
,
0303
1000
0001
0000
1000
0100
0000
0000
,
1000
0001
0100
0010
2020
0000
0000
0000
,
3030
0010
0100
0000
0110
0000
1001
0000
,
0110
0000
0000
0001
0000
2200
0000
0000
,
0000
0000
0300
0000
3001
0010
0100
1000
,
2002
0000
0000
0000
,
0000
0000
0000
3003
;

//---------------dance-single - ----------------
#NOTES:
     dance-single:
     :
     Hard:
     13:
     :
0000
0000
0000
0000
,
1001
0000
1010
0000
0001
0100
1000
0000
,
0110
0000
0001
1000
0000
1000
0010
0100
,
0101
0000
0001
0010
0000
0001
1000
0010
,
1100
0000
0110
0000
0012
0000
0103
0010
,
0000
0010
1000
0001
0100
0000
0101
0000
,
1100
0101
0010
1001
,
1020
0000
0130
0010
0110
0000
0001
0010
,
0000
0010
0001
1000
1100
0000
0010
1000
,
0000
0001
1000
0100
1001
0000
0101
0000
,
0021
0000
0130
1000
0000
1000
0010
0100
,
0001
0101
1100
0101
,
0010
0000
0110
0000
2001
0000
3100
1000
,
1010
0000
0100
0010
0000
0010
0001
0100
,
0101
0000
0001
1000
0000
0010
1000
0100
,
1100
0000
1010
0000
1002
0000
0013
0100
,
0000
0100
0010
0001
1000
0000
1010
0000
,
0101
1010
0001
0011
,
1200
0000
0310
0100
0110
0000
1000
0001
,
0000
0001
0010
0100
1100
0000
0001
1000
,
0000
0010
0100
0010
1010
0000
1001
0000
,
0201
0000
0310
1000
0000
0001
1000
0100
,
0010
0011
1100
0011
,
2001
0000
0010
0010
0000
3001
1000
0100
,
0012
0000
0100
0100
0000
1003
0001
0000
,
0010
0000
1000
0001
1000
0100
0010
0001
,
0100
0010
1000
0001
0010
1000
0010
0001
,
0000
0100
0010
1000
0001
0000
0101
0010
,
1000
0001
1000
0001
1000
0100
1000
0001
,
0000
0010
0100
0000
2100
0000
0001
0001
,
0000
3100
1000
0010
0100
0001
0010
0000
,
0001
1000
0010
0100
0010
1000
0100
0010
,
1000
0010
0001
0100
0000
0010
1000
0000
,
0100
0000
0010
0001
1000
0100
1000
0100
,
0010
0100
1000
0001
0000
0100
0010
0000
,
1020
0000
0100
0130
0010
1000
0010
1000
,
0001
1000
0100
0000
0010
0001
1000
0010
,
1000
0100
0001
0100
0010
0100
1000
0001
,
0000
0100
0001
0010
0100
0000
0110
0001
,
0000
0001
1000
0010
0201
0000
1000
1000
,
0000
0301
0100
0010
2001
0000
0100
3100
,
0000
1000
0001
0000
0011
0000
0001
0100
,
0010
0001
0010
1000
0100
0010
0001
0100
,
1000
0100
0001
1000
0000
1000
0001
0100
,
0010
0000
1000
0010
0000
0001
0001
0100
,
0010
1000
0100
0010
0000
2100
3001
0000
,
0011
0000
0001
1000
0000
1000
0010
0000
,
0101
0000
0010
1000
0000
1000
0100
0000
,
1100
0000
0110
0000
0011
0000
0100
0001
,
0000
0001
1000
0010
0110
0000
0010
1000
,
0000
0100
1000
0001
1001
0000
0010
1000
,
0000
0010
0100
0000
1010
0000
0100
1000
,
0000
1000
0001
0010
0001
0100
0001
0010
,
0001
1000
0001
0100
0001
1000
0001
0010
,
0001
0100
0001
0010
0001
1000
0001
0100
,
0001
1000
0001
0010
0001
0100
0100
0010
,
1000
0001
1000
0100
0000
0010
1001
0000
,
0101
0000
0010
1000
0000
0001
0100
0000
,
1010
0000
1000
0100
0000
1000
0001
0000
,
0011
0000
0110
0000
1100
0000
0010
1000
,
0000
0001
1000
0100
0010
0000
0001
0100
,
0000
0010
1000
0001
0110
0000
0010
1000
,
0000
0100
0001
0000
1010
0000
0100
1000
,
0000
0001
0100
0000
1001
0000
0010
1000
,
0000
0100
1000
0000
0101
0000
1100
0000
,
0101
0000
0010
1000
0000
0001
0010
0000
,
0100
0000
0000
0000
1000
0000
0001
0000
0000
0000
1000
0001
1000
0000
0000
0000
,
1001
0010
1000
0001
0000
0100
0010
0000
,
0101
0100
0001
1000
0000
0100
0010
0000
,
0011
0001
1000
0010
0000
1000
0100
0000
,
1000
0001
0100
0000
1010
0010
1000
0100
,
0000
1000
0001
0000
0010
0100
0010
0100
,
0010
0001
1000
0000
1100
0000
0101
1000
,
0000
0001
0100
0000
0110
0010
1000
0001
,
0000
1000
0100
0000
0011
0100
0010
1000
,
0000
0001
0100
0000
0001
0010
1000
0000
,
1001
0100
1000
0001
0000
0100
0010
0000
,
1000
0000
0001
0000
1000
0000
0001
0000
0010
0000
0001
0000
0100
0000
0000
0010
,
1000
0000
0000
0000
0101
0000
0010
0000
0000
0000
1000
0000
0100
0000
0000
1000
,
0001
0000
0010
0001
0000
0100
0010
0000
,
1000
0100
1000
0001
0100
0010
0000
0010
,
1000
0100
0001
0100
1000
0001
1000
0010
,
0000
0100
0001
1000
0010
0100
0010
0100
,
0001
0010
0100
1000
2100
0000
3001
0100
,
0000
0010
1000
0000
0001
1000
0010
0000
,
1000
0100
0010
0001
0102
0000
0013
0100
,
0000
0100
1000
0000
0001
0010
0100
0000
,
0110
0001
0100
0010
0000
0010
2000
0000
,
3001
0010
0100
1000
0010
0100
0001
1000
,
2002
0000
0000
0000
,
0000
0000
0000
3003
;
