#VERSION:0.83;
#TITLE:Heaven is a '57 metallic gray ~gimmix~;
#SUBTITLE:;
#ARTIST:Hiro feat. Sweet little 30's;
#TITLETRANSLIT:Heaven is a '57 metallic gray ~gimmix~;
#SUBTITLETRANSLIT:;
#ARTISTTRANSLIT:;
#GENRE:;
#ORIGIN:;
#TAGS:;
#CREDIT:;
#BANNER:Heaven is a '57 metallic gray ~gimmix~.png;
#BACKGROUND:Heaven is a '57 metallic gray ~gimmix~-bg.png;
#PREVIEWVID:;
#JACKET:Heaven is a '57 metallic gray ~gimmix~-jacket.png;
#CDIMAGE:;
#DISCIMAGE:;
#LYRICSPATH:;
#CDTITLE:;
#MUSIC:Heaven is a '57 metallic gray ~gimmix~.ogg;
#OFFSET:0.000000;
#SAMPLESTART:13.586000;
#SAMPLELENGTH:20.000000;
#SELECTABLE:YES;
#DISPLAYBPM:63.000000:190.000000;
#BPMS:0.000000=190.475998,
4.000000=189.979004,
178.000000=63.379997,
180.000000=190.029007,
252.000000=94.903000,
258.000000=190.141006;
#STOPS:;
#DELAYS:;
#WARPS:;
#TIMESIGNATURES:0.000000=4=4;
#TICKCOUNTS:0.000000=4;
#COMBOS:0.000000=1;
#SPEEDS:0.000000=1.000000=0.000000=0;
#SCROLLS:0.000000=1.000000;
#FAKES:;
#LABELS:0.000000=Song Start;
#BGCHANGES:0.000=Heaven is a '57 metallic gray ~gimmix~.avi=1.000=0=0=0=StretchNoLoop====,
99999=-nosongbg-=1.000=0=0=0 // don't automatically add -songbackground-
;
#KEYSOUNDS:;
#ATTACKS:
;

//---------------dance-single - ----------------
#NOTEDATA:;
#CHARTNAME:;
#CHARTHASH:637512442:
#STEPSTYPE:dance-single;
#BANNER:;
#DESCRIPTION:;
#CHARTSTYLE:;
#DIFFICULTY:Beginner;
#METER:4;
#METERF:0.000000;
#RADARVALUES:0.166259,0.221754,0.031454,0.000000,0.000000,111.000000,108.000000,3.000000,0.000000,0.000000,0.000000,0.000000,0.000000,0.000000,0.166259,0.221754,0.031454,0.000000,0.000000,111.000000,108.000000,3.000000,0.000000,0.000000,0.000000,0.000000,0.000000,0.000000;
#CREDIT:;
#DISPLAYBPM:190.000000;
#NOTES:
0000
0000
0000
0000
,
0000
0000
0000
0000
,
0000
0000
0000
0000
,
0000
0000
0000
0000
,
0000
0000
0000
0000
,
0010
0000
0000
0000
,
0100
0000
0000
0000
,
0001
0000
0000
0000
,
1000
0000
0000
0000
,
0010
0000
0010
0000
,
0001
0000
1000
0000
,
0001
0000
0001
0000
,
0100
0000
0100
0000
,
1000
0000
1000
0000
,
0010
0000
0010
0000
,
1000
0000
1000
0000
,
0100
0000
0100
0000
,
0001
0000
0001
0000
,
0010
0000
0010
0000
,
0001
0000
1000
0000
,
0010
0000
0100
0000
,
1000
0000
0001
0000
,
1001
0000
0000
0000
,
0000
0010
0000
0010
,
0000
1000
0000
0000
,
0000
0010
0000
0010
,
0000
0001
0000
0000
,
0000
0001
0000
0001
,
0000
0010
0000
0000
,
0000
1000
0000
1000
,
0000
0010
0000
0000
,
0000
1000
0000
0010
,
0000
0100
0000
0000
,
1000
0000
1000
0000
,
0001
0000
0001
0000
,
1000
0000
1000
0000
,
0010
0000
0010
0000
,
0001
0000
0100
0000
,
0001
0000
0100
0000
,
0001
0000
0001
0000
,
0010
0000
0010
0000
,
1000
0000
0100
0000
,
1000
0000
0100
0000
,
0010
0000
0100
0000
,
0010
0000
0100
0000
,
0000
0000
1000
0000
,
0100
0000
0000
0000
,
0010
0000
0001
0000
,
0100
0000
0000
0000
,
0001
0000
1000
0000
,
0100
0000
0000
0000
,
1000
0000
0001
0000
,
0100
0000
0000
0000
,
0001
0000
0010
0000
,
0100
0000
1000
0000
,
1000
0000
0000
0000
,
0001
0000
0000
0000
,
0000
0100
0000
0100
,
0000
0010
0000
0010
,
0000
1000
0000
0001
,
0000
0100
0000
0000
,
0010
0000
0100
0000
,
1001
0000
0000
0000
,
0001
0000
1000
0000
,
0000
0000
0000
0000
,
0000
0000
0001
0000
,
1000
0000
0010
0000
,
0100
0000
0010
0000
,
0100
0000
0001
0000
,
0000
0000
1000
0000
,
0000
0000
1001
0000
,
0000
0000
0000
0000
;

//---------------dance-single - ----------------
#NOTEDATA:;
#CHARTNAME:;
#CHARTHASH:2147483647:
#STEPSTYPE:dance-single;
#BANNER:;
#DESCRIPTION:;
#CHARTSTYLE:;
#DIFFICULTY:Easy;
#METER:5;
#METERF:0.000000;
#RADARVALUES:0.220181,0.334990,0.031454,0.041939,0.000000,147.000000,144.000000,3.000000,4.000000,0.000000,0.000000,0.000000,0.000000,0.000000,0.220181,0.334990,0.031454,0.041939,0.000000,147.000000,144.000000,3.000000,4.000000,0.000000,0.000000,0.000000,0.000000,0.000000;
#CREDIT:;
#DISPLAYBPM:190.000000;
#NOTES:
0000
0000
0000
0000
,
0000
0000
0000
0000
,
0000
0000
0000
0000
,
0000
0000
0000
0000
,
0000
0000
0000
0000
,
0010
0000
0010
0000
,
0100
0000
0100
0000
,
0001
0000
0000
0000
,
1000
0000
0000
0000
,
0010
0010
0100
0100
,
0001
0000
1000
0000
,
0001
0000
0001
0000
,
0100
0000
0100
0000
,
1000
0000
1000
0000
,
0010
0000
0010
0000
,
1000
0000
1000
0000
,
0100
0000
0100
0000
,
0001
0000
0001
0000
,
0010
0000
0010
0000
,
0001
0000
1000
0000
,
0010
0000
0100
0000
,
1000
0000
0001
0000
,
1001
0000
0000
0000
,
0000
0010
0000
0010
,
1000
1000
0100
0000
,
0000
0010
0000
0010
,
0001
0001
0100
0000
,
0000
0001
0000
0001
,
0010
0010
1000
0000
,
0000
1000
0000
1000
,
0010
0010
0001
0000
,
0000
1000
0000
0010
,
0000
0100
0000
0001
,
1000
0000
0001
0000
,
0010
0100
0010
0000
,
1000
1000
1000
0000
,
0010
0010
0010
0000
,
0001
0000
0100
0000
,
0001
0000
0100
0000
,
0001
0001
0001
0000
,
0010
0010
0010
0000
,
1000
0000
0100
0000
,
1000
0000
0100
0000
,
0010
0000
0100
0000
,
0010
0000
0100
0000
,
0000
0000
1000
0000
,
0100
0000
0100
0000
,
0010
0000
0001
0000
,
0100
0000
0100
0000
,
0001
0000
1000
0000
,
0100
0000
0100
0000
,
1000
0000
0001
0000
,
0100
0000
0100
0000
,
0001
0000
0010
0000
,
0100
0000
1000
0000
,
1000
1000
1000
1000
,
0001
0001
0001
0001
,
0100
0100
1000
0000
,
0010
0010
1000
0000
,
0100
0100
0001
0000
,
0010
0010
0001
0000
,
0010
0000
0100
0000
,
1001
0000
0000
0000
,
0001
0001
1000
1000
,
0010
0000
0000
0000
,
0000
0000
0001
0000
,
1000
0000
0010
0000
,
0100
0000
0010
0000
,
0100
0000
0002
0000
,
0003
0000
2000
0000
,
3000
0000
0220
0000
,
0330
0000
0000
0000
,
0000
0000
0000
0000
;

//---------------dance-single - ----------------
#NOTEDATA:;
#CHARTNAME:;
#CHARTHASH:2147483647:
#STEPSTYPE:dance-single;
#BANNER:;
#DESCRIPTION:;
#CHARTSTYLE:;
#DIFFICULTY:Medium;
#METER:7;
#METERF:0.000000;
#RADARVALUES:0.357982,0.487282,0.136303,0.094363,0.152030,239.000000,226.000000,13.000000,9.000000,0.000000,0.000000,0.000000,0.000000,0.000000,0.357982,0.487282,0.136303,0.094363,0.152030,239.000000,226.000000,13.000000,9.000000,0.000000,0.000000,0.000000,0.000000,0.000000;
#CREDIT:;
#DISPLAYBPM:190.000000;
#NOTES:
0000
0000
0000
0000
,
0000
0000
0000
0000
,
0000
0000
0000
0000
,
0000
0000
0000
0000
,
0000
0000
0000
0000
,
1000
0000
1000
0000
,
0001
0000
0001
0000
,
1000
0000
0000
0000
0000
0101
0000
0000
0000
0000
0000
0000
,
0001
0000
0000
0000
0000
1100
0000
0000
0000
0000
0000
0000
,
0001
0010
0100
1000
,
0010
0000
0000
0000
0000
1001
0000
0000
0000
0000
0000
0000
,
0100
0001
0100
1000
,
0100
0001
0100
1000
,
0010
0001
0010
1000
,
0010
0001
0010
1000
,
0001
1000
0001
0100
,
1000
0001
1000
0100
,
0010
0100
0010
1000
,
0100
0010
0100
0001
,
1000
1000
0010
0010
,
0001
0001
0100
0100
,
2000
0000
0000
3000
,
0220
0000
0330
0000
,
0100
0001
0100
0010
,
0100
0000
0000
0001
0000
0000
0000
0000
1000
0000
0000
0000
,
0100
1000
0100
0010
,
0100
0000
0000
1000
0000
0000
0000
0000
0001
0000
0000
0001
,
0000
0101
1000
0100
,
0001
0000
0000
0100
0000
0000
0000
0000
0110
0000
0000
0000
,
0001
1100
0001
0100
,
1000
0000
0000
0100
0000
0000
0000
0000
1001
0000
0000
0000
,
0010
0100
0001
0100
,
1000
0100
0010
0100
,
0001
1000
0000
1000
0001
0000
,
0010
0000
0000
0000
0000
1001
0000
0000
0000
0000
0000
0000
,
0010
1000
0010
0100
,
0010
0001
0010
0100
,
1000
1000
0001
0001
,
0100
0001
0010
0001
,
1000
0100
0010
0100
,
0001
0100
0010
0100
,
0001
0001
1000
1000
,
0000
0000
0010
0000
0000
0100
0000
0000
0000
0000
0000
0000
,
0100
0001
0010
0110
,
1000
0010
0001
1000
,
0010
0000
0010
0000
,
1000
0000
0000
0001
0000
0000
1000
0000
0001
0000
0000
0010
,
0000
0000
0010
0000
,
0001
0000
0000
1000
0000
0000
0001
0000
1000
0000
0000
0001
,
0000
0000
0001
0000
,
1000
0000
0000
0100
0000
0000
1000
0000
0001
0000
0000
1000
,
0000
0000
1000
0000
,
0001
0000
0000
0100
0000
0000
0001
0000
1000
0000
0000
0010
,
0000
0100
0001
0100
,
1000
0000
0000
0010
0000
0000
1000
0000
0001
0000
0000
0000
,
1000
1000
0100
0100
,
0001
0001
0010
0010
,
1000
0010
1000
0100
,
0001
0010
0001
0100
,
0010
0010
1000
0100
,
0001
0000
0000
1000
0000
0100
0000
0000
0000
0000
0000
0000
,
0110
0000
1000
0001
,
0200
0000
0000
0300
,
0001
0000
0001
1000
0000
1000
0001
0000
0001
1000
0000
1000
,
0020
0130
1000
0100
,
0001
0100
1000
0100
,
0001
0100
1000
0010
,
0001
0010
1000
0001
,
0110
0000
0000
1000
0000
0000
0001
0000
0000
0000
0000
0200
,
0000
0000
0000
0300
0000
0000
1000
0000
0000
0000
0000
0200
,
0000
0300
2002
0000
,
0000
0000
3003
0000
,
0000
0000
0000
0000
;

//---------------dance-single - ----------------
#NOTEDATA:;
#CHARTNAME:;
#CHARTHASH:2147483647:
#STEPSTYPE:dance-single;
#BANNER:;
#DESCRIPTION:;
#CHARTSTYLE:;
#DIFFICULTY:Hard;
#METER:12;
#METERF:0.000000;
#RADARVALUES:0.500276,0.637215,0.366969,0.209696,0.534726,334.000000,299.000000,35.000000,20.000000,0.000000,0.000000,0.000000,0.000000,0.000000,0.500276,0.637215,0.366969,0.209696,0.534726,334.000000,299.000000,35.000000,20.000000,0.000000,0.000000,0.000000,0.000000,0.000000;
#CREDIT:;
#DISPLAYBPM:190.000000;
#NOTES:
0000
0000
0000
0000
,
0000
0000
0000
0000
,
0000
0000
0000
0000
,
0000
0000
0000
0000
,
0000
0000
0000
0000
,
1000
0000
1000
0000
,
0001
0000
0001
0000
,
1000
0000
0001
0010
0000
0200
0000
0000
0000
0300
0000
0000
,
0001
0000
1000
0010
0000
0200
0000
0000
0000
0300
0000
0000
,
0001
0000
0010
0100
0000
0010
0100
0000
1000
0001
0000
0100
,
0001
0000
1000
0010
0000
0200
0000
0000
0000
0310
0000
0000
,
1100
0001
0101
1000
,
1100
0001
0101
1000
,
0100
0000
0000
1001
0000
0000
0100
0000
0001
0000
0000
0001
,
1000
0000
0000
0010
0000
0200
0000
0000
0000
0310
0000
0000
,
0101
1000
1100
0001
,
0101
1000
1100
0001
,
1000
0000
0001
0010
0000
0000
0100
0000
0000
0000
0000
0000
,
0100
0000
0000
1000
0000
0100
0000
0000
1001
0000
0000
0000
,
0110
0001
0110
1000
,
0100
0001
0100
1000
,
0020
1000
0001
0130
,
1001
0000
0000
0000
0000
0000
1000
0001
1000
0001
1000
0001
,
1000
0000
0000
0010
0000
0000
0001
0000
0010
0000
0000
0000
,
1000
0000
0000
0010
0000
0100
0000
0000
0101
0000
0000
0000
,
0001
0000
0001
0100
0000
0000
1000
0000
1000
0100
0000
0000
,
1000
0000
0001
0010
0000
0100
0000
0000
1100
0000
0000
1100
,
0000
0000
0000
0101
0000
0000
1000
0000
0101
0000
0000
0000
,
0010
0000
0000
0001
0000
1000
0000
0000
1010
0000
0000
0000
,
0001
0000
1000
0100
0000
0000
0001
0000
1000
0100
0000
0000
,
0001
0000
1000
0100
0000
0010
0000
0000
0011
0000
0000
0000
,
0010
0000
0000
0001
0000
0000
0010
0000
1000
0000
0000
0000
,
0100
0000
0000
0001
0000
0100
0000
0000
1001
0000
0000
0000
,
0002
0000
1000
0003
0000
0000
2000
0000
0001
3000
0000
0000
,
0010
0000
1000
0001
0000
0200
0000
0000
0000
0310
0000
0000
,
0010
0000
0100
0001
0000
0000
0010
0000
0100
1000
0000
0000
,
0010
0000
0100
0001
0000
0000
0010
0000
0100
1000
0000
0000
,
0001
0000
0100
0000
0000
1000
0100
0000
0000
0001
0000
1000
,
0010
0000
0000
1000
0000
0002
0000
0000
0000
0003
0000
0000
,
1000
0000
0000
0010
0000
0001
0000
0000
1010
0000
0000
0000
,
1000
0000
0001
0010
0000
0000
0001
0000
1000
0010
0000
0000
,
0100
0000
0000
1001
0000
0000
0100
0000
0001
0000
0000
0000
,
0000
0000
2000
0000
0000
0002
0000
0000
0000
3003
0000
0000
,
0100
1001
0010
1001
,
0010
0000
0000
0100
0000
0000
0001
0000
0001
1000
0000
1000
,
0120
0000
1000
0100
,
1000
0000
0000
0100
0000
0000
1030
0000
0001
0000
0000
0020
,
0000
0000
0001
0100
,
0001
0000
0000
0100
0000
0000
0031
0000
1000
0000
0000
0010
,
0000
0000
0200
0000
0000
0000
0001
0000
0000
0010
0000
0000
,
0001
0000
0000
0010
0000
0000
0301
0000
0010
0000
0000
0200
,
0000
0000
1000
0010
,
1000
0000
0000
0010
0000
0000
1300
0000
0001
0000
0000
1000
,
0000
0000
0001
0000
0000
0000
1000
0000
0000
0010
0000
0000
,
0001
0000
0000
0010
0000
0000
1000
0000
0001
0000
0000
0000
,
1000
0100
0010
0001
,
1000
0000
1000
0100
0000
0100
0010
0000
0010
0001
0000
0001
,
0100
0000
1000
0100
0000
0000
0100
0000
0001
0100
0000
0000
,
0100
0000
1000
0001
0000
0000
0100
0000
0000
0001
0000
1000
,
0000
0000
0010
0100
0000
0010
0100
0000
0001
1000
0000
0001
,
1000
0000
0100
0010
0000
0100
0000
0000
0000
0010
0000
0000
,
1000
0000
0100
0010
0000
1000
0000
0000
0001
1000
0000
0000
,
0200
0000
0000
0300
,
0001
0000
0001
0010
0000
0010
0100
0000
0100
1000
0000
1000
,
0100
0000
0100
0010
0000
0000
1100
0000
0010
0001
0000
0000
,
0101
1000
1100
0001
,
0101
0000
0000
1000
0000
0000
0110
0000
1000
0001
0000
0000
,
0110
1000
0110
0001
,
0110
0000
0000
1000
0000
0000
0001
0000
1000
0010
0000
0200
,
0000
0000
0001
0300
0000
0000
1000
0000
0001
0010
0000
0200
,
0000
0000
1000
0300
0000
0000
2002
0000
0000
0000
0000
0000
,
0000
0000
3003
0000
,
0000
0000
0000
0000
;

//---------------dance-single - ----------------
#NOTEDATA:;
#CHARTNAME:;
#CHARTHASH:0:
#STEPSTYPE:dance-single;
#BANNER:;
#DESCRIPTION:;
#CHARTSTYLE:;
#DIFFICULTY:Challenge;
#METER:14;
#METERF:0.000000;
#RADARVALUES:0.805833,1.174169,0.922664,0.786361,1.373511,538.000000,450.000000,88.000000,75.000000,0.000000,0.000000,0.000000,0.000000,0.000000,0.805833,1.174169,0.922664,0.786361,1.373511,538.000000,450.000000,88.000000,75.000000,0.000000,0.000000,0.000000,0.000000,0.000000;
#CREDIT:;
#DISPLAYBPM:63.000000:190.000000;
#NOTES:
// measure 0
0000
0000
0000
0000
,  // measure 1
0000
0000
0000
0000
,  // measure 2
0000
0000
0000
0000
,  // measure 3
0000
0000
0000
0000
,  // measure 4
0000
0000
0000
0000
,  // measure 5
0010
0000
0000
1010
0000
0000
1010
0000
1000
0001
0000
0000
,  // measure 6
0100
0000
0101
0000
0000
0202
0000
0000
0303
2002
0000
3003
,  // measure 7
1100
0000
0100
0010
0000
0022
0000
0030
2000
0000
0000
3003
,  // measure 8
1010
0000
0010
0100
0000
0202
0000
0300
2000
0000
3000
1003
,  // measure 9
0001
0000
0100
0010
0000
0100
0010
0000
0100
0010
0000
0100
,  // measure 10
0001
0000
1000
0010
0000
0100
0001
0010
0100
1000
0100
0010
,  // measure 11
0001
0000
1000
0100
0000
1000
0010
0000
0100
0001
0000
2000
,  // measure 12
0010
0000
3001
1000
0000
0010
1000
0000
0100
0010
0000
0002
,  // measure 13
0100
0000
0003
0011
0000
0000
1100
0000
0101
0000
0000
0001
,  // measure 14
1000
0010
0100
0001
0000
2200
0000
0300
3001
1000
0000
0001
,  // measure 15
0010
0000
0001
0100
0000
0010
1000
0000
0001
1000
0000
0200
,  // measure 16
0001
0000
1300
0001
0000
0100
0010
0000
1000
0100
0000
0010
,  // measure 17
0001
0000
1000
0010
0000
0000
1002
0000
0000
0103
0000
0000
,  // measure 18
0110
0000
0010
1000
0000
2200
0000
0300
3001
1000
0000
0100
,  // measure 19
0010
0000
0001
1000
0000
0010
1000
0000
0100
0010
0000
0001
,  // measure 20
0100
0000
0010
1000
0000
0100
1000
0000
0010
0100
0000
0001
,  // measure 21
1000
0100
1000
0100
1000
0100
1000
0100
1000
0100
1000
0100
,  // measure 22
0010
0100
0010
0100
0010
0100
1000
0010
1000
0001
0010
0001
,  // measure 23
0100
0000
0000
1001
0000
0000
0011
0000
1100
0000
0000
0001
,  // measure 24
0010
0100
1000
0001
0000
0220
0000
0330
2020
0000
3030
0001
,  // measure 25
1000
0000
0100
1000
0000
0001
0100
0000
0010
0100
0000
0001
,  // measure 26
1000
0000
0001
0010
0000
0200
0000
0300
0011
0000
0000
0022
,  // measure 27
0000
0033
1000
0001
0000
1000
0010
0000
0100
0000
0000
0100
,  // measure 28
0001
1000
0100
0010
0000
0100
0000
0000
2200
0000
3300
0100
,  // measure 29
1000
0000
0001
0010
0000
0100
1000
0000
0010
0100
0000
0001
,  // measure 30
0010
0000
0001
0100
0000
0020
0000
0000
1030
0001
0100
0010
,  // measure 31
1000
0000
0000
1001
0000
0000
0101
0000
1010
0000
0000
0100
,  // measure 32
0001
0010
0100
1000
0000
0220
0000
0330
0001
1000
0000
0001
,  // measure 33
0200
0300
0100
0000
0000
0001
0200
0300
0100
0000
0000
0001
,  // measure 34
1000
0000
0010
0100
0000
0010
1000
0100
0010
0001
0010
0100
,  // measure 35
1000
0000
0001
0010
0000
0001
0100
0000
0010
1000
0000
0100
,  // measure 36
0010
0000
0100
1000
0000
0010
1000
0000
0001
0100
0000
0010
,  // measure 37
1000
0000
1100
0000
0000
0010
0100
0000
0000
0001
0000
1000
,  // measure 38
0100
0010
0100
1000
0000
0202
0000
0300
1003
0100
0000
1000
,  // measure 39
0001
0000
1000
0010
0000
2000
0100
0000
3001
0010
0000
0000
,  // measure 40
1000
0000
0001
1000
0000
0100
0010
0000
0001
0100
0000
0010
,  // measure 41
1000
0000
0000
0011
0000
0000
1001
0000
0110
0000
0000
0010
,  // measure 42
1000
0000
2200
0000
3300
0022
0000
0003
0130
1000
0000
0001
,  // measure 43
0100
0000
0010
1000
0000
0001
1000
0000
0100
0010
0000
0001
,  // measure 44
0100
0000
0000
0000
0000
0000
0000
0000
0000
0000
0000
0000
0000
0000
0000
0000
0000
0000
0000
0000
0000
0000
0000
0000
0000
0000
0000
0000
0000
0000
0000
0000
0010
0000
0000
0000
0000
0000
0000
0000
0000
0000
0000
0000
0000
0000
0000
0000
1000
0000
0000
0000
0000
0000
0000
0000
0000
0000
0000
0000
0000
0000
0000
0000
0000
0000
0000
0000
0000
0000
0000
0000
0000
0000
0000
0000
0000
0000
0000
0000
0000
0000
0000
0000
0000
0000
0000
0000
0000
0000
0000
0000
0000
0000
0000
0000
2020
0000
0000
0000
0000
0000
0000
0000
0000
0000
0000
0000
0000
0000
0000
0000
0000
0000
0000
0000
0000
0000
0000
0000
0000
0000
0000
0000
0000
0000
0000
0000
0000
0000
0000
0000
0000
0000
0000
0000
0030
0000
0000
0000
0000
0000
0000
0000
3100
0000
0000
0000
0000
0000
0000
0000
0000
0000
0000
0000
0000
0000
0000
0000
1000
0000
0000
0000
0000
0100
0000
0000
0000
0000
0000
0010
0000
0000
0000
0000
0001
0000
0000
0000
0000
0010
0000
0000
0000
0000
0000
0100
0000
0000
0000
0000
,  // measure 45
2000
0000
0000
0000
0000
3000
1100
0000
0000
0110
0000
0000
,  // measure 46
0011
0000
0000
1001
0000
0000
1010
0000
0101
0000
0000
2200
,  // measure 47
0000
0000
0000
0000
0000
3300
1001
0000
0000
0011
0000
0000
,  // measure 48
1100
0000
0000
0101
0000
0000
1010
0000
0011
0000
0000
0220
,  // measure 49
0000
0330
2200
0000
0000
3300
0110
0000
0000
1001
0000
0000
,  // measure 50
1100
0000
0000
0101
0000
0000
1010
0000
0011
0000
0000
2020
,  // measure 51
0000
0000
0000
0000
0000
3030
1100
0000
0000
0110
0000
0000
,  // measure 52
0101
0000
0000
0011
0000
0000
1001
0000
0110
0000
0000
2020
,  // measure 53
0000
3030
0202
0000
0000
0303
1001
0000
0000
1100
0000
0000
,  // measure 54
0001
0000
1000
0010
0000
1000
0100
0000
0010
0001
0000
0000
,  // measure 55
1000
0000
0001
0100
0000
0000
1001
0000
0000
0110
0000
0000
,  // measure 56
0001
0010
0100
1000
0001
0100
0010
0001
1000
0010
0100
1000
,  // measure 57
0010
0000
1000
0001
0000
1000
0100
0000
0010
0001
0000
0100
,  // measure 58
0001
0000
0010
0001
0000
0100
0010
0000
1000
0100
0000
0010
,  // measure 59
0002
0203
0320
0230
2300
3200
0320
0230
,  // measure 60
0301
1000
0100
0010
0000
2200
0000
0300
3001
1000
0000
0000
,  // measure 61
0011
0000
1000
0010
0000
1000
0100
0000
0010
0001
0000
0000
,  // measure 62
0202
0000
0000
0303
,  // measure 63
0011
0100
0010
1010
1000
0100
1100
1000
0001
0101
0001
0010
,  // measure 64
0110
0000
0000
1001
0000
0000
1000
0100
1000
0001
0100
0001
1000
0000
0000
0000
0000
0000
1100
0000
0000
0000
0000
0000
,  // measure 65
0011
0000
0001
1000
0000
0010
1000
0000
0100
0010
0000
0001
,  // measure 66
0100
0000
0010
1000
0000
0001
0010
0000
0000
1100
0000
0000
,  // measure 67
0101
0000
1000
0010
0000
1000
0100
0000
0010
0001
0000
0100
,  // measure 68
0001
0000
1000
0010
0100
0001
1000
0000
0100
0010
0000
0022
,  // measure 69
0000
0030
2000
0000
0000
3003
0101
0000
0010
1000
0000
2200
,  // measure 70
0000
0000
3300
2002
0000
3003
2020
0000
0000
0000
0000
0000
,  // measure 71
0000
0000
0000
0000
,  // measure 72
0000
3030
0000
0000
;

//---------------dance-double - ----------------
#NOTEDATA:;
#CHARTNAME:;
#CHARTHASH:832400520:
#STEPSTYPE:dance-double;
#BANNER:;
#DESCRIPTION:;
#CHARTSTYLE:;
#DIFFICULTY:Easy;
#METER:5;
#METERF:0.000000;
#RADARVALUES:0.269610,0.336169,0.073394,0.020970,0.000000,180.000000,173.000000,7.000000,2.000000,0.000000,0.000000,0.000000,0.000000,0.000000,0.269610,0.336169,0.073394,0.020970,0.000000,180.000000,173.000000,7.000000,2.000000,0.000000,0.000000,0.000000,0.000000,0.000000;
#CREDIT:;
#DISPLAYBPM:190.000000;
#NOTES:
00000000
00000000
00000000
00000000
,
00000000
00000000
00000000
00000000
,
00000000
00000000
00000000
00000000
,
00000000
00000000
00000000
00000000
,
00000000
00000000
00000000
00000000
,
00100000
00000000
01000000
00000000
,
00010000
00000000
10000000
00000000
,
01000000
00000000
01100000
00000000
,
00010000
00000000
00011000
00000000
,
00000100
00000100
00000100
00000100
,
00000010
00000000
00001001
00000000
,
00000000
00000100
00000000
00001000
,
00000000
00000100
00000000
00001000
,
00010000
00100000
00010000
00100000
,
00100000
10000000
00100000
10000000
,
00000000
01000000
00000000
00010000
,
00000000
01000000
00000000
00010000
,
00001000
00000010
00001000
00000010
,
00000010
00000001
00000010
00000001
,
00000100
00000000
00001000
00000000
,
00000100
00000000
00000010
00000000
,
00010000
00000000
00001000
00001000
,
02000000
00000000
03000000
00000000
,
00000000
00100000
00000000
10000000
,
00000000
00100000
00000000
01000000
,
00000000
00001000
00000000
00010000
,
00000000
00000100
00000100
00000100
,
00000000
00000010
00000000
00000001
,
00000000
00001000
00000000
00000001
,
00000000
00000100
00000000
00001000
,
00000000
00010000
00010000
00010000
,
00000000
01000000
00000000
00100000
,
00000000
01000000
00000000
00010000
,
00011000
00000000
00010100
00000000
,
00000010
00000010
00000010
00000010
,
00000000
00000001
00000100
00000001
,
00000000
00000100
00001000
00000100
,
00000000
00001000
00010000
00001000
,
00010000
01000000
00100000
01000000
,
00000000
10000000
01000000
10000000
,
00000000
01000000
00010000
01000000
,
00000000
00010000
00001000
00010000
,
00001000
00000100
00000010
00000100
,
00000010
00000010
00000001
00000001
,
00000100
00000100
00001000
00010000
,
01000000
00000000
00100000
00100000
,
00000000
10000000
00000000
00010000
,
01000000
00000000
00001000
00001000
,
00000000
00010000
00000000
00000100
,
00000010
00000000
00000001
00000001
,
00000000
00000100
00000000
00001000
,
00010000
00000000
00100000
00100000
,
00000000
01000000
00000000
00010000
,
10000000
01000000
00010000
00000000
,
00010000
00001000
00000100
00000000
,
00000100
00000000
00000010
00000000
,
00000100
00000001
00000100
00000010
,
00001000
00000000
00010000
00010000
,
01000000
00000000
00100000
00100000
,
10000000
00000000
01000000
00000000
,
00010000
00000000
00001000
00000000
,
00000100
00000000
00000100
00000100
,
00000010
00000000
00000000
00000000
,
00000001
00000100
00001000
00010000
,
00100000
10000000
00000000
01000000
,
00000000
00010000
00000000
00010000
,
00000000
00001000
00000000
00001000
,
00000000
00000100
00000000
00000100
,
00000000
00000001
00000010
00000000
,
00001001
00000000
00000100
00000000
,
00011000
00000000
02000000
00000000
,
00000000
03000000
00000000
00000000
,
00000000
00000000
00000000
00000000
;

//---------------dance-double - ----------------
#NOTEDATA:;
#CHARTNAME:;
#CHARTHASH:2147483647:
#STEPSTYPE:dance-double;
#BANNER:;
#DESCRIPTION:;
#CHARTSTYLE:;
#DIFFICULTY:Medium;
#METER:7;
#METERF:0.000000;
#RADARVALUES:0.381947,0.522930,0.104848,0.157272,0.131060,255.000000,245.000000,10.000000,15.000000,0.000000,0.000000,0.000000,0.000000,0.000000,0.381947,0.522930,0.104848,0.157272,0.131060,255.000000,245.000000,10.000000,15.000000,0.000000,0.000000,0.000000,0.000000,0.000000;
#CREDIT:;
#DISPLAYBPM:190.000000;
#NOTES:
00000000
00000000
00000000
00000000
,
00000000
00000000
00000000
00000000
,
00000000
00000000
00000000
00000000
,
00000000
00000000
00000000
00000000
,
00000000
00000000
00000000
00000000
,
00000100
00000000
00000001
00000000
,
00000100
00000000
00001000
00000000
,
00010000
00000000
00000000
00000000
00000000
02200000
00000000
00000000
00000000
03300000
00000000
00000000
,
10000000
00000000
00000000
00000000
00000000
02200000
00000000
00000000
00000000
03300000
00000000
00000000
,
00010000
00001000
00000100
00000010
,
00000001
00000000
00000000
00000000
00000000
00000000
00000000
00000000
00000000
00000000
00000000
00000000
00000000
00000000
00000000
00000000
00000000
00000000
00000000
00000000
00000000
00000000
00000000
00000000
00000000
00000000
00000000
00000000
00000000
00000000
00000000
00000000
00000000
00000000
00000000
00000000
00000000
00000000
00000000
00000000
00002002
00000000
00000000
00000000
00000000
00000000
00000000
00000000
00000000
00000000
00000000
00000000
00000000
00000000
00000000
00000000
00000000
00000000
00000000
00000000
00000000
00000000
00000000
00003003
00000000
00000000
00000000
00000000
00000000
00000000
00000000
00000000
00000000
00000000
00000000
00000000
00000000
00000000
00000000
00000000
00000000
00000000
00000000
00000000
00000000
00000000
00000000
00000000
00000000
00000000
00000000
00000000
00000000
00000000
00000000
00000000
,
00000001
00000100
00001000
00010000
,
01000000
10000000
01000000
00010000
,
00001000
00000010
00000001
00000010
,
00001000
00010000
00100000
10000000
,
01000000
00100000
00001000
00010000
,
00000100
00000010
00000001
00000100
,
00000010
00010000
00001000
01000000
,
00010000
10000000
01000000
00100000
,
00001000
00001000
00010000
00010000
,
00000100
00000100
00000010
00000010
,
00000002
00000000
00001000
00001003
,
00000200
00000000
00001000
00001300
,
00010000
01000000
00100000
00100000
,
10000000
00000000
00000000
00100000
00000000
00000000
00010000
00000000
01000000
00000000
00000000
00000000
,
00001000
00010000
00000100
00000010
,
00000001
00000000
00000000
00000010
00000000
00000000
00001000
00000000
00010000
00000000
00000000
00010000
,
00001000
00000100
00000010
00000010
,
00000001
00000000
00000000
00000010
00000000
00000000
00001000
00000000
00000100
00000000
00000000
00000000
,
00010000
00001000
01000000
00100000
,
10000000
00000000
00000000
00100000
00000000
00000000
00010000
00000000
00001000
00000000
00000000
00000000
,
00000100
00000001
00000100
00001000
,
00010000
01000000
10000000
00100000
,
01100000
00000000
00011000
00000000
,
00000100
00000100
00000001
00000001
,
00000100
00001000
00010000
00100000
,
00010000
00001000
00000100
00001000
,
00010000
00010000
01000000
01000000
,
10000000
00010000
01000000
00001000
,
01000000
00010000
00001000
00000010
,
00001000
00010000
01000000
00010000
,
00001000
00001000
00000100
00000100
,
00000001
00001000
00000100
00010000
,
01000000
01000000
00100000
00100000
,
00001000
00001000
00010000
00010000
,
02000000
03000000
00100000
00100000
,
00010000
00000000
00000000
00010000
00000000
00000000
10000000
00000000
10000000
00000000
00000000
01000000
,
00000000
00000000
00010000
00010000
,
00001000
00000000
00000000
00001000
00000000
00000000
00000100
00000000
00000100
00000000
00000000
00000010
,
00000000
00000000
00000100
00000000
00000000
00000000
00000001
00000000
00000000
00000100
00000000
00000000
,
00000010
00000000
00000000
00000100
00000000
00000000
00001000
00000000
00001000
00000000
00000000
00010000
,
00000000
00000000
00100000
01000000
,
00010000
00000000
00000000
10000000
00000000
00000000
01000000
00000000
01000000
00000000
00000000
00000000
,
00200000
00010000
10000000
00310000
,
02000000
00001000
00010000
03001000
,
00010000
00001000
00000100
00000001
,
00000100
00001000
00010000
00100000
,
01000000
01010000
00100000
10000000
,
01000000
00010000
00001000
00000100
,
00000001
00000001
00000001
00000001
,
00000001
00000000
00000000
00000001
00000000
00000100
00000000
00000000
00000000
00001000
00000000
00000000
,
00010000
01000000
00100000
01000000
,
02200000
00000000
00000000
03300000
,
00010000
00000000
00010000
00001000
00000000
00001000
00000100
00000000
00000100
00000010
00000000
00000010
,
00001000
00000000
00001000
00000100
00000000
00000000
00000010
00000000
00000000
00000001
00000000
00000000
,
00000010
00001000
00010000
01000000
,
10000000
01000000
00010000
00001000
,
00000100
00000001
00000100
00001000
,
00010000
00000000
00000000
00100000
00000000
00000000
10000000
00000000
00000000
00000000
00000000
01100000
,
00000000
00000000
00000000
00000000
00000000
00000000
00010000
00000000
00000000
00000000
00000000
00011000
,
00000000
00000000
00000220
00000000
,
00000000
00000330
00000000
00000000
,
00000000
00000000
00000000
00000000
;

//---------------dance-double - ----------------
#NOTEDATA:;
#CHARTNAME:;
#CHARTHASH:2126909914:
#STEPSTYPE:dance-double;
#BANNER:;
#DESCRIPTION:;
#CHARTSTYLE:;
#DIFFICULTY:Hard;
#METER:13;
#METERF:0.000000;
#RADARVALUES:0.507765,0.634987,0.125818,0.146787,0.602877,339.000000,327.000000,12.000000,14.000000,0.000000,0.000000,0.000000,0.000000,0.000000,0.507765,0.634987,0.125818,0.146787,0.602877,339.000000,327.000000,12.000000,14.000000,0.000000,0.000000,0.000000,0.000000,0.000000;
#CREDIT:;
#DISPLAYBPM:190.000000;
#NOTES:
00000000
00000000
00000000
00000000
,
00000000
00000000
00000000
00000000
,
00000000
00000000
00000000
00000000
,
00000000
00000000
00000000
00000000
,
00000000
00000000
00000000
00000000
,
00000100
00000000
00000010
00000000
,
00000001
00000000
00000100
00000000
,
00001000
00000000
00010000
01000000
00000000
00200000
00000000
00000000
00000000
00300000
00000000
00000000
,
00010000
00000000
00001000
00000100
00000000
00000020
00000000
00000000
00000000
00000030
00000000
00000000
,
00001000
00000000
00001000
00000010
00000000
00000010
00000100
00000000
00000100
00001000
00000000
00001000
,
00010000
00000000
01000000
10000000
00000000
00200000
00000000
00000000
00000000
10300000
00000000
00000000
,
01000000
00000000
00000000
00010000
00000000
00000000
01000000
00000000
00000000
00100000
00000000
01000000
,
00000000
00000000
00000000
10000000
00000000
00000000
00100000
00000000
00000000
00010000
00000000
00001000
,
00000000
00000000
00000000
00000100
00000000
00000000
00000010
00000000
00001000
00000000
00000000
00000001
,
00000100
00000000
00000000
00000010
00000000
00001000
00000000
00000000
00000000
00000001
00000000
00000000
,
00000100
00000000
00000000
00001000
00000000
00000000
00010000
00000000
00001000
00000000
00000000
01000000
,
00000000
00000000
00100000
10000000
00000000
00000000
01000000
00000000
00000000
00010000
00000000
00000000
,
00001000
00000000
00000000
00000010
00000000
00000000
00000100
00000000
00000000
00000000
00000000
00000100
,
00000010
00000000
00000000
00000001
00000000
00001000
00000000
00000000
00000010
00000000
00000000
00000100
,
00000001
00000100
00001000
00010000
,
01000000
10000000
01000000
00010000
,
00001000
00001000
00000100
00000100
,
00002002
00000000
00000000
00003003
00000000
00000000
00001000
00000001
00001000
00000001
00001000
00000001
,
00001000
00000000
00000000
00000010
00000000
00000000
00000100
00000000
00001000
00000000
00000000
00010000
,
01000000
00000000
00000000
00100000
00000000
01000000
00000000
00000000
10010000
00000000
00000000
00100000
,
10000000
00000000
01000000
00010000
00000000
00001000
00000010
00000000
00000100
00000000
00000000
00000001
,
00000100
00000000
00010000
00001000
00000000
00100000
01000000
00000000
10010000
00000000
00000000
10010000
,
01000000
00000000
00000000
00100000
00000000
00000000
00001000
00000000
00010000
00000000
00000000
00000100
,
00000010
00000000
00000001
00001000
00000000
00000100
00000000
00000000
00000110
00000000
00000000
00000010
,
00000001
00000000
00000100
00001000
00000000
00010000
01000000
00000000
00100000
00000000
00000000
10000000
,
00100000
00000000
00010000
10000000
00000000
01000000
00000000
00000000
10010000
00000000
00000000
00000000
,
01000000
00000000
00000000
00100000
00000000
00000000
10000000
00000000
01000000
00000000
00000000
00010000
,
00001000
00000000
00000000
00000010
00000000
00000100
00000000
00000000
00000000
00000000
00000000
00000100
,
00000001
00000000
00000010
00000000
00000000
00000100
00001000
00000000
00000010
00000000
00000000
00000100
,
00000010
00000000
00000000
00000100
00000000
00000001
00001000
00000000
00000000
00000001
00000000
00000000
,
00000100
00000000
00001000
00010000
00000000
00000000
00100000
00000000
10000000
01000000
00000000
00000000
,
00100000
00000000
00010000
00001000
00000000
00000000
00000100
00000000
00000001
00000010
00000000
00000000
,
00000200
00000010
00001000
00010300
,
00002000
00100000
01000000
00013000
,
01000000
00000000
00000000
00010000
00000000
00001000
00000000
00000000
00000010
00000000
00000000
00000000
,
00000001
00000000
00000100
00001000
00000000
00000000
00010000
00000000
00100000
10000000
00000000
00000000
,
02000000
00100000
10000000
03010000
,
00020000
00000010
00000100
00031000
,
00000010
00000110
00000001
00001001
,
00000100
00011000
00200000
02300000
,
03010000
00000000
10000000
00010000
00000000
00000000
01000000
00000000
00000000
01000000
00000000
00000000
,
00100000
00000000
10000000
00100000
00000000
00000000
10000000
00000000
01000000
00000000
00000000
00010000
,
00001000
00000000
00010000
00001000
00000000
00000000
00000100
00000000
00000000
00000100
00000000
00000000
,
00000010
00000000
00000001
00000010
00000000
00000000
00000001
00000000
00000100
00000000
00000000
00000000
,
00001000
00000000
00010000
00001000
00000000
00000000
00100000
00000000
00000000
00100000
00000000
00000000
,
01000000
00000000
10000000
01000000
00000000
00000000
00000000
00000000
10000000
00100000
00000000
01000000
,
00010000
00000000
10000000
00010000
00000000
00000000
00100000
00000000
00000000
00100000
00000000
00000000
,
01000000
00000000
00010000
00001000
00000000
00000000
00000010
00000000
00000010
00000000
00000000
00000000
,
00000001
00000000
00000100
00000010
00000000
00000000
00000100
00000000
00001000
00010000
00000000
00000000
,
00001000
00000000
00100000
10000000
00000000
00000000
00100000
00000000
01100000
00000000
00000000
00000000
,
10000000
01000000
00010000
00001000
,
00001000
00000000
00001000
00010000
00000000
00010000
01000000
00000000
01000000
10000000
00000000
10000000
,
00100000
00000000
01000000
00100000
00000000
01000000
00010000
00000000
00000000
00010000
00000000
00000000
,
10000000
00000000
01000000
10000000
00000000
01000000
00010000
00000000
00000000
00010000
00000000
00000000
,
00001000
00000000
00000100
00001000
00000000
00000100
00000010
00000000
00000100
00000010
00000000
00000100
,
00000001
00000000
00000100
00000001
00000000
00000100
00000000
00000000
00000000
00000110
00000000
00000000
,
00000010
00000000
00010000
00001000
00000000
00010000
00000000
00000000
00001000
00010000
00000000
00000000
,
00000220
00000000
00000000
00000330
,
00000001
00000000
00001000
00000100
00000000
00010000
00001000
00000000
00100000
01000000
00000000
10000000
,
01000000
00000000
01000000
00100000
00000000
00000000
00001000
00000000
00000000
00000100
00000000
00000000
,
00001000
00010000
01000000
00010000
,
00001000
00000010
00000001
00000010
,
00001000
00010000
01000000
10000000
,
00100000
00000000
00000000
00010000
00000000
00000000
00001000
00000000
00000010
00000100
00000000
00010000
,
00000000
00000000
00000000
00000000
00000000
00001000
00010000
00000000
00100000
01000000
00000000
00001000
,
00000000
00000000
00000000
00000000
00000000
00010000
00002000
00000000
00000000
00000000
00000000
00000000
,
00000000
00003000
00000000
00000000
,
00000000
00000000
00000000
00000000
;
