#VERSION:0.83;
#TITLE:Heads Carolina, Tails California;
#SUBTITLE:;
#ARTIST:Jo Dee Messina;
#TITLETRANSLIT:;
#SUBTITLETRANSLIT:;
#ARTISTTRANSLIT:;
#GENRE:;
#ORIGIN:;
#TAGS:;
#CREDIT:;
#BANNER:Heads Carolina, Tails California-bn.png;
#BACKGROUND:Heads Carolina, Tails California-bg.png;
#PREVIEWVID:;
#JACKET:Heads Carolina, Tails California-jacket.png;
#CDIMAGE:;
#DISCIMAGE:;
#LYRICSPATH:;
#CDTITLE:;
#MUSIC:Heads Carolina, Tails California.ogg;
#OFFSET:1.533000;
#SAMPLESTART:42.262001;
#SAMPLELENGTH:20.000000;
#SELECTABLE:YES;
#DISPLAYBPM:137.000000;
#BPMS:0.000000=136.940002;
#STOPS:;
#DELAYS:;
#WARPS:;
#TIMESIGNATURES:0.000000=4=4;
#TICKCOUNTS:0.000000=4;
#COMBOS:0.000000=1;
#SPEEDS:0.000000=1.000000=0.000000=0;
#SCROLLS:0.000000=1.000000;
#FAKES:;
#LABELS:0.000000=Song Start;
#BGCHANGES:;
#KEYSOUNDS:;
#ATTACKS:
;

//---------------dance-single - ----------------
#NOTEDATA:;
#CHARTNAME:;
#CHARTHASH:3368136202:
#STEPSTYPE:dance-single;
#BANNER:;
#DESCRIPTION:;
#CHARTSTYLE:;
#DIFFICULTY:Beginner;
#METER:2;
#METERF:0.000000;
#RADARVALUES:0.120871,0.218246,0.031630,0.000000,0.000000,107.000000,103.000000,4.000000,0.000000,0.000000,0.000000,0.000000,0.000000,0.000000,0.120871,0.218246,0.031630,0.000000,0.000000,107.000000,103.000000,4.000000,0.000000,0.000000,0.000000,0.000000,0.000000,0.000000;
#CREDIT:;
#DISPLAYBPM:137.000000;
#NOTES:
0000
0000
0000
0000
,
0000
0000
0000
0000
,
0000
0000
0000
0000
,
0000
0000
0000
0000
,
0000
0000
0000
0000
,
0010
0000
0000
0000
,
0010
0000
0000
0000
,
0100
0000
0000
0000
,
0100
0000
0000
0000
,
0001
0000
0001
0000
,
1000
0000
0010
0000
,
0100
0000
0000
0000
,
0000
0000
0000
0000
,
0010
0000
1000
0000
,
0100
0000
0100
0000
,
0010
0000
0000
0000
,
0000
0000
0000
0000
,
0001
0000
0100
0000
,
0001
0000
0010
0000
,
1000
0000
0000
0000
,
0000
0000
0000
0000
,
0010
0000
0100
0000
,
0001
0000
1000
0000
,
0010
0000
0000
0000
,
0000
0000
0000
0000
,
0001
0000
0001
0000
,
1000
0000
1000
0000
,
0010
0000
1000
0000
,
0100
0000
1000
0000
,
0010
0000
0010
0000
,
0100
0000
0100
0000
,
0001
0000
0010
0000
,
0001
0000
0001
0000
,
0100
0000
0010
0000
,
1000
0000
0001
0000
,
1001
0000
0100
0000
,
0110
0000
0010
0010
,
0000
0000
1000
0000
,
1000
0000
0001
0000
,
0001
0000
0100
0000
,
0100
0000
0010
0000
,
1000
0000
0001
0000
,
0010
0000
0001
0000
,
1000
0000
0000
0000
,
0000
0000
0000
0000
,
0100
0000
0010
0000
,
0001
0000
0100
0000
,
1000
0000
0000
0000
,
0000
0000
0000
0000
,
0001
0000
0001
0000
,
0001
0000
0100
0000
,
1000
0000
0000
0000
,
0000
0000
0000
0000
,
0010
0000
0100
0000
,
0001
0001
0001
0000
,
0100
0000
0000
0000
,
0000
0000
0000
0000
,
0001
0000
0010
0000
,
0001
0000
0100
0000
,
1000
0000
0010
0000
,
1000
0000
0100
0000
,
0010
0000
0010
0000
,
0100
0000
0100
0000
,
0010
0000
0001
0000
,
0001
0000
1000
0000
,
0010
0000
0100
0000
,
0100
0000
0010
0000
,
1001
0000
0010
0000
,
0100
0100
0100
0000
,
0110
0000
0000
0000
;

//---------------dance-single - ----------------
#NOTEDATA:;
#CHARTNAME:;
#CHARTHASH:789168923:
#STEPSTYPE:dance-single;
#BANNER:;
#DESCRIPTION:;
#CHARTSTYLE:;
#DIFFICULTY:Easy;
#METER:6;
#METERF:0.000000;
#RADARVALUES:0.247390,0.313135,0.158149,0.118612,0.000000,219.000000,199.000000,20.000000,15.000000,0.000000,0.000000,0.000000,0.000000,0.000000,0.247390,0.313135,0.158149,0.118612,0.000000,219.000000,199.000000,20.000000,15.000000,0.000000,0.000000,0.000000,0.000000,0.000000;
#CREDIT:;
#DISPLAYBPM:137.000000;
#NOTES:
// measure 0
0000
0000
0000
0000
,  // measure 1
0000
0000
0000
0000
,  // measure 2
0000
0000
0000
0000
,  // measure 3
0000
0000
0000
0000
,  // measure 4
0000
0000
0000
0000
,  // measure 5
1001
0000
0001
0100
,  // measure 6
0110
0000
0010
1000
,  // measure 7
1001
0000
0000
0000
,  // measure 8
0001
0001
1000
1000
,  // measure 9
0010
0010
1000
0100
,  // measure 10
1000
0010
0100
0100
,  // measure 11
0002
0000
0000
0003
,  // measure 12
0000
0000
0000
0110
,  // measure 13
0001
0100
1000
1000
,  // measure 14
0010
1000
0100
0010
,  // measure 15
0002
0000
2000
3003
,  // measure 16
0000
0000
0000
1001
,  // measure 17
0010
1000
0100
0010
,  // measure 18
0001
0010
0001
0100
,  // measure 19
2000
0000
0000
3010
,  // measure 20
0100
0000
0000
0110
,  // measure 21
0001
0010
1000
1000
,  // measure 22
0100
0010
0001
0100
,  // measure 23
0020
0000
0000
2030
,  // measure 24
0000
3001
1000
0001
,  // measure 25
1001
0100
0010
0000
,  // measure 26
0110
1000
0100
0000
,  // measure 27
1000
1000
1000
0000
,  // measure 28
0001
0001
0001
0000
,  // measure 29
0010
0001
1000
0000
,  // measure 30
0100
0010
0001
0000
,  // measure 31
0110
0001
0100
0000
,  // measure 32
1001
1000
0010
0000
,  // measure 33
1000
1000
0100
0000
,  // measure 34
0010
0010
0001
0000
,  // measure 35
0100
0010
1001
0000
,  // measure 36
1000
0001
0100
0110
,  // measure 37
0000
0001
0010
1000
,  // measure 38
0000
1000
0100
0010
,  // measure 39
0000
0001
1000
0100
,  // measure 40
0000
0010
0001
0100
,  // measure 41
0001
0010
1000
0100
,  // measure 42
0010
0100
1000
0001
,  // measure 43
0200
0010
0020
0330
,  // measure 44
1000
0001
1000
0010
,  // measure 45
0100
0100
0001
0000
,  // measure 46
1001
0100
0110
0010
,  // measure 47
2000
0000
0001
3001
,  // measure 48
0100
0100
0010
1000
,  // measure 49
1001
0100
0010
1000
,  // measure 50
0100
0010
0110
0001
,  // measure 51
0200
1000
0001
0300
,  // measure 52
0010
0010
1000
0100
,  // measure 53
1000
0001
0200
0300
,  // measure 54
0010
0010
0010
1000
,  // measure 55
0002
0000
0000
0203
,  // measure 56
0000
0301
1000
0001
,  // measure 57
1001
1000
0100
0000
,  // measure 58
0110
0010
0001
0000
,  // measure 59
0100
0100
0100
0000
,  // measure 60
0010
0010
0010
0000
,  // measure 61
0010
1000
0001
0000
,  // measure 62
0100
0010
1000
0000
,  // measure 63
0100
1000
0001
0000
,  // measure 64
0100
0001
0010
0000
,  // measure 65
0001
0001
0010
0000
,  // measure 66
1000
1000
0010
0000
,  // measure 67
0100
0010
1001
0000
,  // measure 68
1000
0001
0100
0220
,  // measure 69
0000
0000
0000
0000
,  // measure 70
0000
0000
0000
0000
,  // measure 71
0000
0000
0000
0000
,  // measure 72
0330
0000
0000
0000
;

//---------------dance-single - ----------------
#NOTEDATA:;
#CHARTNAME:;
#CHARTHASH:472218724:
#STEPSTYPE:dance-single;
#BANNER:;
#DESCRIPTION:;
#CHARTSTYLE:;
#DIFFICULTY:Medium;
#METER:10;
#METERF:0.000000;
#RADARVALUES:0.390854,0.427002,0.284668,0.577244,0.015815,346.000000,310.000000,36.000000,73.000000,0.000000,0.000000,0.000000,0.000000,0.000000,0.390854,0.427002,0.284668,0.577244,0.015815,346.000000,310.000000,36.000000,73.000000,0.000000,0.000000,0.000000,0.000000,0.000000;
#CREDIT:;
#DISPLAYBPM:137.000000;
#NOTES:
0000
0000
0000
0000
,
0000
0000
0000
0000
,
0000
0000
0000
0000
,
0000
0000
0000
0000
,
0000
0000
0001
1000
0000
0001
1000
0000
,
2002
0000
3003
0000
1000
0100
0010
0001
,
0200
0000
0300
0000
0001
0010
0100
1000
,
0002
0000
0000
0003
,
1000
0001
0000
0001
1000
0010
0100
0002
,
0000
0023
0000
0031
0100
1000
0000
0020
,
0000
0000
1030
0001
0000
0101
0000
2200
,
0000
0300
0000
0000
3001
0000
1000
0000
0000
0000
0000
0000
0010
0000
0000
0000
,
0010
0000
1000
0000
0000
0000
0001
0000
0000
0000
0200
0000
0000
0310
0000
0000
,
1000
0001
0000
1010
0000
0002
0000
1003
,
0010
0100
0010
2000
0000
3200
0000
0320
,
0000
0000
0000
0031
0200
0000
0300
0000
,
0010
0000
1000
0000
0000
0000
0001
0000
0000
0000
2000
0000
0000
3020
0000
0000
,
1030
0000
0000
0100
0000
0000
0010
0000
0000
0000
0000
0000
0001
0000
1000
0000
,
0001
0100
0000
0210
0000
0301
0010
2000
,
0000
0000
3000
2000
,
3010
0000
0100
0001
0000
1000
0001
0020
,
0000
0031
1000
0200
0000
0310
0000
0100
,
1000
0000
0011
0000
0100
0010
0000
0200
,
0000
0000
0000
0000
0000
0301
0020
0000
,
0030
0001
1000
0001
0100
0010
1000
0001
,
0010
0000
0010
0001
1000
0001
0000
2100
,
0000
0000
3001
0100
0010
1000
0000
1002
,
0000
0023
0000
0230
0000
1300
0000
1010
,
0000
0102
0000
0000
1003
0001
0000
0020
,
0000
0031
1000
0002
0000
0013
0000
0200
,
0000
0000
1300
0010
1000
0001
0000
0021
,
0000
0130
1000
0000
0001
0100
0000
0120
,
0000
1030
0002
0000
1003
0100
0000
0011
,
0000
1100
0000
0001
1000
0010
0000
0102
,
0000
0000
0103
0010
1000
0010
0000
2010
,
0000
0000
3010
1000
0100
0010
0000
2001
,
0000
0000
3010
1000
0100
0000
0220
0000
,
0330
0000
0001
0000
0001
1000
0000
1010
,
0000
0000
0100
0000
0100
0010
0000
0110
,
0000
0000
1000
0000
1000
0100
0000
0011
,
0000
0100
0000
0100
0001
1000
0001
0020
,
0000
0031
1000
0002
0000
1003
0100
0010
,
0001
0100
0000
1001
0000
1010
0000
0210
,
0000
0000
0001
0000
0301
1000
0100
0000
,
1000
0001
0000
0010
0000
0001
0100
0010
,
1000
0001
0000
1000
0100
0000
0000
0010
,
0001
2000
0000
3100
1000
0020
0000
0230
,
0000
0000
0301
1000
0000
0001
1000
0100
,
0010
0000
0010
0000
0010
0001
1000
0002
,
0000
0023
0000
0032
0000
2003
0000
3020
,
0000
1030
0010
1000
0100
0010
0000
0002
,
0000
0100
1000
0203
,
0010
0000
0310
0000
0000
1000
0001
2000
,
0000
3100
0010
0002
0000
0003
0000
1000
,
0010
0100
0010
0100
0010
1000
0001
2000
,
0000
0000
0000
0000
0000
3100
0020
0000
,
0030
0001
0100
0010
1000
0001
1000
0100
,
0010
0000
0010
0001
1000
0001
0000
0201
,
0000
0000
0301
1000
0100
1000
0000
2010
,
0000
3002
0000
2003
0000
3100
0000
1100
,
0000
0021
0000
0000
0031
1000
0000
0020
,
0000
1030
0100
2000
0000
3001
0000
0200
,
0000
0000
0310
0100
0001
1000
0000
2001
,
0000
3100
0010
0000
1000
0001
0000
0120
,
0000
0031
0100
0000
0010
1000
0000
1100
,
0000
0102
0000
1003
0100
0010
0000
0021
,
0000
0000
0130
1000
0001
1000
0000
1020
,
0000
0000
0130
0010
1000
0001
0000
1002
,
0000
0000
1003
0100
0010
0000
0220
0000
,
0000
0000
0000
0000
,
0000
0000
0000
0000
,
0000
0000
0000
0000
,
0330
0000
0000
0000
;

//---------------dance-single - ----------------
#NOTEDATA:;
#CHARTNAME:;
#CHARTHASH:2005779312:
#STEPSTYPE:dance-single;
#BANNER:;
#DESCRIPTION:;
#CHARTSTYLE:;
#DIFFICULTY:Hard;
#METER:12;
#METERF:0.000000;
#RADARVALUES:0.508336,0.540870,0.316298,0.561429,0.055352,450.000000,410.000000,40.000000,71.000000,0.000000,0.000000,0.000000,0.000000,0.000000,0.508336,0.540870,0.316298,0.561429,0.055352,450.000000,410.000000,40.000000,71.000000,0.000000,0.000000,0.000000,0.000000,0.000000;
#CREDIT:;
#DISPLAYBPM:137.000000;
#NOTES:
0000
0000
0000
0000
,
0000
0000
0000
0000
,
0000
0000
0000
0000
,
0000
0000
0000
0000
,
0000
0000
0110
0110
0000
0001
1000
0010
,
1001
0000
0100
1000
0100
0010
0001
1000
,
1100
0000
0010
1000
0001
1000
0100
0010
,
0021
0001
0001
0031
,
1000
0100
1000
0010
0100
0001
1000
0200
,
0000
0320
0000
0031
1000
0010
0000
0102
,
0000
0000
1003
0020
0000
2030
0000
3200
,
0010
0000
0301
0100
0000
0100
1000
0010
,
0100
0000
0001
0000
0100
0000
0001
0000
0000
0000
2000
0000
0000
3001
0000
0000
,
1001
0010
0000
0101
0000
1000
0000
1000
,
0100
0010
0001
2000
0000
3020
0000
0230
,
0010
0000
1300
0100
0000
0100
0001
1000
,
0100
0000
0010
0000
0100
0000
0010
0000
0000
0000
0002
0000
0000
1003
0000
0000
,
0010
0000
1000
0100
0000
0000
1000
0000
0000
0001
0000
0000
0010
0000
0100
0000
,
1000
0010
1000
0002
0000
0103
0010
2000
,
0001
0000
3100
1000
0000
1000
0010
0100
,
0001
0000
0010
0100
0000
1000
0001
2000
,
0000
3010
0100
0002
0000
0013
0000
0001
,
0011
0000
1100
0000
0001
0100
0010
2000
,
0100
0000
3010
1000
0000
1000
0001
0020
,
0000
0001
0031
1000
0010
1000
0100
0010
,
1001
0000
1000
0010
0100
0001
0010
0220
,
0000
0300
0000
0000
0130
0000
0010
0000
0001
0000
0100
0000
0010
0000
2010
0000
,
0000
3001
0100
2000
0000
3100
0010
0021
,
0000
0031
0100
0010
1000
0001
0100
0020
,
0000
1030
0100
2000
0000
3001
0010
0200
,
0000
0000
1300
0010
1000
0001
0010
2100
,
0000
0001
3001
1000
0010
0100
0010
0102
,
0000
1000
1003
0001
0010
0001
0100
1010
,
0000
1100
0001
0100
0010
1000
0100
0022
,
0000
0030
0000
0000
1003
0000
0001
0000
1000
0000
0010
0000
0100
0000
0220
0000
,
0000
0030
0000
0000
0301
0000
0010
0000
0001
0000
0100
0000
0010
0000
2002
0000
,
0000
0003
0000
0000
3100
0000
0010
0000
0001
0000
1000
0000
0010
0000
0100
0001
,
0100
0000
0110
0001
1000
0010
1000
0001
,
0000
0010
0001
0100
0001
0010
0100
1000
,
0000
1000
0001
1000
0010
0100
0001
0010
,
0000
0001
1000
0010
1000
0001
0010
0200
,
0000
1300
0001
0020
0000
0031
0100
1000
,
0010
0200
0000
0302
0000
0023
0000
0230
,
1000
0000
0310
0100
1000
0001
0100
0000
,
1010
1010
0010
2000
0000
3100
0010
0001
,
1000
0001
0000
0200
0010
0000
0310
1000
,
0001
0020
0000
0031
1000
0002
0000
0023
,
1000
0000
0031
0010
0001
0100
0010
1000
,
0200
0000
0000
0000
2300
0000
0000
0000
3001
1000
0001
0000
0100
0000
0010
0000
,
0000
1100
0000
0101
0000
0011
0000
2010
,
0000
0100
3100
1000
0010
0100
0001
1000
,
0100
1000
1000
0001
1000
1000
0010
0200
,
0000
0302
0000
1003
0001
0010
0100
2000
,
0000
3010
1000
0100
0000
0100
0010
0001
,
1000
1000
0010
0010
0100
0001
1000
0100
,
0020
0000
0000
0000
0100
0000
0100
0000
0000
0000
0031
1000
0002
0000
0000
0000
,
0103
0001
0001
0010
0100
1000
0010
0100
,
1001
0000
0001
0010
0001
0100
0010
2020
,
0000
3000
0000
0000
0130
0000
0010
0000
1000
0000
0001
0000
0010
0000
0021
0000
,
0000
0031
0100
2000
0000
3001
0100
0120
,
0000
2030
0000
3001
0010
0100
1000
0020
,
0000
1030
0001
0020
0000
0031
1000
0200
,
0000
0000
1300
0010
1000
0001
0010
1200
,
0000
1000
1300
0010
0100
0001
0010
0201
,
0000
0010
0310
1000
0001
1000
0100
0011
,
0000
1001
0010
1000
0001
1000
0100
0220
,
0000
0030
0000
0000
1300
0000
0001
0000
1000
0000
0010
0000
0100
0000
0202
0000
,
0000
0300
0000
0000
1003
0000
0001
0000
1000
0000
0010
0000
0100
0000
2010
0000
,
0000
0001
3001
1000
0010
0100
0220
0000
,
0000
0000
0000
0000
,
0000
0000
0000
0000
,
0000
0000
0000
0000
,
0330
0000
0000
0000
;
