#TITLE:Haunted Rhapsody;
#ARTIST:Architect ft. Jasmine Nii;
#BANNER:Haunted Rhapsody.png;
#BACKGROUND:Haunted Rhapsody-bg.png;
#JACKET:Haunted Rhapsody-jacket.png;
#MUSIC:Haunted Rhapsody.ogg;
#SAMPLESTART:66.6;
#SAMPLELENGTH:20;
#DISPLAYBPM:155;
#BPMS:0=154.2,4=155;
#BGCHANGES:;

//---------------dance-single - ----------------
#NOTES:
     dance-single:
     :
     Beginner:
     2:
     :
0000
0000
0000
0000
,
0000
0000
0000
0000
,
0000
0000
0000
0000
,
0000
0000
0000
0000
,
0000
0000
0000
0000
,
0010
0000
0000
0000
,
0100
0000
0000
0000
,
1000
0000
1000
0000
,
0001
0000
0001
0000
,
1001
0000
0000
0000
,
1001
0000
0000
0000
,
0010
0000
0000
0000
,
0100
0000
0000
0000
,
1000
0000
0000
0000
,
0001
0000
0000
0000
,
0010
0000
0000
0000
,
0100
0000
0000
0000
,
0001
0000
0001
0000
,
0001
0000
0000
0000
,
0010
0000
0000
0000
,
0001
0000
0001
0000
,
0010
0000
0000
0000
,
1000
0000
1000
0000
,
0100
0000
0000
0000
,
0001
0000
0001
0000
,
0100
0000
0000
0000
,
1000
0000
1000
0000
,
0010
0000
0010
0000
,
1000
0000
1000
0000
,
0100
0000
0100
0000
,
0001
0000
0001
0000
,
0010
0000
0010
0000
,
0001
0000
0001
0000
,
0100
0000
0100
0000
,
1000
0000
0000
0000
,
0010
0000
0010
0000
,
0001
0000
0001
0000
,
1000
0000
1000
0000
,
0100
0000
0100
0000
,
0001
0000
0001
0000
,
1000
0000
1000
0000
,
0010
0000
0010
0000
,
0100
0000
0100
0000
,
1000
0000
1000
1000
,
0001
0000
0001
0000
,
1000
0000
1000
0000
,
0001
0000
0001
0000
,
0010
0000
0010
0000
,
0100
0000
0100
0000
,
0010
0000
0010
0000
,
0100
0000
0000
0000
,
1000
0000
1000
1000
,
0001
0000
0001
0000
,
0010
0000
0010
0000
,
0100
0000
0100
0000
,
1000
0000
1000
1000
,
0001
0000
0001
0000
,
0010
0000
0010
0000
,
0001
0000
0000
0000
,
0010
0000
0010
0000
,
1000
0000
1000
0000
,
0100
0000
0100
0000
,
0001
0000
0001
0000
,
1001
0000
0000
0000
,
1001
0000
0000
0000
,
1001
0000
0000
0000
,
0000
0000
0000
0000
;

//---------------dance-single - ----------------
#NOTES:
     dance-single:
     :
     Easy:
     5:
     :
0000
0000
0000
0000
,
0000
0000
0000
0000
,
0000
0000
0000
0000
,
0000
0000
0000
0000
,
0000
0000
0000
0000
,
0001
0000
0000
0000
,
1000
0000
0000
0000
,
0010
0000
1000
0000
,
0001
0000
1000
0000
,
0220
0000
0000
0330
,
2002
0000
0000
3003
,
0001
0000
1000
0000
,
1000
0000
0001
0000
,
0010
0000
0100
0000
,
0100
1000
0010
0000
,
0001
0000
1000
0000
,
0100
0000
0001
0000
,
1000
0000
0001
0100
,
1001
0000
0000
0000
,
0010
0100
1000
0000
,
0010
0100
0001
0000
,
0010
1000
0100
0000
,
0010
0001
0100
0000
,
1000
0100
0001
0000
,
0100
0010
0001
0000
,
2002
3003
0220
0330
,
2002
3003
0220
0330
,
1000
0001
1000
0000
,
0010
1000
0010
0000
,
0100
0010
0100
0000
,
1000
0001
1000
0000
,
0001
1000
0001
0000
,
0100
0010
0100
0000
,
1001
0000
0110
0000
,
0220
0000
0000
0330
,
1000
0000
0001
0000
,
0010
0000
1000
0000
,
0100
0000
0001
0000
,
1000
0000
0010
0000
,
0001
0000
0010
0000
,
1000
0000
0001
0000
,
0101
0000
1010
0000
,
0110
0000
0110
0000
,
0010
0010
1000
0000
,
1000
1000
0001
0000
,
0001
0001
1000
0000
,
0010
0001
0100
0000
,
0001
1000
0010
0000
,
0100
1000
0010
0000
,
0001
0010
0100
0000
,
2002
0000
0000
3003
,
1000
0001
1000
0000
,
0010
0001
1000
0000
,
0100
1000
0010
0000
,
0001
0010
0100
0000
,
1000
0010
0100
0000
,
0001
1000
0100
0000
,
1001
0000
1001
0000
,
0220
0000
0000
0330
,
1000
0000
0000
0000
,
0001
0000
1000
0000
,
0010
0000
0001
0000
,
1000
0000
0100
0000
,
2002
0000
0000
3003
,
0220
0000
0000
0330
,
2002
0000
0000
0000
,
0000
0000
0000
3003
,
0000
0000
0000
0000
;

//---------------dance-single - ----------------
#NOTES:
     dance-single:
     :
     Medium:
     7:
     :
0000
0000
0000
0000
,
0000
0000
0000
0000
,
0000
0000
0000
0000
,
0000
0000
0000
0000
,
0000
0000
0000
0000
,
2002
0000
0000
3003
,
0002
0003
2000
3000
,
0020
0030
0200
0300
,
0002
0003
2000
3000
,
0220
0000
0000
0330
,
2000
0000
3000
0100
,
1000
0100
0001
0100
,
1000
0010
0100
0001
,
1000
0100
0001
0100
,
1000
0100
0010
0001
,
1000
0010
0100
0001
,
0010
0100
1000
0001
,
1000
0100
0001
0100
,
2002
0000
0000
0000
3003
0000
0000
0000
0001
0000
0000
1000
0001
0000
1000
0000
,
0001
0100
0010
1000
,
0100
0010
0001
1000
,
0010
0100
0001
0010
,
0100
1000
0001
0100
,
1000
0100
0001
0100
,
0010
1000
0001
0100
,
2000
3000
0002
0003
,
1001
0000
0110
0000
,
1000
0100
0001
0100
,
0010
0100
2000
3000
,
0200
0000
0300
0000
1000
0000
0000
0001
,
1000
0000
0010
0000
0100
0000
0001
0100
,
0001
0100
0010
1000
,
0001
0010
0200
0300
,
0001
0100
1000
0100
,
2002
0000
0000
0000
3003
0000
0000
0000
1000
0000
0000
0001
1000
0000
0001
0000
,
2000
3000
0020
0030
,
1000
0010
0100
0001
,
2000
3000
0002
0003
,
1000
0000
0010
0000
0100
0000
0010
0100
,
0020
0030
0200
0300
,
1000
0100
1000
0001
,
2002
3003
2200
3300
,
0020
0030
2000
3000
,
0001
0100
1000
0100
,
0001
0010
0100
1000
,
0001
0100
1000
0100
,
0001
0000
0100
0000
0010
0000
1000
0010
,
1000
0001
0100
0010
,
1000
0100
0001
0100
,
2000
3000
0002
0003
,
1000
0000
0000
0000
0001
0000
0000
1000
0001
0000
1000
0000
0001
0000
1000
0000
,
0002
0003
0100
1000
,
0100
0010
0001
0100
,
0010
1000
0100
0010
,
0001
0000
0100
0000
0010
0100
0010
0100
,
0020
0030
0001
0100
,
0010
0000
1000
0000
0001
1000
0001
1000
,
0002
0003
0200
0300
,
2000
3000
0001
1000
,
1000
0100
0001
0100
,
1000
0010
0100
0001
,
1000
0100
0001
0100
,
1000
0001
1000
0001
1000
0100
1000
0100
,
2000
3000
0002
0003
,
0220
0330
1000
0001
,
2002
0000
0000
0000
,
0000
0000
0000
3003
,
0000
0000
0000
0000
;

//---------------dance-single - ----------------
#NOTES:
     dance-single:
     :
     Hard:
     13:
     :
0000
0000
0000
0000
,
0000
0000
0000
0000
,
0000
0000
0000
0000
,
0000
0000
0000
0000
,
0000
0000
0000
0000
,
2000
0000
0002
3000
,
0103
0001
0020
0000
,
0130
1000
0010
1000
,
0001
0010
0001
0100
,
1000
0100
0001
0000
0010
0000
1000
0100
,
1000
0000
0010
0000
0001
0010
0001
0100
,
2000
0000
3000
0000
0100
0001
0100
0000
,
0001
0000
0010
0000
1000
0010
0001
0100
,
0020
0000
2000
3030
,
0100
0001
0000
0100
1000
0000
0010
0000
,
0002
0000
0003
0000
0010
1000
0010
0000
,
1000
0000
0100
0000
0001
0100
1000
0010
,
1000
0000
0000
0100
0000
0000
0010
0000
0001
0000
0000
0000
0100
0000
0000
0000
,
1000
0100
0001
0000
0001
0010
1000
0000
,
0010
0001
0100
0001
,
1000
0000
0100
0000
0010
0001
1000
0010
,
0100
0001
0010
0001
,
1000
0010
0001
0010
0100
0000
0001
0000
,
1000
0100
1000
0010
,
0001
0000
0010
0000
1000
0100
0001
0010
,
0001
0000
0000
0100
0000
0000
1000
0000
0010
0000
0000
0000
1000
0000
0000
0000
,
0100
0000
0001
0010
0001
0000
0100
0000
,
0001
0000
0100
0000
1000
0000
0000
0000
0010
0000
0000
0000
1000
0000
0100
0010
,
0001
0000
0000
0000
0100
0000
0001
0000
1000
0000
0100
1000
0100
0000
0001
0000
,
0010
0000
0001
0000
0100
0000
0010
0001
0010
0000
1000
0000
0100
0000
0010
1000
,
0001
0000
0100
0000
1000
0000
0010
0000
0001
0000
0000
0000
0010
0000
1000
0100
,
0001
0000
0100
0000
1000
0000
0000
0000
0010
0000
0000
0000
1000
0000
0100
0010
,
0001
0000
0000
0000
0100
0000
0001
0000
1000
0000
0100
1000
0100
0000
0001
0000
,
0010
0000
0000
0001
0000
0000
0100
0000
0010
0000
1000
0000
0100
0000
1000
0000
,
0001
0100
1000
0010
0001
0010
1000
0100
,
0010
0000
1000
0010
1000
0000
0100
0000
0010
0000
0001
0010
0001
0000
0100
0000
,
1010
0000
0010
0000
1000
0000
0001
0000
0010
0000
0001
1000
0001
0000
0100
0000
,
1000
0100
1000
0100
0001
0000
0100
0100
,
1000
1000
0010
0010
0001
0000
0100
0100
,
0010
0000
1000
0010
1000
0000
0100
0000
0010
0000
0001
0010
0001
0000
0100
0000
,
1010
0000
0010
0000
1000
0000
0001
0000
0010
0000
0001
1000
0001
0000
0100
0000
,
1000
0000
0000
0100
0000
0000
0010
0000
1000
0000
0100
0000
0001
0000
0100
0000
,
0010
0001
1000
0100
0010
1000
0001
0100
,
0002
0000
0020
0033
,
0100
0000
1000
0000
0010
0001
0010
1000
,
0100
0000
0000
0001
0000
0000
0010
0000
0001
0000
0000
0000
0000
0000
0000
0000
,
0100
0000
1000
0000
0010
0000
0001
0010
,
2000
3020
0200
0330
,
0001
0000
0010
0000
1000
0000
0010
0001
,
0200
0000
2000
0300
,
0200
3000
0000
0300
,
0100
1000
0100
0010
0100
0001
1000
0100
,
0010
0000
0100
0000
0001
0000
0100
0000
1000
0000
0000
0000
0010
0000
0001
0010
,
0001
0010
0100
0010
1000
0010
1000
0001
,
0010
0000
0001
0000
0010
0000
0100
0000
0010
0000
1000
0010
1000
0000
0100
1000
,
0100
0001
0100
0010
0100
1000
0001
0100
,
0010
0000
0100
0000
1000
0000
0100
0000
0001
0000
0000
0000
0010
0000
0001
1000
,
0010
0000
0100
0000
1000
0000
0100
0001
,
0010
0000
0001
0000
0010
0000
0100
0000
0010
0000
1000
0010
0001
0000
0100
0001
,
1000
0001
0010
1000
0010
0001
0100
1000
,
0100
0000
0001
0010
0001
0000
0000
0000
0100
0000
1000
0010
1000
0000
0000
0000
,
0100
0001
0010
1000
,
0100
1000
0010
0001
,
0100
0000
1000
0100
0001
0000
0010
0001
,
1000
0000
0010
1000
0100
0000
0001
0100
,
2000
0000
0000
0000
,
0000
0000
0000
3000
,
0000
0000
0000
0000
;

//---------------dance-single - ----------------
#NOTES:
     dance-single:
     :
     Challenge:
     17:
     :
0000
0000
0000
0000
,
0000
0000
0000
0000
,
0000
0000
0000
0000
,
0000
0000
0000
0000
,
0000
0000
0000
0000
,
1100
0000
0000
0100
1000
0000
0000
1000
0010
0000
0000
0010
0100
0000
0001
0000
,
0011
0100
1000
0100
0010
1000
0010
0001
,
0101
0100
0010
1000
1100
0001
1000
0100
,
0110
0000
0000
0010
0001
0000
0100
0000
1001
0000
0000
1000
0001
0000
0100
0000
,
1010
0001
0100
0010
1000
0100
1000
0001
,
0101
0000
0010
0100
0001
0010
0001
0010
0100
1000
0010
1000
0001
1000
0100
0010
,
0001
0100
0001
0000
1000
0100
1000
0000
0001
0010
0001
0000
1000
0010
1000
0000
,
0100
0000
1000
0001
1000
0000
0010
0100
0010
0000
0100
0001
1000
0000
0010
0000
,
2000
0000
0100
0000
0100
0000
3100
0000
0001
0000
1000
0010
1000
0000
0001
0000
,
0100
0010
0000
0010
1000
0000
0001
0000
0010
0001
0100
0010
1000
0000
0001
1000
,
0100
1000
0100
0000
0010
0001
0010
0000
0001
0100
0001
0000
1000
0010
1000
0000
,
0100
0000
1000
0001
1000
0000
0010
0100
0010
0000
1000
0100
0010
0000
0001
0000
,
0100
0001
0000
0010
0100
0000
1000
0000
0010
1000
0010
0000
0100
0001
0100
0000
,
0001
0000
0010
0100
1000
0000
0010
0100
0001
0000
1000
0001
1000
0000
0010
0000
,
1000
0100
0010
0100
1000
0000
0010
0000
0100
0001
0010
0001
0100
0000
0010
0000
,
1000
0000
0100
1000
0001
0000
0010
0001
0100
0000
0010
1000
0010
0000
0100
0000
,
0001
0010
0000
0001
1000
0000
0010
0000
1000
0100
0000
0010
0001
1000
0001
0000
,
0100
0010
0000
0010
1000
0000
0100
0000
1000
0000
0001
0100
0001
0010
0001
0000
,
1000
0010
0100
0010
1000
0000
0001
0000
0010
0100
1000
0100
0010
0000
0001
0000
,
0100
0000
0001
1000
0001
0000
0010
0100
0010
0000
0001
1000
0010
0000
0100
0000
,
0001
0010
0000
0001
1000
0000
0100
0000
1000
0010
1000
0000
0001
0100
0001
0000
,
0010
1000
0010
0001
0010
0000
0100
0000
1000
0000
0010
0001
0010
0100
0010
1000
,
0100
1000
0001
0000
0100
0001
1000
0000
0010
1000
0001
0000
0010
0001
1000
0000
,
0100
0000
0010
0001
0010
0000
0100
1000
0100
0000
2000
0000
3002
0000
0203
0000
,
0320
0000
1000
0000
1000
0000
1030
0000
0001
0000
0100
0010
0100
0000
0001
0000
,
0010
0001
0010
0100
1000
0000
0001
0000
0100
0010
1000
0010
0100
0000
0001
1000
,
0001
0000
0010
0100
1000
0000
0010
0000
1000
0001
1000
0000
0100
0010
0001
0000
,
0100
0000
0010
1000
0010
0000
0100
0001
0100
0000
0020
0000
2030
0000
3002
0000
,
0013
0000
0001
0100
0010
0000
1000
0000
0100
1000
0001
0000
0010
0100
0010
0000
,
0001
0000
1000
0010
1000
0000
0001
0000
0100
0000
0010
1000
0010
0000
0100
0000
,
0001
1000
0010
1000
0001
0000
0100
0000
0010
1000
0100
1000
0010
0000
0100
0000
,
0001
0010
0001
0000
1000
0010
1000
0000
0001
0100
0001
0000
1000
0100
1000
0000
,
0010
0000
1000
0001
0010
0000
0100
0000
1000
0000
0010
0100
0010
1000
0001
0000
,
0010
1000
0010
0001
0100
0000
0010
0000
1000
0000
0001
0100
0001
1000
0010
0000
,
1000
0100
0001
0100
1000
0000
0010
0000
0100
1000
0100
0001
0010
0000
0100
0000
,
1000
0000
0010
0100
0010
0000
1000
0001
1000
0000
0100
0010
0001
0000
0100
0000
,
0101
0000
0100
0010
1000
0000
0001
0000
1100
0000
0100
1000
0001
0000
0010
0000
,
0001
0100
0001
0100
0001
0000
1000
0000
0010
0001
1000
0100
1000
0100
0001
0010
,
0100
1000
0100
1000
0001
0000
0100
0000
0010
1000
0001
0000
0010
0001
0100
0000
,
0010
1000
0010
1000
0010
1000
0010
0000
0100
0001
0100
0001
0100
0001
0100
0000
,
0001
0000
0010
0001
1000
0010
0100
0000
0010
0000
1000
0100
1000
0000
0001
0100
,
0001
0000
0010
0100
1000
0000
0010
0100
0001
0000
1000
0001
0100
0001
1000
0000
,
0010
1000
0010
1000
0001
0000
0010
0100
1000
0001
1000
0000
0001
0100
0001
0000
,
0010
0001
0010
0001
0010
0001
0010
0000
0100
1000
0100
1000
0100
1000
0100
0000
,
1000
0001
0000
0001
0010
0000
0100
0000
1000
0010
0000
0010
0100
0000
0001
0000
,
1000
0100
0001
0000
0010
0001
0100
0000
0010
0001
0100
1000
0001
1000
0010
0100
,
0001
0010
0001
0010
0001
0010
0100
1000
0010
1000
0001
0000
0100
0010
1000
0000
,
0100
0000
1000
0010
1000
0000
0001
0010
0001
0000
1000
0100
1000
0000
0001
0100
,
0001
0010
1000
0010
0001
0000
0100
0010
1000
0000
0100
1000
0001
0000
0100
0000
,
0010
0000
1000
0001
0100
0000
0001
1000
0100
0000
0010
0001
0100
0000
0010
1000
,
0100
0010
0100
1000
0100
0010
0001
0000
1000
0001
0100
0000
0010
1000
0001
0000
,
0010
0000
0001
1000
0001
0000
0100
0010
1000
0000
1001
0000
1001
0000
0010
0000
,
1000
0100
0010
0001
0010
0100
1000
0000
0001
0010
0100
1000
0100
0010
0001
0000
,
0100
1000
0100
0010
0100
0001
0100
0000
0001
0100
1000
0010
0100
0010
1000
0001
,
0010
0001
0100
0010
1000
0100
1000
0000
0001
0100
0001
0000
1000
0010
1000
0000
,
0100
0010
0001
0000
1000
0001
0100
0000
0010
1000
0100
0000
1000
0010
0001
0000
,
0100
0010
0100
0010
0100
0010
0100
0000
0001
1000
0001
1000
0001
1000
0001
0000
,
1000
0010
0100
0001
0100
0010
1000
0000
0001
0100
0010
1000
0010
0100
0001
0000
,
0011
1000
0001
0010
0001
0100
0010
1000
,
1100
0000
1000
0010
1000
0100
0010
0001
0100
0010
0100
0001
1000
0100
0010
0002
,
2000
0000
0000
0000
,
0000
0000
0000
0000
,
3003
0000
0000
0000
;

//---------------dance-double - ----------------
#NOTES:
     dance-double:
     :
     Easy:
     4:
     :
00000000
00000000
00000000
00000000
,
00000000
00000000
00000000
00000000
,
00000000
00000000
00000000
00000000
,
00000000
00000000
00000000
00000000
,
00000000
00000000
00000000
00000000
,
00100000
00000000
00000000
00000000
,
00010000
00000000
00000000
00000000
,
00001000
00000000
00000100
00000000
,
00000010
00000000
00001000
00000000
,
00000001
00000000
00000000
00000000
,
00000220
00000000
00000000
00000330
,
00000010
00000000
00001000
00000000
,
00010000
00000000
00100000
00000000
,
01000000
00000000
00010000
00000000
,
00001000
00000000
00000100
00000000
,
00000001
00000000
00001000
00000000
,
00000010
00000000
00001000
00000000
,
00010000
00000000
01000000
00000000
,
20020000
00000000
00000000
30030000
,
10000000
01000000
00100000
00000000
,
00100000
01000000
00010000
00000000
,
00010000
01000000
00100000
00000000
,
00001000
00000100
00001000
00000000
,
00000010
00000100
00000001
00000000
,
00000010
00001000
00000100
00000000
,
00000010
00000100
00001000
00000000
,
00011000
00000000
00011000
00000000
,
00100000
00000000
00010000
00000000
,
01000000
00000000
10000000
00000000
,
00100000
00000000
01000000
00000000
,
01000000
00000000
00010000
00000000
,
00001000
00000000
00000100
00000000
,
00001000
00000000
00000100
00000000
,
00010000
00000000
00001000
00000000
,
01000000
00000000
00000000
00000000
,
10000000
00010000
10000000
00000000
,
00100000
01000000
00010000
00000000
,
00001000
00000100
00001000
00000000
,
00010000
01000000
00010000
00000000
,
01000000
10000000
00100000
00000000
,
00010000
00001000
00000010
00000000
,
00000100
00000000
00000001
00000000
,
00001001
00000000
00000110
00000000
,
00000100
00000000
00001000
00000000
,
00010000
00000000
01000000
00000000
,
00100000
00000000
01000000
00000000
,
00010000
00000000
01000000
00000000
,
00001000
00000000
00010000
00000000
,
00000100
00000000
00000010
00000000
,
00001000
00000000
00000100
00000000
,
00022000
00000000
00000000
00033000
,
00010000
00010000
00010000
00010000
,
01000000
01000000
01000000
01000000
,
00100000
10000000
00010000
01000000
,
00001000
00010000
00000100
00000000
,
00000010
00000000
00000001
00000000
,
00001000
00000000
00000100
00000000
,
00010000
00000000
01000000
00000000
,
20020000
00000000
00000000
30030000
,
00100000
00000000
00000000
00000000
,
00010000
00000000
00000000
00000000
,
00001000
00000000
00010000
00000000
,
00000100
00000000
00001000
00000000
,
00002002
00000000
00000000
00003003
,
00002020
00000000
00000000
00003030
,
00022000
00000000
00000000
00000000
,
00000000
00000000
00000000
00033000
,
00000000
00000000
00000000
00000000
;

//---------------dance-double - ----------------
#NOTES:
     dance-double:
     :
     Medium:
     7:
     :
00000000
00000000
00000000
00000000
,
00000000
00000000
00000000
00000000
,
00000000
00000000
00000000
00000000
,
00000000
00000000
00000000
00000000
,
00000000
00000000
00000000
00000000
,
10010000
00000000
00000000
00000000
,
01010000
00000000
00001000
00000000
,
00011000
00000000
00001100
00000000
,
00001001
00000000
00001010
00000000
,
00011000
00000000
00000000
00000000
,
00110000
00000000
00000000
10000000
,
00100000
01000000
00010000
00001000
,
00000100
00000001
00001000
00000010
,
00000100
00001000
00010000
01000000
,
10000000
00010000
00100000
00010000
,
01000000
00010000
00001000
00000100
,
00000010
00000001
00001000
00000001
,
00000100
00000000
00001000
00010000
,
01000000
00000000
00000000
00000000
00000000
00000000
00000000
00000000
10000000
00000000
00000000
00010000
10000000
00000000
00010000
00000000
,
10000000
01000000
00010000
00001000
,
00000100
00000001
00001000
00000010
,
00000100
00001000
00010000
01000000
,
10000000
00100000
01000000
00010000
,
10000000
01000000
00010000
00001000
,
00000100
00000001
00001000
00000100
,
00001000
00000000
00010000
00000000
,
00110000
00000000
10010000
00000000
,
10000000
00100000
01000000
00010000
,
10000000
01000000
00010000
00001000
,
00000100
00000001
00001000
00000001
,
00000100
00000000
00001000
00000000
00010000
00000000
00001000
00010000
,
00001000
00010000
01000000
10000000
,
00010000
10000000
00010000
00100000
,
01000000
00010000
00001000
00000100
,
00000001
00000000
00000000
00000000
00000000
00000000
00000000
00000000
00001000
00000000
00000000
00000001
00001000
00000000
00000001
00000000
,
00000100
00001000
00010000
01000000
,
10000000
00100000
01000000
00010000
,
01000000
00010000
00001000
00000100
,
00000010
00000000
00000001
00000000
00001000
00000000
00000001
00001000
,
00000100
00001000
00010000
01000000
,
00100000
00000000
00000000
00000000
10000000
00000000
00000000
00100000
10000000
00000000
00100000
00000000
10000000
00000000
00100000
00000000
,
10000000
00000000
00010000
00000000
,
10000000
00000000
01000000
00010000
,
00001000
00000100
00000001
00001000
,
00000001
00000100
00001000
00010000
,
01000000
10000000
00010000
10000000
,
00010000
00000000
10000000
00000000
01000000
00000000
00100000
01000000
,
00010000
00001000
00000100
00000010
,
00000100
00001000
00010000
01000000
,
10000000
00000000
01000000
00000000
,
00010000
00000000
00000000
00000000
00001000
00000000
00000000
00010000
00001000
00000000
00010000
00000000
00001000
00000000
00010000
00000000
,
00001000
00000100
00000001
00001000
,
00000010
00000001
00001000
00000001
,
00000100
00001000
00010000
01000000
,
10000000
00000000
00100000
00000000
10000000
00100000
10000000
00100000
,
01000000
00010000
00001000
00000100
,
00000010
00000000
00000001
00000000
00000010
00000001
00000010
00000001
,
00002000
00003000
00020000
00030000
,
02000000
03000000
00010000
00100000
,
10000000
01000000
00100000
00010000
,
01000000
00010000
00001000
00000100
,
00000010
00000001
00001000
00000001
,
00000100
00001000
00010000
00001000
00100000
00010000
10000000
00010000
,
20020000
00000000
00000000
30030000
,
00220000
00000000
00000000
00330000
,
00022000
00000000
00000000
00000000
,
00000000
00000000
00000000
00033000
,
00000000
00000000
00000000
00000000
;

//---------------dance-double - ----------------
#NOTES:
     dance-double:
     :
     Hard:
     13:
     :
00000000
00000000
00000000
00000000
,
00000000
00000000
00000000
00000000
,
00000000
00000000
00000000
00000000
,
00000000
00000000
00000000
00000000
,
00000000
00000000
00000000
00000000
,
20000000
30000000
02000000
03000000
,
00020000
00030000
00000010
00000001
,
00000100
00000000
00000001
00000000
00000010
00000000
00001000
00000100
,
00001000
00000000
00010000
00000000
01000000
00000000
00100000
10000000
,
01000000
00010000
00001000
00000000
00000000
00000010
00000001
00000100
,
00001000
00000100
00000001
00000000
00000010
00001000
00010000
00100000
,
10000000
01000000
00010000
00100000
,
00010000
00001000
00000100
00000000
00000010
00000001
00000010
00000100
,
00000010
00001000
00010000
01000000
,
00010000
00100000
00010000
00001000
00000010
00000000
00000001
00000100
,
00000001
00000100
00001000
00000010
,
00001000
00010000
01000000
00000000
00100000
10000000
00010000
01000000
,
00100000
00000000
00000000
10000000
00000000
00000000
01000000
00000000
00010000
00000000
00000000
00000000
00001000
00000000
00000100
00000000
,
00000001
00000000
00000010
00000000
00001000
00000000
00010000
00000000
00100000
00000000
10000000
01000000
10000000
00000000
01000000
00000000
,
00100000
00010000
01000000
00000000
00100000
00010000
00001000
00000000
,
00000011
00000000
00000100
00000000
00000001
00000010
00001000
00010000
,
01000000
10000000
01000000
00100000
00010000
00000000
00100000
00010000
,
00001000
00000010
00001000
00000100
00000001
00000000
00000100
00001000
,
00000010
00001000
00000100
00000000
00000010
00001000
00010000
00000000
,
10100000
00000000
01000000
00000000
10000000
00100000
00010000
00001000
,
00000100
00000000
00000000
00001000
00000000
00000000
00000010
00000000
00000001
00000000
00000100
00000000
00000010
00000000
00001000
00000000
,
00000100
00000000
00000010
00000100
,
00000001
00000000
00000100
00000001
00000010
00000001
00001000
00000010
,
00001000
00010000
01000000
00000000
00100000
10000000
00010000
01000000
,
00100000
00010000
00001000
00000010
00000010
00000001
00000100
00001000
,
00000001
00000010
00001000
00010000
00100000
00000000
10000000
01000000
,
10000000
00000000
01000000
10000000
00100000
10000000
00010000
00100000
,
00010000
00001000
00000100
00000000
00000010
00000001
00001000
00000100
,
00000010
00001000
00010000
00100000
00100000
10000000
01000000
00010000
,
10000000
00100000
00010000
00001000
00000010
00000001
00001000
00000100
,
00000010
00001000
00000100
00001000
00000010
00001000
00010000
00100000
,
10100000
00000000
00000000
00000000
01000000
00000000
00000000
00000000
00100000
00000000
00010000
00100000
00010000
00000000
00001000
00000000
,
00000100
00001000
00000001
00000100
00000010
00000000
00001000
00000100
,
00010000
00100000
10000000
01000000
00010000
01000000
10000000
01000000
,
00100000
00010000
01000000
00010000
00100000
00010000
00001000
00000010
,
00000011
00000000
00000000
00000000
00000100
00000000
00000000
00000000
00000010
00000000
00001000
00000010
00001000
00000000
00010000
00000000
,
01000000
00000000
00000000
00010000
00000000
00000000
00100000
00000000
10000000
00000000
01000000
00000000
00100000
00000000
00010000
00000000
,
00001000
00000010
00000100
00000001
00000100
00001000
00000100
00001000
,
00022000
00003000
02000000
03030000
,
10000000
00000000
01000000
00000000
00010000
00100000
00010000
01000000
,
10000000
00000000
00000000
00100000
00000000
00000000
00010000
00000000
00002000
00000000
00000000
00000000
00003010
00000000
00000000
00000000
,
00000020
00000000
00000031
00000000
00000100
00000001
00000010
00001000
,
00022000
00003000
02000000
03030000
,
10000000
00000000
00100000
00000000
00010000
00001000
00000010
00000001
,
00000200
00000000
00002000
00003300
,
00022000
00000000
00000000
00033000
,
01000000
10000000
00010000
01000000
00010000
00001000
00000010
00000001
,
00000100
00000000
00000001
00000000
00000010
00000000
00001000
00000000
00000100
00000000
00000000
00000000
00000001
00000000
00000100
00001000
,
00010000
00100000
10000000
00100000
00010000
01000000
10000000
01000000
,
00100000
10000000
00100000
01000000
00010000
00000000
00000010
00001000
,
00000100
00000001
00001000
00000100
00001000
00010000
00100000
10000000
,
01000000
00000000
10000000
00000000
00100000
00000000
00010000
00000000
01000000
00000000
00000000
00000000
10000000
00000000
01000000
00010000
,
00001000
00000000
00000010
00000000
00000001
00000000
00000100
00000001
,
00000010
00001000
00010000
01000000
00100000
00010000
10000000
01000000
,
00010000
00100000
00010000
00001000
,
00000100
00000000
00001000
00000100
00001000
00000000
00000000
00000000
00000010
00000000
00000001
00000010
00000100
00000000
00000000
00000000
,
00000001
00000010
00001000
00010000
,
00100000
10000000
01000000
00010000
,
00001000
00000100
00000010
00000001
00001000
00010000
01000000
00100000
,
01000000
10000000
00010000
00100000
10000000
01000000
00010000
00001000
,
00000200
00000000
00000000
00000000
,
00000000
00000000
00000000
00000300
,
00000000
00000000
00000000
00000000
;
