#VERSION:0.83;
#TITLE:Habibe (Antuh muhleke);
#SUBTITLE:;
#ARTIST:Wendy Parr;
#TITLETRANSLIT:;
#SUBTITLETRANSLIT:;
#ARTISTTRANSLIT:;
#GENRE:;
#ORIGIN:;
#TAGS:;
#CREDIT:;
#BANNER:Habibe (Antuh muhleke)-bn.png;
#BACKGROUND:Habibe (Antuh muhleke)-bg.png;
#PREVIEWVID:;
#JACKET:Habibe (Antuh muhleke)-jacket.png;
#CDIMAGE:;
#DISCIMAGE:;
#LYRICSPATH:;
#CDTITLE:;
#MUSIC:Habibe (Antuh muhleke).ogg;
#OFFSET:0.000000;
#SAMPLESTART:65.000000;
#SAMPLELENGTH:20.000000;
#SELECTABLE:YES;
#BPMS:0.000000=144.000000;
#STOPS:;
#DELAYS:;
#WARPS:;
#TIMESIGNATURES:0.000000=4=4;
#TICKCOUNTS:0.000000=4;
#COMBOS:0.000000=1;
#SPEEDS:0.000000=1.000000=0.000000=0;
#SCROLLS:0.000000=1.000000;
#FAKES:;
#LABELS:0.000000=Song Start;
#BGCHANGES:;
#KEYSOUNDS:;
#ATTACKS:
;

//---------------dance-single - ----------------
#NOTEDATA:;
#CHARTNAME:;
#CHARTHASH:2147483647:
#STEPSTYPE:dance-single;
#BANNER:;
#DESCRIPTION:;
#CHARTSTYLE:;
#DIFFICULTY:Beginner;
#METER:3;
#METERF:0.000000;
#RADARVALUES:0.158045,0.225144,0.116454,0.000000,0.000000,114.000000,102.000000,12.000000,0.000000,0.000000,0.000000,0.000000,0.000000,0.000000,0.158045,0.225144,0.116454,0.000000,0.000000,114.000000,102.000000,12.000000,0.000000,0.000000,0.000000,0.000000,0.000000,0.000000;
#CREDIT:;
#NOTES:
0000
0000
0000
0000
,
0000
0000
0000
0000
,
0000
0000
0000
0000
,
1001
0000
0000
0000
,
1001
0000
0000
0000
,
1001
0000
0000
0000
,
1001
0000
0000
0000
,
1000
0000
1000
0000
,
0001
0000
0001
0000
,
1000
1000
1000
0000
,
0001
0001
0001
0000
,
1000
0000
1000
0000
,
0001
0000
0001
0000
,
1000
1000
1000
0000
,
0001
0001
0001
0000
,
0000
1000
0000
0001
,
0000
0001
0000
1000
,
0000
1000
0000
0001
,
0000
1000
1000
1000
,
0000
0001
0000
1000
,
0000
1000
0000
0001
,
0000
0001
0000
1000
,
0000
0001
0001
0001
,
0001
0000
0000
0000
,
0000
0000
0000
0000
,
0001
0000
0000
0000
,
0000
0000
0000
0000
,
1000
0000
0000
0000
,
0000
0000
0000
0000
,
0001
0000
0000
0000
,
0000
0000
0000
0000
,
1001
0000
0001
0000
,
1001
0000
1000
0000
,
1001
0000
0001
0000
,
1001
0000
1000
0000
,
1000
0000
0001
0000
,
1000
0001
1000
0000
,
0001
0000
1000
0000
,
0001
1000
0001
0000
,
1000
0000
1000
0000
,
0001
0000
0001
0000
,
1000
1000
0001
0000
,
1000
0000
0000
0000
,
1000
0000
1000
0000
,
0001
0000
0001
0000
,
1000
1000
0001
0000
,
1000
0000
0000
0000
,
1000
1000
1000
1000
,
0001
0000
0000
0000
,
0001
0000
1000
0000
,
0001
0000
1000
0000
,
0001
0001
0001
0001
,
1000
0000
0000
0000
,
1000
0000
0001
0000
,
1000
0000
0001
0000
,
1001
0000
0000
0000
,
1001
0000
0000
0000
,
1001
0000
0000
0000
,
1001
0000
0000
0000
,
0000
0000
0000
0000
;

//---------------dance-single - ----------------
#NOTEDATA:;
#CHARTNAME:;
#CHARTHASH:2044597709:
#STEPSTYPE:dance-single;
#BANNER:;
#DESCRIPTION:;
#CHARTSTYLE:;
#DIFFICULTY:Easy;
#METER:5;
#METERF:0.000000;
#RADARVALUES:0.214885,0.286283,0.184385,0.194090,0.000000,155.000000,136.000000,19.000000,20.000000,0.000000,0.000000,0.000000,0.000000,0.000000,0.214885,0.286283,0.184385,0.194090,0.000000,155.000000,136.000000,19.000000,20.000000,0.000000,0.000000,0.000000,0.000000,0.000000;
#CREDIT:;
#NOTES:
0000
0000
0000
0000
,
0000
0000
0000
0000
,
0000
0000
0000
0000
,
0220
0000
0000
0330
0000
0000
0000
0000
,
2002
0000
0000
3003
0000
0000
0000
0000
,
0220
0000
0000
0330
0000
0000
0000
0000
,
2002
0000
0000
3003
0000
0000
0000
0000
,
0001
0000
0010
0000
,
0001
0000
0010
0000
,
0100
0000
1000
0000
,
0100
0000
0001
0001
,
1000
0000
0100
0000
,
1000
0000
0100
0000
,
0010
0000
0001
0000
,
0010
0000
1000
1000
,
0001
0000
1000
1001
,
0001
0000
1000
1001
,
0001
0000
1000
1001
,
0001
0000
0010
0000
,
1000
0000
0001
1001
,
1000
0000
0001
1001
,
1000
0000
0001
1001
,
1000
0000
0010
0000
,
0010
0000
0001
0100
,
0100
0000
0100
1000
,
1000
0000
0100
0010
,
0010
0000
0000
0001
,
0100
0000
1000
0010
,
0010
0000
0010
0001
,
0001
0000
0010
0100
,
0100
0000
0000
0000
,
0110
0000
0000
0001
,
1001
0000
0000
0100
,
0110
0000
0000
1000
,
1001
0000
0000
0000
,
1000
0100
1000
0100
,
0010
0001
0010
0000
,
1000
0010
1000
0010
,
0100
0001
0010
0100
,
1000
0000
0010
0000
,
0001
0000
0100
0000
,
1000
0100
1000
0000
,
1000
0010
1000
0000
,
0001
0000
0010
0000
,
1000
0000
0100
0000
,
0001
0100
0001
0000
,
0001
0010
0001
0000
,
1000
1000
1000
1000
,
0002
0003
2000
3000
,
0001
0010
0010
0001
,
1000
0000
0100
0000
,
0001
0001
0001
0001
,
2000
3000
0002
0003
,
1000
0010
0010
1000
,
0001
0000
0100
0000
,
0220
0000
0000
0330
0000
0000
0000
0000
,
2002
0000
0000
3003
0000
0000
0000
0000
,
0220
0000
0000
0330
0000
0000
0000
0000
,
2002
0000
0000
3003
0000
0000
0000
0000
,
1100
0000
0000
0000
,
0000
0000
0000
0000
;

//---------------dance-single - ----------------
#NOTEDATA:;
#CHARTNAME:;
#CHARTHASH:2147483647:
#STEPSTYPE:dance-single;
#BANNER:;
#DESCRIPTION:;
#CHARTSTYLE:;
#DIFFICULTY:Medium;
#METER:10;
#METERF:0.000000;
#RADARVALUES:0.476907,0.486681,0.514338,0.000000,0.087340,344.000000,291.000000,53.000000,0.000000,0.000000,0.000000,0.000000,0.000000,0.000000,0.476907,0.486681,0.514338,0.000000,0.087340,344.000000,291.000000,53.000000,0.000000,0.000000,0.000000,0.000000,0.000000,0.000000;
#CREDIT:;
#NOTES:
0000
0000
0000
0000
,
0000
0000
0000
0000
,
0000
0000
0000
0000
,
1001
0000
0000
1001
0000
0000
1001
0000
0000
0000
0000
0000
0000
0000
0000
0000
,
0011
0000
0000
0011
0000
0000
0011
0000
0000
0000
0000
0000
0000
0000
0000
0000
,
1010
0000
0000
1010
0000
0000
1010
0000
0000
0000
0000
0000
0000
0000
0000
0000
,
1001
0000
0000
1001
0000
0000
1001
0000
0000
0000
0000
0000
0000
0000
0000
0000
,
0100
1000
0010
0000
0010
0100
1000
0100
,
0010
1000
0100
0000
0100
0010
0001
0010
,
0100
1000
0100
0000
0100
0010
0001
0000
,
0001
0010
0100
0000
1000
0100
1000
0100
,
0010
0001
0100
0000
0100
0010
0001
0010
,
0100
0001
0010
0000
0010
0100
1000
0100
,
0010
0001
0010
0000
0010
0100
1000
0000
,
1000
0100
0010
0000
0001
0010
0001
0010
,
0100
1100
1000
1001
,
0001
0011
0010
0110
,
0100
1100
1000
1001
,
0001
0000
0010
0000
0100
0000
1000
0010
,
0100
0101
0001
1001
,
1000
1010
0010
0110
,
0100
0101
0001
1001
,
1000
0000
0100
0000
0010
0001
0010
0100
,
1000
0000
0000
0001
0100
0000
0000
0000
1000
0000
0000
0001
0100
0000
0000
0000
,
0001
0010
0001
0000
0001
0100
0001
0000
,
0001
0000
0000
1000
0100
0000
0000
0000
0001
0000
0000
1000
0100
0000
0000
0000
,
1000
0010
1000
0000
1000
0100
1000
0000
,
1000
0000
0000
0001
0010
0000
0000
0000
1000
0000
0000
0001
0010
0000
0000
0000
,
0001
0100
0001
0000
0001
0010
0001
0000
,
0001
0000
0000
1000
0010
0000
0000
0000
0001
0000
0000
1000
0010
0000
0000
0000
,
1000
0100
1000
0000
0010
0001
0100
0001
,
0100
0000
0000
1100
0000
0100
0010
0001
,
0010
0000
0000
0011
0000
0010
0100
1000
,
0100
0000
0000
1100
0000
0100
0010
0001
,
0010
0000
0000
0011
0000
0010
0100
1000
,
0100
0000
0010
0000
0001
0010
0010
0000
,
0100
0000
0010
0000
1000
0010
0010
0000
,
1000
0100
1000
0100
0010
0001
0010
0001
,
1000
0100
0010
0001
1000
0100
0010
0001
,
1000
1010
0100
1100
,
0001
0011
0100
0101
,
1000
1001
1000
0110
,
0010
0000
0001
0000
0010
0000
0000
0000
0100
0000
0000
0100
0000
0000
0100
0000
,
0001
0011
0100
0101
,
1000
1010
0100
1100
,
0001
1001
0001
0110
,
0010
0000
1000
0000
0010
0000
0000
0000
0100
0000
0000
0100
0000
0000
0100
0000
,
0001
0001
0001
0001
,
0001
0010
1000
0000
1000
0010
0001
0000
,
0001
0100
1000
0000
1000
0100
0001
0000
,
0001
1000
0010
0100
0001
1000
0100
0000
,
1000
1000
1000
1000
,
1000
0010
0001
0000
0001
0010
1000
0000
,
1000
0100
0001
0000
0001
0100
1000
0000
,
1000
0001
0100
0010
1000
0001
0010
0000
,
0110
0000
0000
0110
0000
0000
1001
0000
0000
0000
0000
0000
0000
0000
0000
0000
,
0011
0000
0000
0011
0000
0000
1001
0000
0000
0000
0000
0000
0000
0000
0000
0000
,
1010
0000
0000
1010
0000
0000
1001
0000
0000
0000
0000
0000
0000
0000
0000
0000
,
1001
0000
0000
1001
0000
0000
1001
0000
0000
0000
0000
0000
0000
0000
0000
0000
,
0101
0000
0000
0000
,
0000
0000
0000
0000
;

//---------------dance-single - ----------------
#NOTEDATA:;
#CHARTNAME:;
#CHARTHASH:2147483647:
#STEPSTYPE:dance-single;
#BANNER:;
#DESCRIPTION:;
#CHARTSTYLE:;
#DIFFICULTY:Hard;
#METER:13;
#METERF:0.000000;
#RADARVALUES:0.609997,0.715707,0.494929,0.000000,0.451259,440.000000,389.000000,51.000000,0.000000,0.000000,0.000000,0.000000,0.000000,0.000000,0.609997,0.715707,0.494929,0.000000,0.451259,440.000000,389.000000,51.000000,0.000000,0.000000,0.000000,0.000000,0.000000,0.000000;
#CREDIT:;
#NOTES:
0000
0000
0000
0000
,
0000
0000
0000
0000
,
0000
0000
0000
0000
,
0011
0000
0000
1001
0000
0000
1001
0000
0000
0000
0000
0000
0000
0000
0000
0000
,
1100
0000
0000
1001
0000
0000
1001
0000
0000
0000
0000
0000
0000
0000
0000
0000
,
1010
0000
0000
1001
0000
0000
1001
0000
0000
0000
0000
0000
0000
0000
0000
0000
,
0110
0000
0000
1001
0000
0000
1001
0000
0000
0000
0000
0000
0000
0000
0000
0000
,
1000
0000
0000
0100
0010
0000
0100
0000
1000
0000
0000
0010
1000
0000
0100
0000
,
0010
0000
0000
0001
0010
0000
0001
0000
0010
0000
0000
0100
1000
0000
0010
0000
,
1000
0000
0000
0001
0010
0000
0100
0000
1000
0000
0000
0001
1000
0000
0010
0000
,
0001
0000
0000
0010
0100
0000
0010
0000
1000
0000
0000
0010
1000
0000
0100
0010
,
0001
0000
0000
0010
0100
0000
0010
0000
0001
0000
0000
0100
0001
0000
0010
0000
,
0100
0000
0000
1000
0100
0000
1000
0000
0100
0000
0000
0010
0001
0000
0100
0000
,
0001
0000
0000
1000
0100
0000
0010
0000
0001
0000
0000
1000
0001
0000
0100
0000
,
0001
0000
0000
0010
0100
0000
0010
0000
0100
0000
1000
0000
0100
0000
0010
0000
,
0001
0000
0000
0000
0011
0000
0000
0000
0100
0000
0000
0000
1010
0000
0000
0001
,
0100
0000
1010
0000
0100
0000
0001
0010
,
0100
0000
0000
0000
0011
0000
0000
0000
1000
0000
0000
0000
0011
0000
0000
0100
,
0010
0000
1001
0000
0100
0010
0110
0110
,
0000
0000
0000
0000
1010
0000
0000
0000
0100
0000
0000
0000
0011
0000
0000
1000
,
0100
0000
0011
0000
0100
0000
1000
0010
,
0100
1010
0001
1010
,
0100
0000
1000
0010
0001
0010
0100
0010
,
1000
0000
0000
1000
0100
0000
0000
0100
0001
0000
0000
0001
0100
0000
0000
0100
,
1000
0010
1000
0100
1000
0010
1000
0001
,
0100
0000
0000
0100
0010
0000
0000
0010
0001
0000
0000
0001
0010
0000
0000
0010
,
1000
0001
0100
0001
0010
0001
0100
0001
,
0010
0000
0000
0010
0100
0000
0000
0100
0001
0000
0000
0001
0100
0000
0000
0100
,
1000
0001
0010
0001
0100
0001
0010
0001
,
1000
0000
0000
1000
0010
0000
0000
0010
0001
0000
0000
0001
0010
0000
0000
0010
,
1000
0100
1000
0010
1000
0100
1000
0001
,
1100
0000
0000
0110
0000
0001
0010
0001
,
0011
0000
0000
0110
0000
1100
1000
0100
,
0101
0000
0000
0110
0000
1000
0010
1000
,
1010
0000
0000
0110
0000
0101
0001
0100
,
1000
0100
0010
0001
0010
0100
0010
0000
,
0001
0100
0001
0010
0100
1000
0010
0000
,
1000
0100
1000
0010
0100
0001
0010
0001
,
1000
0010
0100
0010
0001
0010
0100
1000
,
0100
0000
0000
0001
1000
0000
0100
0000
0010
0000
0000
0001
1000
0000
0010
0000
,
0100
0000
0000
0001
1000
0000
0100
0000
0001
0000
0000
1000
0001
0000
0010
0000
,
0100
0000
0000
1000
0100
0000
1000
0000
0001
0000
0000
1000
0100
0000
1000
0000
,
0010
0000
0000
1000
0001
0000
0010
0000
0100
0000
0000
0100
0000
0000
0100
1000
,
0100
0000
0000
1000
0001
0000
0100
0000
0010
0000
0000
1000
0001
0000
0010
0000
,
0100
0000
0000
1000
0001
0000
0100
0000
1000
0000
0000
0001
1000
0000
0010
0000
,
0100
0000
0000
0001
0100
0000
0001
0000
1000
0000
0000
0001
0100
0000
0001
0000
,
0010
0000
0000
0001
1000
0000
0010
0000
0100
0000
0000
0100
0000
0000
0100
0000
,
0010
1100
0010
0101
,
1000
0100
0010
0001
0010
0000
0000
0000
0001
0000
0000
0010
0001
0000
0000
0001
,
0100
0000
0000
0100
0001
0000
0000
0001
0100
0000
0000
0100
0010
0000
0000
0010
,
1000
0000
0000
1000
0010
0000
0000
0010
0100
0000
0000
0100
0010
0000
0000
0001
,
0100
0011
0100
1010
,
0001
0010
0100
1000
0100
0000
0000
0000
1000
0000
0000
0100
1000
0000
0000
1000
,
0010
0000
0000
0010
1000
0000
0000
1000
0010
0000
0000
0010
0100
0000
0000
0100
,
0001
0000
0000
0001
0100
0000
0000
0100
0010
0000
1000
0000
0100
0000
0010
0000
,
0011
0000
0000
0011
0000
0000
0011
0000
0000
0000
0100
0010
0000
0010
0100
0000
,
1001
0000
0000
1001
0000
0000
1001
0000
1000
0100
0010
0001
0010
0100
1000
0000
,
1100
0000
0000
1100
0000
0000
1100
0000
0000
0000
0010
0100
0000
0100
0010
0000
,
1001
0000
0000
1001
0000
0000
1001
0000
1000
0100
0010
0001
0010
0100
1000
0001
,
0100
0000
0000
0000
,
0000
0000
0000
0000
;

//---------------dance-double - ----------------
#NOTEDATA:;
#CHARTNAME:;
#CHARTHASH:2147483647:
#STEPSTYPE:dance-double;
#BANNER:;
#DESCRIPTION:;
#CHARTSTYLE:;
#DIFFICULTY:Easy;
#METER:6;
#METERF:0.000000;
#RADARVALUES:0.292521,0.372167,0.194090,0.223203,0.038818,211.000000,191.000000,20.000000,23.000000,0.000000,0.000000,0.000000,0.000000,0.000000,0.292521,0.372167,0.194090,0.223203,0.038818,211.000000,191.000000,20.000000,23.000000,0.000000,0.000000,0.000000,0.000000,0.000000;
#CREDIT:;
#NOTES:
00000000
00000000
00000000
00000000
,
00000000
00000000
00000000
00000000
,
00000000
00000000
00000000
00000000
,
10000000
00000000
00000000
10000000
00000000
00000000
10000000
00000000
00000000
00000000
00000000
00000000
00000000
00000000
00000000
00000000
,
01000000
00000000
00000000
01000000
00000000
00000000
01000000
00000000
00000000
00000000
00000000
00000000
00000000
00000000
00000000
00000000
,
00010000
00000000
00000000
00010000
00000000
00000000
00010000
00000000
00000000
00000000
00000000
00000000
00000000
00000000
00000000
00000000
,
00001000
00000000
00000000
00001000
00000000
00000000
00001000
00000000
00000000
00000000
00000000
00000000
00000000
00000000
00000000
00000000
,
00000010
00000001
00001000
00000001
,
00000100
00000010
00000100
00000000
,
00000001
00000100
00001000
00010000
,
00001000
00010000
00100000
00000000
,
10000000
01000000
00010000
01000000
,
10000000
00100000
00010000
00000000
,
00001000
00010000
00001000
00010000
,
00001000
00000010
00000001
00000000
,
00001000
00000001
00000100
00000010
,
00002000
00003100
00000002
00000103
,
00000001
00000010
00000100
00001000
,
00000200
00010000
00010300
00000000
,
00001000
00010000
00100000
10000000
,
00020000
01030000
20000000
31000000
,
10000000
01000000
00010000
01000000
,
00200000
00001000
00301000
00000000
,
00020000
00000100
00000000
00030100
,
00000200
00000010
00000000
00000310
,
00000020
00000001
00000000
00000031
,
00000002
00000100
00000000
00000103
,
00000200
00001000
00000000
00001300
,
00002000
00010000
00000000
00013000
,
00020000
00100000
00000000
00130000
,
00100000
10000000
00010000
00000000
,
11000000
00000000
01100000
00000000
,
01010000
00000000
00001000
00010000
,
00011000
00000000
00001010
00000000
,
00000011
00000000
00000010
00000010
,
00000001
00001000
00000001
00001000
,
00000010
00000100
00000010
00000100
,
00001000
00010000
00001000
00010000
,
00100000
01000000
01100000
00000000
,
00200000
10000000
01000000
00310000
,
00002000
00013000
00020000
00031000
,
00000020
00000001
00000100
00001030
,
00020000
00031000
00011000
00000000
,
02000000
10000000
00100000
03010000
,
00002000
00013000
00020000
00031000
,
00000200
00000001
00000010
00001300
,
00020000
00031000
00011000
00000000
,
01000000
11000000
00100000
00110000
,
01000000
00010000
00001000
00000000
,
00000010
00001010
00000100
00000101
,
00000010
00001000
00010000
00000000
,
00100000
10100000
01000000
01010000
,
00100000
00010000
00001000
00000000
,
00000100
00000110
00001000
00001010
,
00000001
00000101
00001000
00001100
,
00000001
00000000
00000000
00000001
00000000
00000000
00000001
00000000
00000000
00000000
00000000
00000000
00000000
00000000
00000000
00000000
,
00000010
00000000
00000000
00000010
00000000
00000000
00000010
00000000
00000000
00000000
00000000
00000000
00000000
00000000
00000000
00000000
,
00001000
00000000
00000000
00001000
00000000
00000000
00001000
00000000
00000000
00000000
00000000
00000000
00000000
00000000
00000000
00000000
,
00010000
00000000
00000000
00010000
00000000
00000000
00010000
00000000
00000000
00000000
00000000
00000000
00000000
00000000
00000000
00000000
,
00011000
00000000
00000000
00000000
,
00000000
00000000
00000000
00000000
;

//---------------dance-double - ----------------
#NOTEDATA:;
#CHARTNAME:;
#CHARTHASH:2147483647:
#STEPSTYPE:dance-double;
#BANNER:;
#DESCRIPTION:;
#CHARTSTYLE:;
#DIFFICULTY:Medium;
#METER:11;
#METERF:0.000000;
#RADARVALUES:0.408975,0.486681,0.174681,0.194090,0.237760,295.000000,277.000000,18.000000,20.000000,0.000000,0.000000,0.000000,0.000000,0.000000,0.408975,0.486681,0.174681,0.194090,0.237760,295.000000,277.000000,18.000000,20.000000,0.000000,0.000000,0.000000,0.000000,0.000000;
#CREDIT:;
#NOTES:
00000000
00000000
00000000
00000000
,
00000000
00000000
00000000
00000000
,
00000000
00000000
00000000
00000000
,
20100000
00000000
00000000
00010000
00000000
00000000
30010000
00000000
00000000
00000000
00000000
00000000
00000000
00000000
00000000
00000000
,
10020000
00000000
00000000
01000000
00000000
00000000
01030000
00000000
00000000
00000000
00000000
00000000
00000000
00000000
00000000
00000000
,
02010000
00000000
00000000
00001000
00000000
00000000
03001000
00000000
00000000
00000000
00000000
00000000
00000000
00000000
00000000
00000000
,
01002000
00000000
00000000
00010000
00000000
00000000
00013000
00000000
00000000
00000000
00000000
00000000
00000000
00000000
00000000
00000000
,
00000010
00000001
00001000
00000000
00000010
00001000
00000100
00000000
,
00000010
00000001
00000010
00000100
00001000
00000001
00000100
00000000
,
00001000
00010000
00001000
00000000
00010000
00001000
00010000
00000000
,
00100000
10000000
00100000
01000000
00010000
10000000
00010000
00000000
,
10000000
00100000
00010000
00000000
00100000
10000000
00100000
00000000
,
10000000
01000000
00010000
00001000
00010000
00001000
00000010
00000000
,
00000001
00000010
00001000
00000000
00001000
00000010
00000001
00000000
,
00001000
00000010
00000100
00000001
00000010
00000100
00000010
00000000
,
00001001
00000001
00000011
00000001
,
00000001
00000000
00000000
00000001
00000100
00000000
00000000
00000100
00001000
00000000
00000000
00001000
00010000
00000000
00000000
00000000
,
00110000
00100000
10100000
00100000
,
10000000
00000000
00000000
10000000
01000000
00000000
00000000
01000000
00010000
00000000
00000000
00010000
00001000
00000000
00000000
00000000
,
00001010
00000010
00000011
00000010
,
00000001
00000000
00000000
00000001
00000010
00000000
00000000
00000010
00001000
00000000
00000000
00001000
00010000
00000000
00000000
00000000
,
01010000
01000000
11000000
01000000
,
10000000
00000000
00000000
10000000
00100000
00000000
00000000
00100000
00010000
00000000
00000000
00010000
00001000
00000000
00000000
00000000
,
00000020
00000000
00000000
00000000
,
00000002
00000000
00000000
00000030
,
00002000
00000000
00000000
00000003
,
00000020
00000000
00000000
00003000
,
00000200
00000000
00000000
00000030
,
00002000
00000000
00000000
00000300
,
00020000
00000000
00000000
00003000
,
00200000
00000000
00000000
00330000
,
20000000
00000000
00000000
00100000
00000000
00010000
00000000
00000000
,
32000000
00000000
00000000
00010000
00000000
00010000
03000000
00000000
,
00002000
00000000
00000000
00000010
00000000
00000001
00000000
00000000
,
00003020
00000000
00000000
00000001
00000000
00001000
00000030
00000000
,
00000001
00000010
00000001
00000000
00000010
00000100
00000010
00000000
,
00001000
00000100
00000001
00000000
00000001
00000100
00001000
00000000
,
00000010
00000100
00001000
00000000
00010000
00001000
00010000
00000000
,
00100000
01000000
00100000
00000000
10010000
00000000
00000000
00000000
,
10000000
00000000
00000000
10000000
01000000
00000000
00000000
01000000
00100000
00000000
00000000
00100000
00001000
00000000
00000000
00001000
,
00010000
00000000
00000000
00010000
00000100
00000000
00000000
00000100
00000010
00000000
00000000
00000010
00000001
00000000
00000000
00000001
,
00000100
00000000
00000000
00000100
00000010
00000000
00000000
00000010
00001000
00000000
00000000
00001000
00000100
00000000
00000000
00000100
,
00010000
00000000
00000000
00010000
00001000
00000000
00000000
00001000
00100000
00000000
00000000
00100000
00010000
00000000
00000000
00000000
,
10000000
00000000
00000000
10000000
01000000
00000000
00000000
01000000
00010000
00000000
00000000
00010000
00001000
00000000
00000000
00001000
,
00000100
00000000
00000000
00000100
00000001
00000000
00000000
00000001
00001000
00000000
00000000
00001000
00000010
00000000
00000000
00000000
,
00000100
00000000
00000000
00000100
00001000
00000000
00000000
00001000
00010000
00000000
00000000
00010000
01000000
00000000
00000000
01000000
,
10000000
00000000
00000000
10000000
00100000
00000000
00000000
00100000
00010000
00000000
00000000
00010000
00100000
00000000
00000000
00000000
,
10000000
01000000
00100000
00000000
00100000
00010000
00100000
00000000
,
00100000
00010000
00001000
00000000
00001000
00000100
00000001
00000000
,
00000100
00001000
00000001
00000100
00000010
00000100
00000001
00000000
,
00000010
00001000
00010000
00001000
00010000
00100000
01000000
00000000
,
10000000
01000000
00010000
00000000
00010000
00100000
00010000
00000000
,
00010000
00001000
00000100
00000000
00000100
00000010
00000100
00000000
,
00000010
00000001
00000010
00000001
00000010
00001000
00000010
00001000
,
00010000
00001000
00010000
00001000
00010000
00100000
00010000
00000000
,
20100000
00000000
00000000
00010000
00000000
00000000
30010000
00000000
00000000
00000000
00000000
00000000
00000000
00000000
00000000
00000000
,
10020000
00000000
00000000
01000000
00000000
00000000
01030000
00000000
00000000
00000000
00000000
00000000
00000000
00000000
00000000
00000000
,
02010000
00000000
00000000
00001000
00000000
00000000
03001000
00000000
00000000
00000000
00000000
00000000
00000000
00000000
00000000
00000000
,
01002000
00000000
00000000
00010000
00000000
00000000
00013000
00000000
00000000
00000000
00000000
00000000
00000000
00000000
00000000
00000000
,
00011000
00000000
00000000
00000000
,
00000000
00000000
00000000
00000000
;

//---------------dance-double - ----------------
#NOTEDATA:;
#CHARTNAME:;
#CHARTHASH:1906577629:
#STEPSTYPE:dance-double;
#BANNER:;
#DESCRIPTION:;
#CHARTSTYLE:;
#DIFFICULTY:Hard;
#METER:13;
#METERF:0.000000;
#RADARVALUES:0.580884,0.629822,0.320248,0.106749,0.485225,419.000000,386.000000,33.000000,11.000000,0.000000,0.000000,0.000000,0.000000,0.000000,0.580884,0.629822,0.320248,0.106749,0.485225,419.000000,386.000000,33.000000,11.000000,0.000000,0.000000,0.000000,0.000000,0.000000;
#CREDIT:;
#NOTES:
00000000
00000000
00000000
00000000
,
00000000
00000000
00000000
00000000
,
00000000
00000000
00000000
00000000
,
11000000
00000000
00000000
01100000
00000000
00000000
01010000
00000000
00000000
00000000
00000000
00000000
00010000
00000000
00001000
00000000
,
00001010
00000000
00000000
00000110
00000000
00000000
00000011
00000000
00000000
00000000
00000000
00000000
00000001
00000000
00000100
00000000
,
00001100
00000000
00000000
00011000
00000000
00000000
00110000
00000000
00000000
00000000
00000000
00000000
00100000
00000000
10000000
00000000
,
10010000
00000000
00000000
11000000
00000000
00000000
10100000
00000000
00000000
00000000
00100000
00000000
00010000
00000000
00001000
00000000
,
00000010
00000000
00000000
00000010
00000001
00000000
00000000
00000001
00000010
00000000
00000000
00000010
00001000
00000000
00000000
00001000
,
00000001
00000000
00000000
00000001
00000100
00000000
00000000
00000100
00001000
00000000
00000000
00001000
00010000
00000000
00000000
00010000
,
01000000
00000000
00000000
01000000
10000000
00000000
00000000
10000000
01000000
00000000
00000000
01000000
00100000
00000000
00000000
00100000
,
00001000
00000000
00000000
00001000
00100000
00000000
00000000
00100000
01000000
00000000
00000000
01000000
00010000
00000000
00000000
00010000
,
10000000
00000000
00000000
10000000
01000000
00000000
00000000
01000000
00010000
00000000
00000000
00010000
00001000
00000000
00000000
00001000
,
00000010
00000000
00000000
00000010
00000001
00000000
00000000
00000001
00000010
00000000
00000000
00000010
00000100
00000000
00000000
00000100
,
00000010
00000000
00000000
00000010
00001000
00000000
00000000
00001000
00010000
00000000
00000000
00010000
00000010
00000000
00000000
00000010
,
00000100
00000000
00000000
00000100
00001000
00000000
00000000
00001000
00010000
00000000
00000000
00010000
00100000
00000000
00000000
00000000
,
10000000
01000000
00010000
00001000
00100000
00001000
00000010
00000001
,
00001000
00000000
00000001
00000010
00000001
00000000
00000010
00000100
00000010
00000000
00001000
00000010
00001000
00000000
00000010
00000000
,
00000001
00000100
00001000
00010000
00000010
00010000
00100000
10000000
,
00010000
00000000
10000000
00100000
10000000
00000000
00100000
01000000
00100000
00000000
00010000
00100000
00010000
00000000
00100000
00000000
,
10000000
01000000
00010000
00001000
00100000
00010000
00001000
00000010
,
00000001
00000000
00000010
00000001
00000010
00000000
00000100
00000010
00000100
00000000
00000010
00001000
00000010
00000000
00000100
00000000
,
00000001
00000010
00001000
00010000
00000010
00001000
00010000
00100000
,
10000000
00000000
00100000
10000000
00100000
00000000
01000000
00100000
01000000
00000000
00100000
00010000
00100000
00000000
01000000
00000000
,
20000000
00000000
00000000
01000000
00000000
00000000
00010000
00000000
,
00200000
30000000
00000000
02000000
00000000
00000000
00300000
00000000
,
10000000
00000000
00000000
00100000
00000000
00000000
03020000
00000000
,
00032000
00000200
00000000
00003000
,
00000001
00000000
00000000
00000010
00000000
00002300
00000000
00000020
,
00003000
00000200
00000000
00000300
,
00000001
00000000
00000000
00000100
00000000
00002030
00000000
00020000
,
00000000
00000000
00000000
00033000
,
01000000
10000000
01000000
11000000
00000000
01100000
00000000
01010000
,
10000000
00100000
10000000
10100000
00000000
01000000
00010000
00001000
,
00000010
00000001
00000010
00000011
00000000
00000110
00000000
00001010
,
00000100
00000001
00000100
00000101
00000000
00000010
00000100
00001000
,
00000001
00000100
00001000
00000100
00000001
00000010
00001000
00010000
,
00100000
10000000
00010000
01000000
00001000
00010000
01000000
10000000
,
01000000
00010000
01000000
10000000
00010000
00100000
10000000
00100000
,
00010000
00001000
00000100
00001000
00010000
00001000
00000100
00000010
,
00000001
00000000
00000000
00000001
00000010
00000000
00000000
00000010
00000100
00000000
00000000
00000100
00010000
00000000
00001000
00010000
,
00001000
00000000
00000000
00001000
00100000
00000000
00000000
00100000
01000000
00000000
00000000
01000000
10000000
00000000
00100000
10000000
,
00100000
00000000
00000000
00100000
01000000
00000000
00000000
01000000
00010000
00000000
00000000
00010000
00100000
00000000
00001000
00100000
,
00001000
00000000
00000000
00001000
00010000
00000000
00000000
00010000
00000100
00000000
00000000
00000100
00001000
00000000
00000000
00000000
,
00000001
00000000
00000000
00000001
00000010
00000000
00000000
00000010
00001000
00000000
00000000
00001000
00010000
00000000
00100000
00010000
,
00100000
00000000
00000000
00100000
10000000
00000000
00000000
10000000
00010000
00000000
00000000
00010000
01000000
00000000
00100000
01000000
,
00100000
00000000
00000000
00100000
00010000
00000000
00000000
00010000
00001000
00000000
00000000
00001000
00000010
00000000
00000001
00000010
,
00000001
00000000
00000000
00000001
00000100
00000000
00000000
00000100
00001000
00000000
00000000
00001000
00000100
00000000
00000000
00000000
,
00000001
00000000
00000000
00000100
00000001
00000000
00000000
00000000
00000010
00000000
00000000
00001000
00000010
00000000
00000000
00000000
,
00001000
00000000
00000000
00010000
00001000
00000000
00000000
00000000
00100000
00000000
00000000
01000000
00100000
00000000
00000000
00000000
,
00010000
00000000
00000000
00010000
10000000
00000000
00000000
10000000
01000000
00000000
00000000
01000000
00100000
00000000
00000000
00100000
,
10000000
00000000
00000000
10000000
00100000
00000000
00000000
00100000
00010000
00000000
00000000
00010000
00001000
00000000
00000000
00000000
,
00000010
00000000
00000000
00000001
00000010
00000000
00000000
00000000
00000100
00000000
00000000
00001000
00000100
00000000
00000000
00000000
,
00001000
00000000
00000000
00010000
00001000
00000000
00000000
00000000
00100000
00000000
00000000
01000000
00100000
00000000
00000000
00000000
,
10000000
00010000
10000000
00010000
01000000
00100000
01000000
00100000
,
10000000
00000000
01000000
00010000
01000000
00000000
00010000
00001000
00010000
00000000
00001000
00000010
00001000
00000000
00000010
00000000
,
00000011
00000000
00000000
00000110
00000000
00000000
00001010
00000000
00000000
00000000
00000000
00000000
00001000
00000000
00010000
00000000
,
01010000
00000000
00000000
01100000
00000000
00000000
11000000
00000000
00000000
00000000
00000000
00000000
10000000
00000000
00100000
00000000
,
00110000
00000000
00000000
00011000
00000000
00000000
00001100
00000000
00000000
00000000
00000000
00000000
00000100
00000000
00000001
00000000
,
00001001
00000000
00000000
00000011
00000000
00000000
00000101
00000000
00000000
00000000
00001000
00000000
00010000
00001000
00010000
00000000
,
00011000
00000000
00000000
00000000
,
00000000
00000000
00000000
00000000
;

//---------------dance-single - ----------------
#NOTEDATA:;
#CHARTNAME:;
#CHARTHASH:0:
#STEPSTYPE:dance-single;
#BANNER:;
#DESCRIPTION:;
#CHARTSTYLE:;
#DIFFICULTY:Challenge;
#METER:18;
#METERF:0.000000;
#RADARVALUES:0.928859,0.985734,0.543452,0.252317,1.116017,670.000000,614.000000,56.000000,26.000000,0.000000,0.000000,0.000000,0.000000,0.000000,0.928859,0.985734,0.543452,0.252317,1.116017,670.000000,614.000000,56.000000,26.000000,0.000000,0.000000,0.000000,0.000000,0.000000;
#CREDIT:;
#NOTES:
// measure 0
0000
0000
0000
0000
,  // measure 1
0000
0000
0000
0000
,  // measure 2
0000
0000
0000
0000
,  // measure 3
0110
0000
0000
1001
0000
0000
1100
0000
0001
1000
0010
0100
1000
0100
0010
0001
,  // measure 4
0011
0000
0000
0101
0000
0000
1010
0000
1000
0001
0010
0100
0010
0001
1000
0100
,  // measure 5
1100
0000
0000
0110
0000
0000
0011
0000
0100
1000
0010
0001
0010
1000
0001
0100
,  // measure 6
0101
0000
0000
1001
0000
0000
1010
0000
1000
0100
0001
0000
1000
0010
0001
0000
,  // measure 7
0101
0000
0010
1000
0100
1000
0010
0000
0001
0000
1000
0001
0100
0001
0010
0000
,  // measure 8
0100
0000
1000
0010
1000
0001
1000
0000
0100
0000
0010
0001
0100
0001
0010
0000
,  // measure 9
1000
0000
0001
0010
0001
1000
0100
0000
0010
0000
0100
1000
0100
0010
0001
0000
,  // measure 10
1000
0000
0001
0010
0100
1000
0001
0000
1000
0010
0100
0001
1000
0100
0010
0001
,  // measure 11
0100
0000
0001
0010
0100
0010
0100
0000
1000
0000
0001
1000
0010
1000
0001
0000
,  // measure 12
0010
0000
0100
0010
0001
0100
1000
0000
0001
0000
0100
0010
1000
0001
1000
0000
,  // measure 13
0010
0000
1000
0100
0010
0100
1000
0000
0001
0000
0100
0001
1000
0001
0010
0000
,  // measure 14
1000
0000
0100
0010
0001
0100
0010
0000
1000
0001
0010
0100
0001
0100
1000
0010
,  // measure 15
0100
0000
0001
1000
0010
0000
0100
0000
0001
0000
0010
0100
1000
0000
0001
0000
,  // measure 16
1000
0000
0010
0100
0010
1000
0001
0000
0010
0100
1000
0010
0100
0001
1000
0000
,  // measure 17
0010
0000
1000
0100
0001
0000
0010
0000
0100
0000
0010
0001
1000
0000
0010
0000
,  // measure 18
0100
0000
0001
0010
0100
0010
0100
1000
0010
1000
0100
0010
0001
0000
1100
0000
,  // measure 19
0010
0000
1000
0001
0010
0000
0100
0000
1000
0000
0010
1000
0100
0000
0001
0000
,  // measure 20
0010
0000
0100
1000
0010
1000
0001
0000
0100
0010
0100
0001
0010
0100
1000
0000
,  // measure 21
0001
0000
1000
0010
0100
0000
0001
0000
0010
0000
0100
0010
0001
0000
1000
0000
,  // measure 22
0010
0000
1000
0100
0010
0001
0100
0010
0100
0001
0010
0100
1000
0001
1000
0010
,  // measure 23
1002
0000
0000
0203
0000
0000
0320
0000
,  // measure 24
2030
0000
0000
0001
0000
0000
0100
0000
0010
0000
0000
0100
0000
0000
3001
0000
,  // measure 25
0021
0000
0000
0032
0000
0000
0203
0000
,  // measure 26
0310
1000
0100
0010
0002
0100
1003
0000
,  // measure 27
2010
0000
0000
3002
0000
0000
0023
0000
,  // measure 28
0230
0000
0000
1000
0000
0000
0001
0000
0010
0000
0000
0001
0000
0000
1300
0000
,  // measure 29
0120
0000
0000
0230
0000
2300
0000
3002
,  // measure 30
0010
0000
0010
0000
0013
0000
0000
0000
0001
0100
1000
0010
1000
0100
0001
0010
,  // measure 31
1002
0000
0000
0013
0000
0000
0011
0000
0000
0000
1100
0000
1100
0000
1001
0000
,  // measure 32
0201
0000
0000
0310
0000
0000
1010
0000
0000
0000
0110
0000
0110
0000
0101
0000
,  // measure 33
0021
0000
0000
0130
0000
0000
1100
0000
0000
0000
1001
0000
1001
0000
1100
0000
,  // measure 34
0102
0000
0000
1003
0000
0000
0011
0000
0000
0000
1010
0000
1010
0000
1001
0000
,  // measure 35
1000
0100
0010
0001
0010
0100
1000
0000
0001
0010
0100
1000
0100
0010
0001
0000
,  // measure 36
0100
1000
0100
0010
0100
0001
0100
0000
0010
1000
0010
0100
0010
0001
0010
0000
,  // measure 37
1000
0100
0010
0001
0100
0010
0100
1000
0001
0100
1000
0010
0001
1000
0010
0001
,  // measure 38
0010
0001
0100
0010
1000
0001
0100
1000
0100
0010
0001
1000
0010
0001
1000
0100
,  // measure 39
0001
0000
0010
0100
1000
0010
0100
0000
0001
0010
0100
1000
0010
1000
0001
0000
,  // measure 40
1000
0000
0100
0010
0100
1000
0001
0000
0010
1000
0010
0100
0010
0001
0010
0000
,  // measure 41
0100
0000
1000
0001
1000
0010
0100
0000
0001
0010
0001
0100
0010
1000
0001
0000
,  // measure 42
0010
0100
0001
0010
0001
1000
0001
0100
0010
1000
0100
0001
1000
0100
1000
0010
,  // measure 43
0100
0000
0001
0010
0001
0100
1000
0000
0010
0100
0010
1000
0100
0010
0001
0000
,  // measure 44
0100
0000
0001
0010
0001
1000
0010
0000
0100
1000
0100
0010
0100
0001
0100
0000
,  // measure 45
0001
0000
0010
0001
0100
0010
1000
0000
0100
1000
0001
1000
0100
1000
0010
0000
,  // measure 46
0100
0001
0010
1000
0001
0010
0001
0100
1000
0010
0100
1000
0100
0001
0010
1000
,  // measure 47
1100
0000
1100
0000
2100
0001
3100
0000
,  // measure 48
1000
0010
1000
0002
0010
0000
0000
0000
0103
0000
0010
1000
0100
0010
0001
0000
,  // measure 49
0100
1000
0010
1000
0100
0001
0010
1000
0010
0001
0010
0001
1000
0100
0001
0100
,  // measure 50
1000
0001
0010
0001
0010
0001
0100
1000
0100
0010
1000
0100
1000
0100
0010
0001
,  // measure 51
0101
0000
0101
0000
0102
1000
0103
0000
,  // measure 52
0010
1000
0001
0020
0100
0000
0000
0000
0031
0000
0100
0010
1000
0001
0010
0000
,  // measure 53
0001
1000
0010
1000
0100
1000
0010
0001
0100
1000
0010
0100
0001
0100
0001
0010
,  // measure 54
0100
0010
1000
0100
0001
0100
1000
0001
0010
1000
0100
0001
0010
0001
0010
1000
,  // measure 55
1001
0000
0000
0101
0000
0000
1100
0000
0010
1000
0001
1000
0100
0001
0100
0010
,  // measure 56
1010
0000
0000
0110
0000
0000
0011
0000
1000
0010
1000
0100
0001
0010
0001
0100
,  // measure 57
0101
0000
0000
0011
0000
0000
1100
0000
0010
0100
0001
1000
0100
1000
0010
0001
,  // measure 58
1001
0000
0000
1010
0000
0000
0110
0000
0100
0010
0001
0010
1000
0001
1000
0200
,  // measure 59
0002
0000
0000
0303
;
