#TITLE:HYSTERIA 2001;
#ARTIST:NM;
#BANNER:HYSTERIA 2001-bn.png;
#BACKGROUND:HYSTERIA 2001-bg.png;
#JACKET:HYSTERIA 2001-jacket.png;
#MUSIC:HYSTERIA 2001.ogg;
#SAMPLESTART:31.556;
#SAMPLELENGTH:20;
#DISPLAYBPM:190;
#BPMS:0=190.15;
#BGCHANGES:;

//---------------dance-single - ----------------
#NOTES:
     dance-single:
     :
     Beginner:
     3:
     :
0000
0000
0000
0000
,
0000
0000
0000
0000
,
0000
0000
0000
0000
,
0110
0000
0000
0000
,
0100
0000
0000
0000
,
1001
0000
0000
0000
,
0100
0000
0000
0000
,
0110
0000
0000
0000
,
0100
0000
0000
0000
,
0010
0000
0000
0000
,
0001
0000
0000
0000
,
1001
0000
0000
0000
,
1000
1000
1000
0000
,
0010
0000
0000
0000
,
1000
0000
0000
0000
,
1001
0000
0000
0000
,
0001
0001
0001
0000
,
0010
0000
0000
0000
,
0010
0000
0000
0000
,
1001
0000
0000
0000
,
0010
0000
0010
0000
,
0001
0000
0000
0000
,
0001
0000
0000
0000
,
1000
0000
0000
0000
,
1001
0000
1001
0000
,
0110
0000
0000
0000
,
0110
0000
0000
0000
,
1001
0000
0000
0000
,
0010
0010
0010
0000
,
0110
0000
0000
0000
,
0110
0000
0000
0000
,
1001
0000
0000
0000
,
0100
0100
0100
0000
,
0010
0000
0000
0000
,
1000
0000
0000
0000
,
0100
0000
0000
0000
,
0001
0001
0001
0000
,
0010
0000
0000
0000
,
0001
0000
0000
0000
,
0100
0000
0000
0000
,
1000
1000
1000
0000
,
1001
0000
0000
0000
,
0001
0000
0000
0000
,
0100
0000
0000
0000
,
1000
0000
0000
0000
,
1001
0000
0000
0000
,
1000
0000
0000
0000
,
0100
0000
0000
0000
,
0001
0000
0000
0000
,
0110
0000
0000
0000
,
1001
0000
0000
0000
,
0100
0000
0000
0000
,
1000
0000
0000
0000
,
0110
0000
0000
0000
,
1001
0000
0000
0000
,
0100
0000
0000
0000
,
0001
0000
0000
0000
,
1001
0000
0000
0000
,
1000
0000
1000
0000
,
1001
0000
0000
0000
,
0010
0010
0010
0000
,
1001
0000
0000
0000
,
0001
0000
0001
0000
,
1001
0000
0000
0000
,
0100
0100
0100
0000
,
0110
0000
0000
0000
,
0010
0000
0010
0000
,
0110
0000
0000
0000
,
1000
1000
1000
0000
,
0110
0000
0000
0000
,
0010
0000
0010
0000
,
0110
0000
0000
0000
,
0001
0001
0000
1000
,
1000
0000
0100
0100
,
0100
0000
0000
0000
;

//---------------dance-single - ----------------
#NOTES:
     dance-single:
     :
     Easy:
     5:
     :
0000
0000
0000
0000
,
0000
0000
0000
0000
,
0000
0000
0000
0000
,
1001
0000
0000
0000
,
1000
0001
1000
0000
,
0110
0000
0100
0000
,
0010
0100
1000
0000
,
1001
0000
0100
0000
,
1000
0001
1000
0000
,
0001
0000
0100
0000
,
0001
0100
0001
0000
,
1000
0000
0100
0000
,
1000
0100
1000
0000
,
0001
0000
0100
0000
,
0001
0100
0001
0000
,
1000
0000
0100
0000
,
1000
0100
1000
0000
,
0010
0000
1000
0000
,
0010
1000
0100
0000
,
0010
0000
1000
0000
,
0100
0100
0100
0000
,
0010
0000
0001
0000
,
0010
0001
0100
0000
,
0010
0000
0001
0000
,
0100
0100
0100
0000
,
1001
0000
0110
0000
,
1000
0100
0001
0000
,
1001
0000
0100
0000
,
0010
1000
0100
0000
,
1001
0000
0110
0000
,
0001
0100
1000
0000
,
1001
0000
0010
0000
,
0100
0100
0100
0000
,
0001
0000
0000
0000
,
0001
0000
0000
0000
,
0001
0000
0001
0000
,
0001
0100
1000
0000
,
1000
0000
0000
0000
,
1000
0000
0000
0000
,
1000
0000
1000
0000
,
1000
0100
0001
0000
,
0010
0000
0000
0000
,
0010
0000
0000
0000
,
0010
0000
0100
0000
,
0010
0100
0001
0000
,
0010
0000
0000
0000
,
0010
0000
0000
0000
,
0010
0000
0100
0000
,
0010
0100
1000
0000
,
0001
0000
0000
0000
,
0001
0000
0000
0000
,
1000
0000
1000
0000
,
0010
0000
0010
0000
,
1000
0000
0000
0000
,
1000
0000
0000
0000
,
0001
0000
0001
0000
,
0100
0000
0100
0000
,
1001
0000
0100
0000
,
0010
0001
0100
0000
,
0110
0000
0010
0000
,
0100
0001
1000
0000
,
1001
0000
0100
0000
,
0010
0001
0100
0000
,
0110
0000
0010
0000
,
0100
0100
0100
0000
,
1001
0000
0100
0000
,
0010
0001
0100
0000
,
0110
0000
0010
0000
,
0100
0001
1000
0000
,
1001
0000
0100
0000
,
0010
0001
0100
0000
,
0110
0000
0010
0000
,
0001
0001
0001
1000
,
1000
1000
0100
0100
,
0100
0000
0000
0000
;

//---------------dance-single - ----------------
#NOTES:
     dance-single:
     :
     Medium:
     8:
     :
0000
0000
0000
0000
,
0000
0000
0000
0000
,
0000
0000
0000
0000
,
1000
0001
0100
0000
0001
0000
1000
0000
,
0001
0010
1001
0000
,
1000
0000
1000
0000
,
0010
0001
0010
0100
,
1000
0001
0100
0000
0001
0000
1000
0000
,
0001
0010
1001
0000
,
0010
1000
0010
0001
,
1000
0100
1000
0000
,
0010
0001
0010
1000
,
0001
0100
0001
0000
,
0010
0001
1000
0010
,
1000
0010
0010
0000
,
0010
1000
0001
0010
,
0001
0010
0010
0000
,
0010
0001
0100
0000
1001
0000
0000
0000
,
0010
0001
0000
1000
0000
0000
0000
0000
,
0010
1000
0100
0000
,
0001
1000
0100
0000
1001
0000
0000
0000
,
0001
1000
0000
1000
0001
0000
0001
0000
,
0010
0001
1000
0001
,
1000
0001
0000
0001
1000
0000
1000
0000
,
0001
1000
0010
0000
,
0010
0000
0100
0000
,
0010
0100
0001
0010
,
0001
0000
0100
0000
0010
0100
0001
0000
,
1000
0100
1001
0000
,
0010
0000
0100
0000
,
0010
0100
1000
0010
,
1000
0000
0100
0000
1000
0001
0100
0000
,
0001
0100
1000
0000
1001
0000
0000
0000
,
0001
0001
0101
0000
,
0100
0100
0001
0100
,
1000
1000
1100
0000
,
0100
0100
1001
0000
,
1000
1000
1100
0000
,
0100
0100
1000
0100
,
0001
0001
0101
0000
,
0100
0100
1001
0000
,
1000
0010
0100
0101
,
1000
0010
0100
0101
,
1000
0010
1000
0010
,
1000
0010
0100
0101
,
0001
0010
0100
1100
,
0001
0010
0100
1100
,
0001
0010
0001
0010
,
0001
0010
0100
1100
,
0001
0000
0100
0000
,
1000
0000
0100
0000
,
0001
0000
0100
0000
,
1000
0000
0100
0000
,
0001
0000
0010
0000
,
1000
0000
0100
0000
,
0001
0000
0010
0000
,
1000
0000
0100
0001
,
0010
0000
0100
0000
,
0010
0100
0001
0010
,
1000
0000
0010
0000
0001
0100
1000
0000
,
0001
1000
1001
0000
,
0010
0000
0100
0000
,
0010
0100
0001
0010
,
1000
0000
0010
0000
0001
0100
1000
0000
,
1000
0100
0001
0000
1001
0000
0000
0000
,
0010
0000
0100
0000
,
0010
0001
1000
0010
,
1000
0000
0100
0000
0010
0001
0100
0000
,
0010
0100
1001
0000
,
0010
0000
0100
0000
,
0010
0001
1000
0010
,
1000
0000
0100
0000
0010
0001
0100
0000
,
1000
0010
0101
0001
,
0010
1100
1000
0010
,
0101
0000
0000
0000
;

//---------------dance-single - ----------------
#NOTES:
     dance-single:
     :
     Hard:
     10:
     :
0000
0000
0000
0000
,
0000
0000
0000
0000
,
0000
0000
0000
0000
,
1000
0100
0001
0010
0100
1000
0001
0000
,
0000
0000
0000
0100
,
0010
0000
1000
0100
0000
0001
0100
0000
,
1000
0100
0010
1001
,
0010
0000
0100
0000
0001
1000
0100
0000
,
0010
0000
0100
0000
1000
0001
0100
0010
,
1000
0001
1000
0010
,
0100
0001
1000
0000
0000
0000
1000
0000
,
0010
0100
0001
0010
,
0100
1000
0001
0000
0000
0000
0001
0000
,
1000
0001
0010
0100
,
1000
0100
0010
0000
0000
0000
0010
0000
,
0100
0010
0100
1000
,
0001
0010
0100
0000
1001
0000
0110
0000
,
2001
0100
0010
0100
,
0001
0001
0010
3100
,
1002
0100
0010
0100
,
1000
1000
0010
0103
,
2001
0100
0010
0100
,
0001
0001
0010
3100
,
1002
0100
0010
0103
,
0000
1000
0100
0010
0001
0010
0100
1000
,
0002
0000
0000
0000
0000
0000
0003
1000
,
0010
0000
0100
0000
0001
1000
0100
0000
,
1001
0101
1001
1100
,
0010
0000
0100
0000
0010
0001
0100
0000
,
2002
0000
0000
0000
0000
0000
3003
0001
,
1000
0001
1000
0000
0000
0010
0100
0000
,
1001
1010
1001
0011
,
1001
0000
0110
0000
1000
0100
0001
0000
,
2000
0000
0000
3002
0000
0000
0023
0000
,
0000
0000
0000
0000
,
0000
0100
0000
0100
,
0000
0001
0000
0031
,
0002
0000
0000
2003
0000
0000
3020
0000
,
0000
0000
0000
0000
,
0000
0100
0000
0100
,
0000
1000
1000
0030
,
1000
0001
0000
0010
0000
0000
0110
0000
,
1000
0001
0000
0110
0000
0000
1001
0000
,
1000
0100
0001
0100
0000
0000
0010
0000
,
0100
1000
0000
0011
0000
0001
1000
0010
,
0100
0010
0000
1001
0000
0000
0110
0000
,
1000
0010
0000
0100
0000
1000
0100
0000
,
0001
0100
0000
0010
0100
1000
0100
0000
,
0001
1100
0001
1100
,
2001
0000
0100
0100
,
0001
0000
0000
0001
0000
0000
3000
0000
,
1002
0000
0100
0100
,
1000
0000
0000
1000
0000
0000
0003
0000
,
0120
0000
0100
0100
,
0001
0000
0000
1000
0000
0000
0030
0000
,
0210
0000
1000
0001
,
0300
1000
0000
0000
1001
0000
0101
0000
,
2002
0000
0000
0000
0000
0000
3003
0001
,
1000
0000
0010
0000
1000
0001
0100
0000
,
0001
0110
0001
0110
,
1010
0000
0101
0000
1000
0001
0010
0000
,
2002
0000
0000
0000
0000
0000
3003
0001
,
1000
0010
0100
0000
0000
0010
0100
0000
,
1000
0110
1000
0110
,
0011
0000
1100
0000
0001
1000
0010
0000
,
1001
0000
0010
1000
0010
0000
0101
0000
,
0010
0001
0100
0000
1010
0000
1100
0000
,
0011
0000
1000
0001
0100
0000
0110
0000
,
0001
0100
1000
0000
1001
0000
0110
0000
,
1001
0000
0010
0001
1000
0000
0010
0100
,
0001
1000
0100
0000
0011
0000
1100
0000
,
1001
0000
1000
0001
1000
0000
0001
1000
,
0002
1000
1003
2000
,
0001
3001
0020
0100
,
0130
0000
0000
0000
;

//---------------dance-single - ----------------
#NOTES:
     dance-single:
     :
     Challenge:
     13:
     :
0000
0000
0000
0000
,
0000
0000
0000
0000
,
0000
0000
0000
0000
,
1000
0000
0010
1000
0000
0010
0001
0000
0010
0001
0000
0010
,
1000
0000
0010
0001
0000
0010
1000
0000
0000
1100
0000
0000
,
0011
0000
0000
0001
0000
0001
0100
0000
0100
0010
0000
0010
,
1000
0000
0001
0100
0000
0001
0100
0000
0001
1000
0000
0000
,
0001
0000
0100
0001
0000
0100
1000
0000
0100
1000
0000
0100
,
0001
0000
0010
0001
0000
0010
1000
0000
0010
1000
0000
0010
,
0001
0000
1000
0100
0000
1000
0100
0000
0100
0010
0000
0010
,
0001
0000
1000
0000
0000
1100
0000
0000
0001
0100
0000
0001
,
0100
0000
0000
0010
0000
1000
0010
0000
0000
0100
0000
0100
,
0001
0011
0110
1100
,
1001
0000
0010
1000
0000
0010
1000
0000
0001
0100
0000
0000
,
0010
0000
0100
0010
0000
1000
0000
0000
0001
0200
0000
0000
,
0310
0000
0010
1000
0000
1000
0010
0000
0010
0100
0000
0000
,
0001
0000
1000
0001
0000
0000
0201
0000
0000
0310
0000
0000
,
1000
0000
1000
0001
0000
0001
1000
0000
0010
0100
0000
0000
,
0001
0000
1000
0000
0000
0101
0000
0000
0001
1000
0000
0001
,
0200
0000
0000
0310
0000
0000
1000
0000
1000
0001
0000
0010
,
0001
0000
0100
0010
0000
1000
0000
0000
1000
0100
0000
0000
,
1001
0000
0001
0000
0000
1000
0010
0000
0100
0010
0000
0000
,
1000
0000
1000
0100
0000
0100
1000
0000
1000
0100
0000
0000
,
0010
0000
0001
0010
0000
0100
0000
0000
0100
1000
0000
0001
,
1000
0000
0010
0100
0000
0001
1000
0000
0001
0100
0000
0010
,
1000
0000
0000
1010
0000
0010
1000
0000
0000
0101
0000
0001
,
1000
0000
1000
0001
0000
0001
0010
0000
0010
0100
0000
0000
,
1100
0000
0000
0001
0000
0001
1000
0000
0000
0010
0000
0100
,
0010
0000
0010
1000
0000
0000
0110
0000
0001
1000
0000
0000
,
0011
0000
0000
1100
0000
1000
0001
0000
0001
0100
0000
0000
,
0010
0000
1000
0010
0000
1000
0100
0000
0010
0002
0000
0000
,
0103
0000
0000
0001
0000
1000
0001
0000
1000
0010
0000
0000
,
1010
0000
0001
0100
0000
0010
1000
0000
1000
0001
0000
0000
,
0011
0000
0000
0001
0000
1000
0001
0000
0000
0100
0000
0010
,
1000
0000
1000
0100
0000
0100
0001
0000
0001
0100
0000
0000
,
0010
0000
0000
0001
0000
0100
0001
0000
0000
1000
0000
1000
,
0010
0000
0100
0001
0000
0000
1001
0000
0010
0100
0000
0000
,
0110
0000
0000
0001
0000
0001
0010
0000
0000
0001
0000
1000
,
0010
0000
0010
1000
0000
1000
0100
0000
0100
0010
0000
0000
,
0011
0000
0000
0001
0000
0001
1000
0000
1000
0001
0000
0001
,
1000
0000
0100
1000
0000
0000
1100
0000
0000
0000
0000
0000
,
1001
0000
0001
0100
0000
0000
0000
0000
0010
1000
0000
0010
,
1000
0000
1000
0100
0000
0100
0001
0000
0001
0100
0000
0000
,
2100
0000
0000
3001
0000
0000
0000
0000
1000
0002
0000
0000
,
0013
0000
0001
0100
0000
0010
1000
0000
0001
1000
0000
0000
,
0010
0000
0010
1000
0000
0001
0100
0000
0100
0010
0000
0000
,
0101
0000
0000
1100
0000
0001
1000
0000
1000
0100
0000
0000
,
0020
0000
0000
0031
0000
0001
2000
0000
0000
3010
0000
0010
,
0100
0000
0000
0001
0000
1000
0001
0000
0100
0010
0000
0000
,
0101
0000
1010
0001
1000
0010
0100
0000
,
0001
0010
0100
2000
0000
3010
0100
0002
,
0000
1003
0001
0010
0001
1000
0100
0010
,
0000
0011
0000
0101
0000
1010
0000
1100
,
0000
0001
1000
0010
1000
0001
0100
0000
,
0001
0010
0100
1000
0100
0010
0001
0000
,
1000
0100
0010
0001
1000
0100
0010
0001
,
0000
1001
0000
0110
0000
1000
0001
0000
,
0011
0000
0000
1000
0000
0100
1000
0000
0000
0010
0000
1000
,
0001
0000
0001
0100
0000
0100
1000
0000
1000
0100
0000
0000
,
0101
0000
0000
0010
0000
1000
0010
0000
1000
0100
0000
0100
,
0010
0000
0010
0001
0000
0000
1100
0000
0001
0100
0000
0000
,
0110
0000
0000
0001
0000
1000
0100
0000
1000
0001
0000
0000
,
0010
0000
0010
0001
0000
0001
1000
0000
1000
0100
0000
0000
,
0010
0000
0000
0001
0000
0100
0001
0000
0100
0001
0000
0000
,
1000
0000
0100
1000
0000
0001
0100
0000
0100
0010
0000
0000
,
1010
0000
0000
0001
0000
0001
0010
0000
0010
1000
0000
1000
,
0010
0000
0010
0001
0000
0001
1000
0000
0001
0100
0000
0000
,
1001
0000
0000
0100
0000
0100
1000
0000
1000
0010
0000
0010
,
0001
0000
0010
1000
0000
0000
1000
0000
0001
0100
0000
0000
,
0101
0000
0000
0010
0000
0010
0001
0000
0001
1000
0000
1000
,
0010
0000
0001
0010
0000
0100
0010
0000
1000
0010
0000
0000
,
1100
0000
0000
0001
0000
0100
0001
0000
0100
0010
0000
0000
,
0011
0001
0100
0010
1000
0000
1100
1000
,
0010
0100
0001
0000
1001
0100
0010
1000
,
1001
0000
0000
0000
;

//---------------dance-double - ----------------
#NOTES:
     dance-double:
     :
     Easy:
     4:
     :
00000000
00000000
00000000
00000000
,
00000000
00000000
00000000
00000000
,
00000000
00000000
00000000
00000000
,
00000110
00000000
00000000
00000000
,
00001000
00000000
00010000
00000000
,
01100000
00000000
00000000
00000000
,
00010000
00000000
00001000
00000000
,
00000110
00000000
00000000
00000000
,
00001000
00000000
00010000
00000000
,
01000000
00000000
10000000
00000000
,
00100000
00000000
00010000
00000000
,
01000000
00000000
10000000
00000000
,
00100000
00000000
00010000
00000000
,
00001000
00000000
00000100
00000000
,
00000001
00000000
00000010
00000000
,
00001000
00000000
00000100
00000000
,
00000001
00000000
00001001
00000000
,
00000010
00000000
00001000
00000000
,
00010000
00000000
01000000
00000000
,
01000000
00000000
00010000
00000000
,
00001000
00000000
00000010
00000000
,
00000010
00000000
00001000
00000000
,
00010000
00000000
01000000
00000000
,
01000000
00000000
00010000
00000000
,
01000000
00000000
01100000
00000000
,
01100000
00000000
00010000
00000000
,
00001000
00000000
00000100
00000000
,
00000110
00000000
00001000
00000000
,
00010000
01000000
10000000
00000000
,
01100000
00000000
00010000
00000000
,
00001000
00000000
00000100
00000000
,
00000110
00000000
00001000
00000000
,
00001000
00000100
00000001
00000000
,
00000001
00000000
00000000
00000000
,
00001000
00000000
00000000
00000000
,
00010000
00000000
10000000
00000000
,
00010000
10000000
01000000
00000000
,
10000000
00000000
00000000
00000000
,
00010000
00000000
00000000
00000000
,
00001000
00000000
00000001
00000000
,
00001000
00000001
00000100
00000000
,
00000001
00000000
00000100
00000000
,
00000100
00000000
00001000
00000000
,
00001000
00000000
00010000
00000000
,
00001000
00000000
00010000
00000000
,
00001000
00000000
00000100
00000000
,
00000100
00000000
00000001
00000000
,
00000001
00000000
00000100
00000000
,
00000100
00000000
00001000
00000000
,
00010000
00000000
00000000
00000000
,
01000000
00000000
00000000
00000000
,
01100000
00000000
10000000
00000000
,
01000000
00000000
00010000
00000000
,
00001000
00000000
00000000
00000000
,
00000100
00000000
00000000
00000000
,
00001000
00000000
00010000
00000000
,
00010000
00000000
01000000
00000000
,
01100000
00000000
00000000
00000000
,
00010000
00000000
00001000
00000000
,
00000110
00000000
00000000
00000000
,
00001000
00000100
00000001
00000000
,
00000110
00000000
00000000
00000000
,
00001000
00000000
00010000
00000000
,
01100000
00000000
00000000
00000000
,
00010000
01000000
10000000
00000000
,
00100000
00000000
00000000
00000000
,
00100000
00010000
00001000
00000000
,
00000010
00000000
00000000
00000000
,
00000010
00001000
00010000
00000000
,
01000000
00000000
00000000
00000000
,
01000000
00010000
00001000
00000000
,
00000100
00000000
00000000
00000000
,
00001000
00010000
01000000
00010000
,
00001000
00000100
00001000
00010000
,
01000000
00000000
00000000
00000000
;

//---------------dance-double - ----------------
#NOTES:
     dance-double:
     :
     Medium:
     8:
     :
00000000
00000000
00000000
00000000
,
00000000
00000000
00000000
00000000
,
00000000
00000000
00000000
00000000
,
10000000
01100000
10000000
01000000
,
00010000
00001000
00000100
00000000
,
00000100
00001000
00010000
00001000
,
00000110
00000110
00001000
00000100
,
00000001
00000110
00000001
00000100
,
00001000
00010000
01000000
00000000
,
10000000
00010000
01000000
00001000
,
00010000
01000000
10000000
01000000
,
10000000
00010000
01000000
00001000
,
00010000
00001000
00000100
00000000
,
00000001
00001000
00000100
00010000
,
00001000
00000100
00000001
00000100
,
00001000
00000100
00001000
00000100
,
00000001
00000100
00001000
00000000
,
00000100
00001000
00010000
00000000
,
01000000
00010000
00001000
00000000
,
00000100
00001000
00000100
00001000
,
00010000
01000000
00010000
01000000
,
01100000
00010000
01000000
10000000
,
01000000
00001000
00010000
01000000
,
00010000
00001000
00000100
00000001
,
00000110
00000001
00001000
00000000
,
00000101
00001000
00010000
01000000
,
00100000
00010000
01000000
00000000
10000000
00000000
01000000
00000000
,
00010000
00001000
00010000
01000000
,
10000000
01000000
00010000
00000000
01100000
00000000
00000000
00000000
,
11000000
00010000
00001000
00000100
,
00000010
00001000
00000100
00000000
00000001
00000000
00000100
00000000
,
00000110
00001000
00000100
00000001
,
00001000
00000001
00000100
00000000
00001001
00000000
00000000
00000000
,
00000010
00010000
00001000
00010000
,
01000000
00010000
01000000
10000000
,
01000000
00010000
00001000
00010000
,
01000000
10000000
11000000
00000000
,
00100000
10000000
01000000
10000000
,
00100000
01000000
00001000
00010000
,
00001000
00000100
00000010
00000100
,
00000001
00000010
00001100
00000000
,
00000010
00010000
00001000
00000100
,
00000010
00010000
00001000
00000100
,
00000010
00010000
00001000
00010000
,
01000000
10000000
11000000
00000000
,
00100000
00001000
00010000
01000000
,
00100000
00001000
00010000
01000000
,
10000000
01000000
00010000
00001000
,
00000100
00000001
00000101
00000000
,
00000001
00000000
00000001
00000000
,
00001000
00000000
00001000
00000000
,
00010000
00000000
00010000
00000000
,
10000000
00000000
10000000
00000000
,
00010000
00000000
00010000
00000000
,
00001000
00000000
00001000
00000000
,
00000001
00000000
00000001
00000000
,
00001000
00000000
00000001
00000000
,
00000010
00010000
00001000
00000100
,
00001000
00010000
01000000
00000000
10000000
00000000
01000000
00000000
,
00010000
01000000
10000000
01000000
,
00010000
01000000
10000000
00000000
01100000
00000000
00000000
00000000
,
00100000
00001000
00010000
01000000
,
00010000
00001000
00000100
00000000
00000001
00000000
00000100
00000000
,
00000010
00001000
00000001
00000010
,
00000001
00001000
00000100
00000000
00001001
00000000
00000000
00000000
,
00000010
00010000
00001000
00000100
,
00001000
00010000
01000000
00000000
10000000
00000000
01000000
00000000
,
00010000
01000000
10000000
11000000
,
00010000
01000000
10000000
00000000
10010000
00000000
00000000
00000000
,
00100000
00001000
00010000
01000000
,
00010000
00001000
00000100
00000000
00000001
00000000
00000100
00000000
,
00001010
00000001
00001000
00000100
,
00000110
00010000
00001000
00000110
,
00010000
00001000
00000110
00000001
,
00001000
00000000
00000000
00000000
;

//---------------dance-double - ----------------
#NOTES:
     dance-double:
     :
     Hard:
     11:
     :
00000000
00000000
00000000
00000000
,
00000000
00000000
00000000
00000000
,
00000000
00000000
00000000
00000000
,
00010000
00001000
00000010
00001000
00010000
00100000
00010000
00000000
,
00000000
00000000
00000000
01001000
,
00010100
00000000
00000010
00000001
00000000
00000100
00000010
00000000
,
00001000
00000100
00010000
01000000
,
00100000
00000000
00010000
00000000
10000000
01000000
00010000
00000000
,
00001000
00000000
00000100
00000000
00000001
00001000
00000100
00000010
,
00000001
00000100
00001000
00010000
,
00100000
10000000
01000000
00000000
00000000
00000000
00010000
00000000
,
00001000
00000010
00000001
00000100
,
00001000
00010000
01000000
00000000
00000000
00000000
00010000
00000000
,
00001000
00000000
00000100
00000000
00000010
00001000
00000100
00000000
,
00010000
00001000
00000000
00011000
,
00010000
00000000
01000000
00000000
00100000
00010000
01000000
00000000
,
00010000
00011000
00101000
01010000
,
00200000
00000000
00000000
00000000
,
00010000
00010000
00310000
00011000
,
00000020
00000000
00000000
00000000
,
00001000
00001000
00001030
00011000
,
02000000
00000000
00000000
00000000
,
00010000
10000000
03010000
00011000
,
00000200
00000000
00000000
00000000
,
00000300
00000020
00000000
00000000
00000100
00000000
00000130
00000000
,
00002000
00000000
00000000
00000000
00000000
00000000
00003000
00010000
,
01000000
00000000
01000000
00000000
00000000
00100000
00010000
00000000
,
00010010
00011000
00101000
00011000
,
00000100
00000000
00000010
00000000
00001000
00000001
00000100
00000000
,
00000002
00000000
00000000
00000000
00000000
00000000
00000003
00001000
,
00000001
00000100
00001000
00000000
00000000
00010000
00001000
00000000
,
00010100
00011000
01001000
00011000
,
01000000
00000000
00100000
00000000
00010000
10000000
01000000
00000000
,
00020000
00000000
00000000
00030020
00000000
00000000
00000230
00000000
,
00000000
00000000
00000000
00000000
,
00000000
00001000
00000000
00000001
,
00000000
00001000
00000000
00001300
,
00002000
00000000
00000000
00203000
00000000
00000000
02300000
00000000
,
00000000
00000000
00000000
00000000
,
00000000
00010000
00000000
00010000
,
00000000
10000000
00010000
03000000
,
10000000
00000000
00010000
00000000
10000000
01000000
00010000
00000000
,
00001000
00000000
00000100
00000000
00001000
00000100
00000001
00000000
,
00000010
00000000
00000100
00001000
00000000
00000001
00000100
00001000
,
00010000
00000010
00000000
00000010
00000000
00001000
00000001
00000100
,
00001000
00010000
00000000
00000000
01000000
00100000
00000000
00000000
,
00010000
00000000
10000000
00000000
00100000
01000000
00000000
00100000
,
00010000
00001000
00000010
00000100
00000000
00001000
00000100
00000000
,
00000000
00010100
00000000
01001000
,
10020000
01000000
00100000
01000000
,
10000000
01000000
00130000
00011000
,
00002001
00000100
00000010
00000100
,
00000001
00000100
00003010
00011000
,
10020000
01000000
00100000
01000000
,
10000000
01000000
00130000
00011000
,
00002001
00000100
00000010
00000100
,
00000000
00000100
00003000
00011000
,
00200000
00000000
00000000
00000000
00000000
00000000
00300000
00010000
,
10000000
00000000
01000000
00000000
00000000
00010000
00001000
00000000
,
00010010
00011000
00101000
00011000
,
00000100
00000000
00000010
00000000
00000001
00001000
00000100
00000000
,
00000020
00000000
00000000
00000000
00000000
00000000
00000030
00000001
,
00000100
00001000
00010000
00000000
00000000
00001000
00010000
00000000
,
00010100
00011000
01001000
00011000
,
00100000
00000000
01000000
00000000
10000000
00010000
01000000
00000000
,
10010000
00000000
00100000
01000000
00100000
00000000
00010000
00000000
,
00001000
00000010
00000100
00000000
00001000
00000000
00000001
00000000
,
00001001
00000000
00000010
00000100
00001000
00000000
00010000
00000000
,
01000000
10000000
00010000
00000000
01000000
00000000
01100000
00000000
,
10010000
00000000
10000000
01000000
00010000
00000000
00001000
00000000
,
00100000
00010000
01000000
00000000
10010000
00000000
01000000
00000000
,
10010000
00000000
00100000
00010000
00001000
00000000
00000010
00000000
,
00000002
00001000
00001003
00002000
,
00010000
00013000
00020000
10000000
,
10030000
00000000
00000000
00000000
;

//---------------dance-double - ----------------
#NOTES:
     dance-double:
     :
     Challenge:
     13:
     :
00000000
00000000
00000000
00000000
,
00000000
00000000
00000000
00000000
,
00000000
00000000
00000000
00000000
,
00010000
00000000
01000000
00100000
00000000
01000000
10000000
00000000
01000000
00100000
00000000
00000000
,
01000000
00000000
00010000
10000000
00000000
00010000
01000000
00000000
00000000
01100000
00000000
00000000
,
00011000
00000000
00000000
00000010
00000000
00000010
00001000
00000000
00001000
00000100
00000000
00000100
,
00000010
00000000
00000001
00000100
00000000
00000001
00000010
00000000
00000100
00001000
00000000
00000000
,
00000001
00000000
00000010
00000001
00000000
00000010
00001000
00000000
00000010
00001000
00000000
00000010
,
00000001
00000000
00000100
00000001
00000000
00000100
00001000
00000000
00000100
00001000
00000000
00000100
,
00000000
00000000
00000001
00000010
00000000
00000001
00001000
00000000
00000100
00010000
00000000
00001000
,
00010000
00000000
01000000
00000000
00000000
11000000
00000000
00000000
00100000
10000000
00000000
10000000
,
00010000
00000000
00000000
10000000
00000000
01000000
00100000
00000000
00000000
00001000
00000000
00010000
,
00000100
00000000
00000000
00000110
00000000
00000000
00001001
00000000
00000000
00000100
00000000
00000010
,
00000000
00000000
00001000
00000100
00000000
00000100
00010000
00000000
00000010
00000100
00000000
00000000
,
00000001
00000000
00000010
00000001
00000000
00001000
00000000
00000000
00001000
00000100
00000000
00000000
,
00010000
00000000
00001000
00010000
00000000
00001000
01000000
00000000
01000000
00100000
00000000
00000000
,
10000000
00000000
00010000
01000000
00000000
00000000
10100000
00000000
00000000
00000000
00000000
01000000
,
00010000
00000000
00100000
00010000
00000000
00001000
00000100
00000000
00000100
00000001
00000000
00000000
,
00000010
00000000
00000100
00000000
00000000
00010100
00000000
00000000
00010000
00001000
00000000
00010000
,
00000100
00000000
00000100
00000010
00000000
00000000
00000001
00000000
00001000
00000010
00000000
00000000
,
00001000
00000000
00000100
00000010
00000000
00000001
00000000
00000000
00000100
00010000
00000000
00000000
,
00001000
00000000
00010000
00001000
00000000
01000000
00100000
00000000
00100000
10000000
00000000
00000000
,
11000000
00110000
01001000
00011000
,
00010000
00000000
00001000
00010000
00000000
00000010
00000000
00000000
00001000
00000100
00000000
00000100
,
00000010
00000000
00000100
00000010
00000000
00000001
00001000
00000000
00000001
00001000
00000000
00000100
,
00000010
00000000
00000000
00000011
00000000
00000001
00001000
00000000
00000000
00000100
00000000
00000100
,
00010000
00000000
00001000
00100000
00000000
00001000
00010000
00000000
01000000
10000000
00000000
00000000
,
10010000
00000000
00000000
01000000
00000000
01000000
00100000
00000000
00000000
10000000
00000000
00100000
,
10000000
00000000
01000000
00100000
00000000
00000000
00101000
00000000
00001000
00010000
00000000
00000000
,
00011000
00000000
00000000
00010100
00000000
00000100
00000010
00000000
00000000
00000001
00000000
00000100
,
00000001
00000000
00000001
00001000
00000000
00001000
00000100
00000000
00000100
00010000
00000000
00000000
,
01001000
00000000
00000000
00001000
00000000
00010000
00001000
00000000
01000000
00100000
00000000
00000000
,
01100000
00000000
00000000
10000000
00000000
00010000
01000000
00000000
01000000
00100000
00000000
00000000
,
10000000
00000000
00000000
01000000
00000000
10000000
00010000
00000000
00000000
00000000
00000000
01000000
,
00010000
00000000
00010000
00100000
00000000
00100000
00001000
00000000
00001000
00000100
00000000
00000000
,
00000110
00000000
00000000
00000010
00000000
00001000
00000001
00000000
00000000
00000001
00000000
00000010
,
00000001
00000000
00000100
00001000
00000000
00000000
00001100
00000000
00001000
00000001
00000000
00000000
,
00000100
00000000
00000000
00000010
00000000
00000010
00010000
00000000
00000000
00001000
00000000
00001000
,
00010000
00000000
00001000
01000000
00000000
01000000
00100000
00000000
10000000
00010000
00000000
00000000
,
10010000
00000000
00000000
00100000
00000000
00010000
00100000
00000000
00000000
01000000
00000000
01000000
,
10000000
00000000
00010000
01000000
00000000
00000000
00101000
00000000
00000000
00000000
00000000
00000000
,
00011000
00000000
00001000
01000000
00000000
00000000
00000000
00000000
00100000
10000000
00000000
10000000
,
01000000
00000000
10000000
00100000
00000000
01000000
00010000
00000000
00010000
10000000
00000000
00000000
,
01010000
00000000
00000000
00100000
00000000
01000000
00000000
00000000
00001000
00010000
00000000
00000000
,
00000010
00000000
00001000
00000100
00000000
00001000
00000001
00000000
00000010
00000100
00000000
00000000
,
00001000
00000000
00000010
00001000
00000000
00000100
00010000
00000000
00000010
00000100
00000000
00000000
,
00000101
00000000
00000000
00001100
00000000
00000001
00001000
00000000
00001000
00000100
00000000
00001000
,
00000010
00000000
00000000
00001000
00000000
00000100
00010000
00000000
00001000
00010000
00000000
00000010
,
00000100
00000000
00000000
00000001
00000000
00000010
00001000
00000000
00000000
00001100
00000000
00000000
,
00000010
00001000
00000100
00001000
00000010
00000001
00000010
00001000
,
00000100
00010000
00001000
00000100
00001000
00100000
00010000
01000000
,
00100000
10000000
00010000
00100000
00010000
01000000
10000000
01000000
,
00100000
01000000
10000000
01000000
00010000
00100000
00010000
10000000
,
01000000
00010000
01000000
00100000
00010000
10000000
00010000
00000100
,
00000001
00000010
00000100
00000010
00000001
00001000
00000010
00010000
,
00001000
00000100
00000001
00000010
00000100
00001000
00000010
00001010
,
00000000
00011000
00000000
01001000
00000000
10000000
00010000
00000000
,
01001000
00000000
00000000
00100000
00000000
00100000
10000000
00000000
00000000
01000000
00000000
10000000
,
01000000
00000000
01000000
00100000
00000000
00100000
00001000
00000000
00001000
00010000
00000000
00000000
,
00010010
00000000
00000000
00000010
00000000
00000100
00000010
00000000
00000000
00001000
00000000
00001000
,
00000100
00000000
00000100
00000010
00000000
00000000
00000001
00000000
00000100
00001000
00000000
00000000
,
00001010
00000000
00000000
00000100
00000000
00001000
00000001
00000000
00000000
00000010
00000000
00000010
,
00000100
00000000
00000100
00010000
00000000
00001000
00010000
00000000
00000010
00000100
00000000
00000000
,
00000110
00000000
00000000
00000001
00000000
00000010
00000001
00000000
00000100
00001000
00000000
00000000
,
00000010
00000000
00000010
00010000
00000000
00001000
01000000
00000000
01000000
00100000
00000000
00000000
,
10100000
00000000
00000000
01000000
00000000
00010000
00100000
00000000
00000000
00010000
00000000
01000000
,
00100000
00000000
10000000
01000000
00000000
00100000
00001000
00000000
00010000
00000010
00000000
00000000
,
00000101
00000000
00000000
00000001
00000000
00000010
00000001
00000000
00000100
00000010
00000000
00001000
,
00000100
00000000
00000100
00010000
00000000
00000000
00011000
00000000
00001000
01000000
00000000
00000000
,
00110000
00000000
00000000
00010000
00000000
10000000
00100000
00000000
00000000
10000000
00000000
01000000
,
00100000
00000000
00100000
01000000
00000000
00100000
00010000
00000000
00001000
00000100
00000000
00000000
,
00001001
00000000
00000000
00000010
00000000
00000001
00001000
00000000
00000001
00000010
00000000
00000000
,
00000011
00000100
00001000
00000010
00000001
00000000
00010010
00010000
,
00001000
01000000
00100000
00000000
10010000
01000000
00100000
10000000
,
01010000
00000000
00000000
00000000
;
