#TITLE:HUMMINGBIRD;
#ARTIST:SMiLE.dk;
#BANNER:HUMMINGBIRD-bn.png;
#BACKGROUND:HUMMINGBIRD-bg.png;
#JACKET:HUMMINGBIRD-jacket.png;
#MUSIC:HUMMINGBIRD.ogg;
#SAMPLESTART:50.697;
#SAMPLELENGTH:20;
#DISPLAYBPM:142;
#BPMS:0=142;
#BGCHANGES:;

//---------------dance-single - ----------------
#NOTES:
     dance-single:
     :
     Beginner:
     3:
     :
0000
0000
0000
0000
,
0000
0000
0000
0000
,
0000
0000
0000
0000
,
0000
0000
0000
0000
,
0000
0000
0000
0000
,
1000
0000
1000
0000
,
1000
0000
1000
0000
,
0001
0000
0001
0000
,
0001
0000
0001
0000
,
0010
0000
0010
0000
,
0100
0000
0100
0000
,
0010
0000
0010
0000
,
0100
0000
0100
0000
,
1000
0000
1000
0000
,
0010
0000
0010
0000
,
0100
0000
0100
0000
,
0001
0000
0001
0000
,
0010
0000
0001
0000
,
1000
0000
0100
0000
,
0000
1000
1000
0000
,
0010
0000
0100
0000
,
0001
0000
0010
0000
,
1000
0000
0100
0000
,
0000
0001
0001
0000
,
1000
0000
0010
0000
,
0100
0000
0010
0000
,
1000
1000
0000
0000
,
0100
0000
0010
0000
,
0001
0001
0001
0000
,
1001
0000
0110
0000
,
1000
0000
0100
0000
,
1000
0000
0001
0000
,
0010
0000
0001
0000
,
0100
0000
0010
0000
,
1000
0000
0100
0000
,
1000
0000
0001
0000
,
0010
0000
0001
0000
,
0010
0000
0100
0000
,
1000
0000
0010
0000
,
1000
0000
0001
0000
,
0010
0000
0001
0000
,
0100
0000
1000
0000
,
0010
0000
1000
0000
,
0001
0000
1000
0000
,
0100
0000
0010
0000
,
0001
0000
0100
0000
,
0002
0000
0003
0000
,
2000
0000
3000
0000
,
0020
0000
0030
0000
,
1000
0000
0001
0000
,
0200
0000
0300
0000
,
0001
0000
0001
0000
,
1000
1000
1000
0000
,
0010
0000
0100
0000
,
0001
0000
0010
0000
,
0001
0000
1000
0000
,
0001
0001
0001
0000
,
0010
0000
0001
0000
,
0100
0000
0010
0000
,
1000
0000
0100
0000
,
1000
0000
0001
0000
,
0010
0000
0001
0000
,
0100
0000
0010
0000
,
1000
0000
0100
0000
,
1000
0000
0001
0000
,
0010
0000
0001
0000
,
1000
0000
0100
0100
;

//---------------dance-single - ----------------
#NOTES:
     dance-single:
     :
     Easy:
     6:
     :
0000
0000
0000
0000
,
0000
0000
0000
0000
,
0000
0000
0000
0000
,
0000
0000
0000
0000
,
0000
0000
0000
0000
,
1000
0100
0001
0100
,
1000
1000
1000
0000
,
0002
0003
2000
3000
,
0020
0030
0200
0300
,
0001
0010
0100
1000
,
0010
1000
0100
0001
,
0010
0001
0100
1000
,
0001
0010
1000
0100
,
0010
0100
1000
0001
,
1000
0010
0001
0100
,
0001
1000
0010
0100
,
0001
0010
0100
1000
,
0010
0010
0010
0000
,
1000
0001
0100
0000
,
0000
0110
0001
0100
,
1000
0001
1000
0000
,
0100
0100
0100
0000
,
1000
0001
0010
0000
,
0000
1001
0001
0100
,
1000
0010
1000
0000
,
1001
0001
0100
1000
,
0010
0100
0010
0000
,
0110
0001
0010
1000
,
0100
0100
0100
0000
,
2000
0001
0002
3003
,
0010
0001
0100
0001
,
1000
1000
1000
0000
,
0100
1000
0010
0100
,
0001
0010
0001
1000
,
0100
0010
0001
1000
,
0010
0010
0010
0000
,
1000
0100
1000
0010
,
0100
0001
1000
0001
,
0010
0001
0100
1000
,
0010
1000
0100
0001
,
0100
0010
1000
0001
,
1000
0100
0010
0001
,
1000
0001
0010
0100
,
0010
0001
1000
0100
,
1000
0100
0001
0010
,
0001
0100
0010
1000
,
0000
0100
1000
0001
,
0200
0020
0000
0330
,
0000
1000
0010
0100
,
0001
0001
0001
0000
,
1000
1000
1000
0000
,
0010
1000
0100
0001
,
0100
0100
0100
0000
,
0001
0010
0001
1000
,
0100
0010
0100
0010
,
0001
1000
0010
0100
,
0001
0001
0001
0000
,
1000
0100
1000
0001
,
0010
0100
0100
0100
,
1000
0010
1000
0000
,
0001
0100
0001
0000
,
0010
0001
0100
1000
,
0010
0010
0010
0000
,
1000
0001
0100
0000
,
0001
0010
0100
0000
,
1000
0010
1000
0001
,
0010
0001
0100
0100
;

//---------------dance-single - ----------------
#NOTES:
     dance-single:
     :
     Medium:
     9:
     :
0000
0000
0000
0000
,
0000
0000
0000
0000
,
0000
0000
0000
0000
,
0000
0000
0000
0000
,
0000
0000
0000
0000
,
1000
0000
0001
0000
0100
0000
0001
0010
,
1000
0000
0100
0000
0010
0001
0100
0000
,
0002
0013
2000
3010
,
0100
0001
0010
0001
1000
0000
0000
0100
,
0100
0000
0010
0001
1000
0000
0010
0010
,
0000
1010
0000
0101
0000
1010
0000
0001
,
0001
0000
0010
0001
0100
0000
1000
1000
,
0000
0001
1000
0001
1000
0000
1001
0000
,
0010
0000
1000
0100
1000
0000
0001
0001
,
0000
0011
0000
1100
0000
0011
0000
0100
,
0100
0000
0001
0010
0001
0000
1000
0000
,
0010
0010
0000
0100
0000
0010
0010
0000
,
2000
0000
0100
0000
3001
0000
1000
0001
,
0020
0000
0001
0000
0130
0000
1000
0010
,
1000
0000
0001
0000
0001
0100
0010
0000
,
1010
0000
0101
0000
1100
0000
0001
1000
,
0002
0000
0010
0000
1003
0000
0100
0010
,
0200
0000
1000
0000
0301
0000
0100
0010
,
0001
0000
0101
0000
0010
1000
0100
0000
,
1001
0000
0110
0000
1001
0000
1000
0100
,
0001
0000
0010
0001
0100
0000
1010
0000
,
0011
0000
2000
0002
0000
0000
3003
0000
,
0010
0000
1000
0100
1000
0000
0001
0100
,
0002
0010
0200
0303
,
0000
1000
0100
1000
0100
0100
0000
0000
,
0010
0000
0001
0000
1000
0000
0100
0010
,
0001
0000
0100
0000
0001
0010
1000
0000
,
0100
0010
0001
0000
0100
0000
0010
1000
,
0001
0011
0110
1100
,
0001
0000
0010
0000
0001
0000
1000
0100
,
1000
0000
0010
0000
1000
0100
0001
0000
,
0010
0001
0100
0000
1000
0000
0010
1000
,
0100
1010
1001
0101
,
0001
0000
0010
0100
0010
0000
0001
1000
,
0000
1100
0000
0101
0000
1100
0000
0010
,
0010
0000
1000
0100
1000
0000
0001
0001
,
0000
0010
0100
0010
0100
0000
0110
0000
,
1000
0000
0010
1000
0100
0000
0010
0001
,
0000
0011
0000
1010
0000
0011
0000
0100
,
0100
0000
0001
1000
0001
0000
0010
0100
,
0000
1000
0001
1000
0001
1000
0001
0000
,
1001
0020
0032
2003
,
3020
0000
0100
0200
0000
0000
0330
0000
,
0000
0000
0002
0000
2003
0000
3100
0010
,
0002
1000
0200
0303
,
0010
0010
0020
0030
,
1000
0000
0001
0000
0010
0000
0001
0100
,
0010
0000
1000
0000
0001
1000
0100
0000
,
0010
0001
0100
0000
0010
0000
1000
0001
,
1000
1010
0110
0101
,
0010
0000
0001
0000
0100
0000
1000
0010
,
1000
0000
0001
0000
1000
0100
0010
0000
,
0001
0100
0010
0000
1000
0000
0100
1000
,
0001
0011
1001
1100
,
0020
0000
0032
0000
0203
0000
0310
1000
,
0100
0010
0000
0001
0000
1000
0000
0001
,
0200
0000
0320
0000
2030
0000
3100
0010
,
0002
0000
2003
0000
3001
0100
0100
0000
,
0020
0000
2030
0000
3002
0000
0013
0100
,
1000
0001
0000
0010
0000
0001
0000
0100
,
0020
0000
0230
0000
0302
0000
1003
0100
,
2000
0000
3002
0000
1003
0100
0100
0000
;

//---------------dance-single - ----------------
#NOTES:
     dance-single:
     :
     Hard:
     11:
     :
0000
0000
0000
0000
,
0000
0000
0000
0000
,
0000
0000
0000
0000
,
0000
0000
0000
0000
,
0000
0000
0000
0000
,
1000
0100
0001
0100
0010
0000
0001
0100
,
1000
0000
0010
1000
0001
0000
0100
0010
,
1000
0000
0000
0100
1000
0000
0001
0000
0010
0000
0000
0001
0010
0000
0100
0000
,
1000
0010
0100
0010
1000
0100
0010
0001
,
0001
0100
0010
1000
1000
0100
0010
0001
,
0000
0011
0000
1100
0000
0101
0000
1000
,
1000
0010
0100
0001
0001
1000
0010
0100
,
0000
0001
0001
0100
1000
1000
1000
0010
,
0010
1000
0001
0100
0100
0010
1000
0001
,
0000
1010
0000
1100
0000
0011
0000
0100
,
0100
0001
1000
0010
0010
1000
0100
0001
,
0000
0010
0010
0001
0100
0100
0100
0000
,
0002
0000
1003
0100
2000
0000
3010
0100
,
0002
0000
0013
0001
0200
0000
0310
1000
,
0001
0000
1010
0000
1100
0001
0100
0000
,
0001
0000
0010
0000
1000
0000
0010
0000
0100
0000
1000
0001
1000
0000
0001
0000
,
0200
0000
0301
0010
2000
0000
3100
0010
,
0002
0000
1003
0001
0020
0100
0130
0010
,
0001
0000
0101
0000
0011
1000
0100
0000
,
1000
0000
0010
0000
0001
0000
0010
0000
0100
0000
0000
0000
0001
0000
1000
0100
,
1000
0000
0010
1000
0100
0010
0001
0000
,
0101
1000
0010
1000
0100
0010
0001
0000
,
0100
0000
0010
1000
0010
0100
0001
1000
,
1100
0000
0110
0000
0011
0100
0010
0000
,
1001
1000
0100
1000
0100
0100
0010
0000
,
0001
0100
1000
0100
0010
0000
1000
0100
,
0001
0000
0010
0001
0100
0010
1000
0000
,
0100
1000
0001
0000
0010
0001
0100
1000
,
1010
0101
0011
1100
,
0001
0010
1000
0010
0100
0000
1000
0010
,
0001
0000
1000
0001
1000
0100
0010
0000
,
0001
0100
0010
1000
0010
0000
1000
0100
,
0001
0000
0101
0000
1001
0000
1100
1000
,
1000
0010
0100
0001
0001
1000
0100
0010
,
0000
0011
0000
1100
0000
0101
0000
0010
,
0010
1000
0001
0100
0100
0001
0010
1000
,
0000
0100
0100
0010
0001
0001
0001
1000
,
1000
0010
0100
0001
0001
1000
0010
0100
,
0000
1010
0000
0011
0000
1100
0000
0100
,
0100
1000
0001
0010
0010
0100
1000
0001
,
0000
0100
0001
0010
0001
1000
0100
0000
,
1001
0000
1000
0010
0100
0001
0010
0000
,
0002
0000
1000
2000
0000
0000
3003
0000
,
0000
0000
0010
1000
0010
1000
0100
0010
,
0002
2003
3200
0300
,
2000
3002
0023
0030
,
0001
0100
1000
0100
0010
0000
1000
0001
,
0010
0000
0001
0100
0010
1000
0001
0000
,
0010
0001
1000
0000
1000
0010
0100
0001
,
0011
1100
1010
0101
,
1000
0010
0001
0010
0100
0000
0001
1000
,
0100
0000
1000
0010
1000
0001
0100
0000
,
0001
0010
0100
0000
0010
0001
0100
1000
,
0001
1010
0110
0101
,
1000
0010
0100
0010
0001
0010
1000
0100
,
0001
0010
0100
1000
0010
1000
0100
0010
,
0001
0100
0010
0100
0001
0010
1000
0010
,
0100
0010
0001
0100
1000
0001
1000
0000
,
0010
1000
0100
0010
0001
0100
0001
1000
,
0100
0001
0100
0010
0100
1000
0010
0100
,
0001
0010
0001
1000
0100
0010
0001
0100
,
0001
0010
1000
0010
0100
0100
0100
0000
;
