#TITLE:HONEY♂PUNCH;
#SUBTITLE:;
#ARTIST:小坂りゆ;
#TITLETRANSLIT:;
#SUBTITLETRANSLIT:;
#ARTISTTRANSLIT:RIYU KOSAKA;
#GENRE:;
#CREDIT:;
#BANNER:HONEY PUNCH.png;
#BACKGROUND:HONEY PUNCH-bg.png;
#LYRICSPATH:;
#CDTITLE:;
#MUSIC:HONEY PUNCH.ogg;
#OFFSET:0.000000;
#SAMPLESTART:33.430000;
#SAMPLELENGTH:20.000000;
#SELECTABLE:YES;
#DISPLAYBPM:175.000000;
#BPMS:0.000000=173.000000
,4.000000=175.000000
;
#STOPS:
;
#BGCHANGES:;
#KEYSOUNDS:;
#ATTACKS:;

//---------------dance-single - ----------------
#NOTES:
     dance-single:
     :
     Beginner:
     3:
     0.189638,0.227398,0.065438,0.000000,0.000000,142.000000,135.000000,7.000000,0.000000,0.000000,0.000000,0.189638,0.227398,0.065438,0.000000,0.000000,142.000000,135.000000,7.000000,0.000000,0.000000,0.000000:
0000
0000
0000
0000
,
0000
0000
0000
0000
,
0000
0000
0000
0000
,
0000
0000
0000
0000
,
0000
0000
0000
0000
,
1000
0000
0010
0000
,
0100
0000
0001
0000
,
1000
0000
0100
0000
,
0001
0000
1000
0000
,
0001
0000
0010
0000
,
1000
0000
0100
0000
,
0001
0000
1000
0000
,
0010
0000
0100
0000
,
0001
0000
0010
0000
,
0001
0000
1000
0000
,
0100
0000
1000
0000
,
0001
0000
0010
0000
,
0000
0001
0001
0000
,
0010
0010
0010
0000
,
0000
1000
1000
0000
,
0010
0010
0010
0000
,
0000
0100
0100
0000
,
0001
0001
0001
0000
,
0010
0000
1000
0000
,
0010
0000
0100
0000
,
1001
0000
0100
0000
,
1001
0000
0010
0000
,
0001
0000
0100
0000
,
0001
0000
0010
0000
,
1000
1000
1000
0000
,
0001
0001
0001
0000
,
0010
0000
1000
0000
,
0001
0000
0100
0000
,
1001
0000
0100
0000
,
1001
0000
0010
0000
,
0001
0000
1000
0000
,
0100
0000
0010
0000
,
0001
0001
0001
0000
,
1000
1000
1000
0000
,
0010
0000
1000
0000
,
0001
0000
0001
0000
,
1000
0000
0000
0000
,
0010
0000
0000
0000
,
0100
0000
0000
0000
,
0001
0000
0000
0000
,
1000
0000
0100
0000
,
0001
0000
0100
0000
,
0010
0000
1000
0000
,
0001
0000
1001
0000
,
1000
0000
0001
0000
,
1000
1000
0000
0000
,
0010
0000
1000
0000
,
0001
0001
0000
0000
,
1000
0000
0010
0000
,
0001
0001
0000
0000
,
1000
0000
0100
0000
,
0001
0000
0001
0000
,
1001
0000
0010
0000
,
1001
0000
0100
0000
,
0001
0000
1000
0000
,
0100
0000
0010
0000
,
0001
0001
0001
0000
,
1000
1000
1000
0000
,
0010
0000
1000
0000
,
0001
0000
0001
0000
,
1000
1000
0000
0000
,
0001
0000
0010
0000
,
0001
0001
0000
0000
,
0010
0000
1000
0000
,
0001
0000
1000
0000
,
0000
0000
0000
0000
;

//---------------dance-single - ----------------
#NOTES:
     dance-single:
     :
     Easy:
     4:
     0.200321,0.259884,0.065438,0.056090,0.000000,150.000000,143.000000,7.000000,6.000000,0.000000,0.000000,0.200321,0.259884,0.065438,0.056090,0.000000,150.000000,143.000000,7.000000,6.000000,0.000000,0.000000:
0000
0000
0000
0000
,
0000
0000
0000
0000
,
0000
0000
0000
0000
,
0000
0000
0000
0000
,
0000
0000
0000
0000
,
1000
0000
0010
0000
,
0100
0000
0001
0000
,
1000
0000
0100
0000
,
0001
0000
1000
0000
,
0001
0000
0010
0000
,
1000
0000
0100
0000
,
0001
0000
1000
0000
,
0010
0000
0100
0000
,
0001
0000
0010
0000
,
0001
0000
1000
0000
,
0100
0000
1000
0000
,
0001
0000
0010
0000
,
0000
0001
0001
0000
,
0010
0010
0010
0000
,
0000
1000
1000
0000
,
0010
0010
0010
0000
,
0000
0100
0100
0000
,
0001
0001
0001
0000
,
0010
0000
1000
0000
,
0010
0000
0100
0000
,
1001
0000
0100
0000
,
1001
0000
0010
0000
,
0001
0000
0100
0000
,
0001
0000
0010
0000
,
1000
1000
1000
0000
,
0001
0001
0001
0000
,
0010
0000
1000
0000
,
0001
0000
0100
0000
,
1001
0000
0100
0000
,
1001
0000
0010
0000
,
0001
0000
1000
0000
,
0100
0000
0010
0000
,
0001
0001
0001
0000
,
1000
1000
1000
0000
,
0010
0000
1000
0000
,
0001
1000
0001
0000
,
2000
0000
0000
3000
,
0020
0000
0000
0030
,
0200
0000
0000
0300
,
0002
0000
0000
0003
,
1000
0000
0100
0000
,
0001
0000
0100
0000
,
0010
0000
1000
0000
,
0001
0000
1001
0000
,
2000
3000
0002
0003
,
1000
1000
0100
0000
,
0010
0000
1000
0000
,
0001
0001
0010
0000
,
1000
0000
0010
0000
,
0001
0001
0100
0000
,
1000
0000
0100
0000
,
0001
1000
0001
0000
,
1001
0000
0010
0000
,
1001
0000
0100
0000
,
0001
0000
1000
0000
,
0100
0000
0010
0000
,
0001
0001
0001
0000
,
1000
1000
1000
0000
,
0010
0000
1000
0000
,
0001
1000
0001
0000
,
1000
1000
0100
0000
,
0001
0000
0010
0000
,
0001
0001
0100
0000
,
0010
0000
1000
0000
,
0001
0000
1000
0000
,
0000
0000
0000
0000
;

//---------------dance-single - ----------------
#NOTES:
     dance-single:
     :
     Medium:
     8:
     0.376604,0.455614,0.364585,0.149573,0.000000,282.000000,243.000000,39.000000,16.000000,0.000000,0.000000,0.376604,0.455614,0.364585,0.149573,0.000000,282.000000,243.000000,39.000000,16.000000,0.000000,0.000000:
0000
0000
0000
0000
,
0000
0000
0000
0000
,
0000
0000
0000
0000
,
0000
0000
0000
0000
,
0000
0000
0000
0000
,
0010
1000
0100
0001
,
0110
1001
0110
1001
,
0100
0001
0010
1000
,
0001
0101
1000
1100
,
0001
0100
0010
0001
,
1000
0010
0100
1000
,
0001
0010
1000
0001
,
0100
0010
0100
1001
,
0010
1000
0001
0100
,
0010
0001
1000
0010
,
0001
0100
1000
0100
,
0001
0100
0010
1001
,
0010
0001
1000
0000
,
0010
0100
0001
1000
,
0010
1000
0001
0000
,
1000
0100
0010
1001
,
0100
0001
0010
0000
,
1000
0100
0010
1000
,
0010
0001
1000
0001
,
0010
0100
1001
0000
,
0110
1000
0001
0010
,
1001
0100
1000
0010
,
0001
1000
0100
0010
,
0001
0010
1000
0001
,
0100
1000
0001
0100
,
0010
0100
1000
0100
,
0010
1100
0010
0101
,
0010
1000
0001
0110
,
1001
0010
0100
1000
,
0110
0001
0100
1000
,
0001
0010
1000
0001
,
0100
0010
0100
1000
,
0001
1000
0100
0010
,
0100
0001
0010
1000
,
0001
0101
1000
1100
,
0001
1000
0110
0000
,
2000
0000
3200
0000
,
0320
0000
0032
0000
,
0203
0000
0320
0000
,
2030
0000
3002
0000
,
1003
0100
0022
0033
,
0100
0001
2020
3030
,
0100
0010
0001
0100
,
1000
0100
0010
1001
,
2200
3300
0202
0303
,
1000
0100
0010
0001
,
0010
0100
0010
1000
,
0001
0100
0010
1001
,
0010
1000
0001
0100
,
0010
0100
0001
1000
,
0100
0010
1000
0010
,
0001
1000
0010
0110
,
1001
0100
0001
1000
,
0110
0001
0100
1000
,
0001
0010
1000
0001
,
0100
0010
0100
1000
,
0001
0100
0010
0001
,
0010
0100
0001
1000
,
0010
0101
0010
1100
,
0001
0100
0010
1001
,
0100
1000
0100
0001
,
0110
1001
0110
1001
,
0010
0100
1000
0100
,
0010
0101
0010
1100
,
0001
0000
0110
0000
1000
0001
0000
0000
,
0000
0000
0000
0000
;

//---------------dance-single - ----------------
#NOTES:
     dance-single:
     :
     Hard:
     10:
     0.516829,0.553246,0.486113,0.112180,0.000000,387.000000,335.000000,52.000000,12.000000,0.000000,0.000000,0.516829,0.553246,0.486113,0.112180,0.000000,387.000000,335.000000,52.000000,12.000000,0.000000,0.000000:
0000
0000
0000
0000
,
0000
0000
0000
0000
,
0000
0000
0000
0000
,
0000
0000
0000
0000
,
0000
0000
0000
0000
,
0010
1000
0100
0000
0010
0001
0100
0000
,
1010
0101
0011
1100
,
0001
1000
0010
0000
0100
0001
0010
0001
,
0000
1000
0010
1000
0000
0100
0010
0100
,
1000
0000
0010
0000
0100
0001
0010
0000
,
0001
0000
0100
0000
0010
0100
0001
0000
,
1000
0100
1000
0000
0001
0100
0001
0000
,
0010
0100
0010
0000
0001
0000
1100
0000
,
0010
0000
0001
0000
1000
0001
0010
0000
,
0100
0000
1000
0000
0010
1000
0100
0000
,
1000
0010
1000
0000
0001
0010
0001
0000
,
0100
0010
0100
0000
0010
0000
1001
0000
,
0100
0000
1010
0000
0011
0000
0000
0100
,
0000
1000
0010
0000
1000
0000
0001
0010
,
0100
0000
0101
0000
1100
0000
0000
0010
,
0000
0001
0100
0000
1010
0000
0101
0000
,
0010
0000
1001
0000
0110
0000
0000
0001
,
0000
0100
0010
0000
0100
0000
0001
1000
,
0100
0000
0010
0000
0001
0100
1000
0000
,
0100
0001
0010
0100
0000
1000
0100
0000
,
1001
0000
0010
1000
0000
0001
0100
0000
,
1100
0000
0010
0100
0000
1000
0010
0000
,
1000
0000
0100
0000
0010
0001
0100
0000
,
0010
0000
0100
0001
0000
1000
0100
0000
,
0010
0000
0001
1000
0000
0010
1000
0000
,
0100
0000
0010
0001
0000
0100
0001
0000
,
1100
0011
1010
0101
,
1000
0100
0010
0100
1000
0000
0110
0000
,
1001
0000
0100
0001
0000
0010
0001
0000
,
0110
0000
1000
0010
0000
0100
0001
0000
,
1000
0000
0100
0000
0001
0100
1000
0000
,
0010
0000
0100
0001
0000
0010
0001
0000
,
1000
0000
0010
0100
0000
0010
1000
0000
,
0100
0000
0010
0100
0000
1000
0001
0000
,
0110
1001
0011
1100
,
0010
0001
0100
0010
0100
0000
1001
0000
,
0100
1000
0200
0000
1300
0010
2000
0000
,
3001
0010
0002
0000
0103
0010
0200
0000
,
0310
1000
0020
0000
0130
0001
0200
0000
,
0301
0010
0002
0000
1003
0100
2000
0000
,
3010
0100
0010
0000
2200
0000
3300
0000
,
0100
0010
0100
0000
0202
0000
0303
0000
,
0010
1000
0100
0000
0010
0001
0100
0000
,
0001
1000
0010
1000
0001
0000
0110
0000
,
1001
0000
0000
0010
1000
0000
0000
0011
,
0000
1010
0000
1100
0000
1000
0010
0000
,
0100
0001
0010
0000
0100
1000
0001
1000
,
0000
0110
0000
0101
0000
0001
0010
0000
,
0100
1000
0001
0000
0010
0001
0100
0001
,
0000
1100
0000
0011
0000
0100
0001
0000
,
0010
0001
0100
0000
0001
1000
0100
1000
,
0000
0001
0100
0010
0000
0100
0101
0000
,
1100
0000
0010
0001
0000
1000
0001
0000
,
0110
0000
1000
0010
0000
0100
0001
0000
,
1000
0000
0100
0000
0001
0100
1000
0000
,
0010
0000
0100
0001
0000
0010
0001
0000
,
1000
0000
0010
0100
0000
0010
1000
0000
,
0100
0000
0010
0100
0000
1000
0001
0000
,
0110
1001
0011
1100
,
0010
0100
0001
0100
0010
0000
1001
0000
,
0010
1000
0001
0000
0010
0001
1000
0000
,
0101
1100
1010
0011
,
1000
0010
0100
0000
0001
0010
0100
1000
,
0000
0010
1000
0010
0000
0100
0001
0100
,
0000
0010
0100
0010
0000
1001
0000
0000
,
0000
0000
0000
0000
;

//---------------dance-double - ----------------
#NOTES:
     dance-double:
     :
     Easy:
     4:
     0.170941,0.227398,0.084135,0.102832,0.000000,128.000000,119.000000,9.000000,11.000000,0.000000,0.000000,0.170941,0.227398,0.084135,0.102832,0.000000,128.000000,119.000000,9.000000,11.000000,0.000000,0.000000:
00000000
00000000
00000000
00000000
,
00000000
00000000
00000000
00000000
,
00000000
00000000
00000000
00000000
,
00000000
00000000
00000000
00000000
,
00000000
00000000
00000000
00000000
,
01000000
00000000
01000000
00000000
,
00010000
00000000
00010000
00000000
,
00001000
00000000
00001000
00000000
,
00000100
00000000
00000100
00000000
,
00000001
00000000
00000100
00000000
,
00001000
00000000
00010000
00000000
,
01000000
00000000
10000000
00000000
,
00100000
00000000
00010000
00000000
,
10000000
00000000
01000000
00000000
,
00010000
00000000
00001000
00000000
,
00000010
00000000
00000001
00000000
,
00000100
00000000
00001000
00000000
,
00000002
00000000
00000003
00000000
,
00000200
00000000
00000300
00000000
,
00002000
00000000
00003000
00000000
,
00020000
00000000
00030000
00000000
,
00100000
00000000
00100000
00000000
,
00010000
00000000
00010000
00000000
,
00001000
00000000
00001000
00000000
,
00000200
00000000
00000000
00000300
,
00001001
00000000
00000010
00000000
,
00001001
00000000
00000100
00000000
,
00000001
00000000
00000100
00000000
,
00010000
00000000
01000000
00000000
,
10000000
00000000
00100000
00000000
,
00010000
00000000
00001000
00000000
,
00000100
00000000
00000010
00000000
,
00000001
00000000
00001000
00000000
,
00011000
00000000
01000000
00000000
,
10010000
00000000
01000000
00000000
,
10000000
00000000
00010000
00000000
,
00100000
00000000
00100000
00000000
,
00010000
00000000
00010000
00000000
,
00001000
00000000
00001000
00000000
,
00000100
00000000
00001000
00000000
,
00000001
00000000
00001001
00000000
,
00000002
00000000
00000003
00000000
,
00000200
00000000
00000300
00000000
,
00002000
00000000
00003000
00000000
,
00020000
00000000
00030000
00000000
,
02000000
00000000
03000000
00000000
,
20000000
00000000
30000000
00000000
,
10000000
00000000
01000000
00000000
,
00010000
00000000
00011000
00000000
,
00001000
00000000
00001000
00000000
,
00000010
00000000
00000010
00000000
,
00000001
00000000
00000001
00000000
,
00000100
00000000
00000100
00000000
,
00001000
00000000
00000100
00000000
,
00000001
00000000
00000010
00000000
,
00001000
00000000
00010000
00000000
,
01000000
00000000
10000000
00000000
,
10010000
00000000
01000000
00000000
,
10010000
00000000
00100000
00000000
,
00010000
00000000
10000000
00000000
,
01000000
00000000
00010000
00000000
,
00001000
00000000
00000100
00000000
,
00000001
00000000
00000001
00000000
,
00000100
00000000
00001000
00000000
,
00010000
00000000
00011000
00000000
,
01000000
00000000
00010000
00000000
,
01000000
00000000
10000000
00000000
,
01000000
00000000
00010000
00000000
,
00001000
00000000
00000100
00000000
,
00000001
00000000
00001000
00000000
,
00000000
00000000
00000000
00000000
;

//---------------dance-double - ----------------
#NOTES:
     dance-double:
     :
     Medium:
     7:
     0.337875,0.390526,0.224360,0.056090,0.000000,253.000000,229.000000,24.000000,6.000000,0.000000,0.000000,0.337875,0.390526,0.224360,0.056090,0.000000,253.000000,229.000000,24.000000,6.000000,0.000000,0.000000:
00000000
00000000
00000000
00000000
,
00000000
00000000
00000000
00000000
,
00000000
00000000
00000000
00000000
,
00000000
00000000
00000000
00000000
,
00000000
00000000
00000000
00000000
,
00000001
00000100
00001000
00010000
,
00100000
00011000
00000010
00011000
,
01000000
10000000
00100000
00010000
,
00001000
00011000
00010000
00011000
,
00001000
00000100
00000010
00001000
,
00000001
00000010
00000100
00000001
,
00001000
00000010
00000001
00001000
,
00000100
00000010
00001000
00000000
,
00010000
01000000
10000000
01000000
,
00100000
10000000
00010000
00100000
,
10000000
01000000
00010000
01000000
,
10000000
01000000
00100000
00000000
,
10000000
00100000
00010000
00000000
,
00001000
00000010
00000001
00000100
,
00000010
00000001
00001000
00000000
,
00000001
00000100
00000010
00001000
,
00000100
00001000
00000010
00000000
,
00000001
00000100
00001000
00010000
,
00100000
10000000
00010000
00100000
,
00010000
01000000
10010000
00000000
,
00100000
00010000
10000000
00100000
,
00010000
01000000
00010000
00100000
,
10000000
00010000
01000000
00100000
,
10000000
01000000
00010000
00001000
,
00000100
00000001
00001000
00000000
,
00000010
00000100
00000001
00000000
,
00000010
00001001
00000100
00001001
,
00000010
00000100
00001001
00000000
,
00000100
00000010
00001000
00000001
,
00000010
00001000
00010000
01000000
,
10000000
00100000
00010000
10000000
,
01000000
00100000
01000000
00010000
,
10000000
01000000
00100000
00000000
,
01000000
00010000
00001000
00000000
,
00000100
00011000
00100000
00011000
,
00001000
00010000
00011000
00000000
,
00001000
00000000
00000100
00000000
,
00000001
00000000
00000010
00000000
,
00001000
00000000
00010000
00000000
,
00022000
00000000
00000000
00033000
,
00100000
10000000
01000000
00000000
,
00100000
00010000
01000000
00000000
,
10000000
01000000
00010000
00001000
,
00000010
00000001
00000100
00001001
,
00000202
00000303
00002200
00003300
,
00000001
00000100
00000010
00001000
,
00000010
00000100
00000010
00000000
,
00001000
00000100
00000010
00000001
,
00000100
00001000
00010000
00000000
,
00100000
01000000
10000000
00010000
,
01000000
00100000
00010000
00100000
,
10000000
00010000
01100000
00000000
,
10000000
00100000
00010000
00001000
,
00000010
00001000
00010000
00001000
,
00000100
00000010
00000001
00001000
,
00000100
00000010
00000100
00000001
,
00001000
00000100
00000010
00000000
,
00000001
00000100
00000010
00000000
,
00001000
00011000
00010000
00011000
,
01000000
00100000
10010000
00000000
,
01000000
00010000
01000000
10000000
,
00100000
10010000
01000000
10010000
,
10000000
01000000
00010000
00001000
,
00000010
00011000
01000000
00011000
,
00000100
00000000
00011000
00000000
00010000
00001000
00000000
00000000
,
00000000
00000000
00000000
00000000
;

//---------------dance-double - ----------------
#NOTES:
     dance-double:
     :
     Hard:
     10:
     0.510152,0.553246,0.588945,0.037393,0.000000,382.000000,319.000000,63.000000,4.000000,0.000000,0.000000,0.510152,0.553246,0.588945,0.037393,0.000000,382.000000,319.000000,63.000000,4.000000,0.000000,0.000000:
00000000
00000000
00000000
00000000
,
00000000
00000000
00000000
00000000
,
00000000
00000000
00000000
00000000
,
00000000
00000000
00000000
00000000
,
00000000
00000000
00000000
00000000
,
00100000
00000000
00010000
00000000
01000000
10000000
00100000
00000000
,
01010000
00011000
00001010
00011000
,
00000100
00000000
00000001
00000000
00000010
00000100
00001000
00000100
,
00000000
00010000
00000010
00010000
00000000
00001000
00000100
00000010
,
00000100
00000000
00000010
00001000
00000000
00000001
00000100
00000001
,
00000000
00000010
00000100
00000010
00000000
00001000
00010000
00000000
,
01000000
00000000
10000000
00010000
00000000
01000000
00100000
01000000
,
00000000
00100000
10000000
00100000
00000000
00010000
00100000
00000000
,
01000000
00000000
10000000
00100000
00000000
00010000
00001000
00010000
,
00000000
00001000
00000010
00001000
00000000
00010000
00001000
00000000
,
00000100
00000000
00000010
00000100
00000000
00000001
00001000
00000001
,
00000000
00001000
00000010
00001000
00000000
00000100
00000010
00000000
,
00000001
00000000
00001100
00000000
00011000
00000000
00000000
00100000
,
00000000
00010000
01000000
00000000
00010000
00000000
10000000
01000000
,
00100000
00000000
10100000
00000000
00110000
00000000
00000000
01000000
,
00000000
10000000
00100000
00000000
01010000
00000000
11000000
00000000
,
00100000
00000000
01010000
00000000
00011000
00000000
00000000
00000010
,
00000000
00000001
00001000
00000000
00000100
00000000
00000010
00000100
,
00001000
00000000
00000010
00000000
00001000
00000001
00000100
00000000
,
00001000
00010000
00001000
01000000
00000000
00010000
00100000
00000000
,
10010000
00000000
01000000
10000000
00000000
00100000
10000000
00000000
,
01010000
00000000
00100000
01000000
00000000
00010000
00100000
00000000
,
01000000
00000000
10000000
00000000
00100000
10000000
01000000
00000000
,
00010000
00000000
00001000
00010000
00000000
00000010
00001000
00000000
,
00000001
00000000
00000100
00000010
00000000
00000100
00000001
00000000
,
00000010
00000000
00000100
00001000
00000000
00000100
00000010
00000000
,
00001001
00000110
00001010
00011000
,
00110000
00011000
01010000
01000000
,
10010000
00000000
00100000
10000000
00000000
01000000
10000000
00000000
,
01100000
00000000
00010000
01000000
00000000
00100000
10000000
00000000
,
01000000
00000000
00010000
00000000
00001000
00010000
00000100
00000000
,
00000010
00000000
00000100
00001000
00000000
00000010
00000100
00000000
,
00000001
00000000
00001000
00000100
00000000
00000010
00000100
00000000
,
00001000
00000000
00010000
01000000
00000000
00010000
00100000
00000000
,
11000000
01010000
00011000
00001010
,
00000110
00011000
00110000
11000000
,
00010000
00000000
10000000
00000000
00100000
01000000
00010000
00000000
,
10000000
00000000
01000000
00000000
00010000
00001000
00010000
00000000
,
00001000
00000000
00000100
00000000
00000001
00000010
00000100
00000000
,
00001000
00000000
00000010
00000000
00001000
00000001
00000100
00000000
,
00001000
00010000
00100000
00000000
20020000
00000000
30030000
00000000
,
01000000
00010000
00100000
00000000
22000000
00000000
33000000
00000000
,
00110000
11000000
10100000
01010000
,
00100000
00000000
10000000
01000000
00010000
00000000
00011000
00000000
,
00001100
00000000
00000000
00000001
00000100
00000000
00000000
00001010
,
00000000
00000011
00000000
00000101
00000000
00001000
00010000
01000000
,
00000000
00100000
00010000
01000000
00000000
10000000
01000000
00010000
,
00000000
11000000
00000000
00110000
00000000
10000000
01000000
00100000
,
00000000
00010000
10000000
01000000
00000000
10000000
00100000
00010000
,
00000000
00011000
00000000
00001100
00000000
00000001
00000100
00000010
,
00000000
00001000
00000100
00000010
00000000
00001000
00010000
00001000
,
00000000
00010100
00000000
00011000
00000000
00100000
10000000
00000000
,
01010000
00000000
00100000
00010000
00000000
10000000
00010000
00000000
,
01100000
00000000
10000000
01000000
00000000
00010000
00001000
00000000
,
00010000
00000000
00100000
00000000
00010000
00001000
00000010
00000000
,
00000100
00000000
00000010
00000001
00000000
00000100
00000001
00000000
,
00001000
00000000
00000100
00000010
00000000
00000100
00010000
00000000
,
00000010
00000000
00001000
00000100
00000000
00000010
00000001
00000000
,
00001010
00000101
00000011
00001100
,
00011000
00101000
00011000
00010100
,
00001000
00000000
00010000
00000000
00100000
10000000
01000000
00000000
,
10100000
00110000
01010000
11000000
,
00100000
00000000
00010000
00000000
00001000
00000100
00000001
00000010
,
00000000
00000100
00001000
00000100
00000000
00000010
00000001
00000010
,
00000000
00001000
00010000
00001000
00000000
00011000
00000000
00000000
,
00000000
00000000
00000000
00000000
;

//---------------dance-single - ----------------
#NOTES:
     dance-single:
     :
     Challenge:
     13:
     0.670409,0.647839,0.691776,0.140225,0.000000,502.000000,428.000000,74.000000,15.000000,0.000000,0.000000,0.670409,0.647839,0.691776,0.140225,0.000000,502.000000,428.000000,74.000000,15.000000,0.000000,0.000000:
// measure 0
0000
0000
0000
0000
,  // measure 1
0000
0000
0000
0000
,  // measure 2
0000
0000
0000
0000
,  // measure 3
0000
0000
0000
0000
,  // measure 4
0000
0000
0000
0000
,  // measure 5
0001
0010
1000
0010
0001
0100
0010
1000
,  // measure 6
1100
0101
0011
1010
,  // measure 7
1000
0100
0001
0100
1000
0010
0100
0001
,  // measure 8
0000
0110
1000
0001
0000
1001
0010
0100
,  // measure 9
0001
0010
0100
1000
0010
0100
0001
1000
,  // measure 10
0000
1100
0000
0011
0000
1000
1000
0001
,  // measure 11
0010
0100
0010
0001
0100
0010
1000
0001
,  // measure 12
0000
0101
0000
1010
0000
0010
0010
0100
,  // measure 13
1000
0001
1000
0010
0100
0001
0010
0100
,  // measure 14
0000
1100
0000
1010
0000
0100
0100
1000
,  // measure 15
0010
1000
0100
0010
0001
0100
0001
1000
,  // measure 16
0000
0011
0000
0101
0000
0001
0001
1000
,  // measure 17
0010
0000
1010
0000
1010
0001
1000
1200
,  // measure 18
0000
1000
1300
0001
0100
1000
0100
0010
,  // measure 19
1000
0000
0101
0000
0101
0001
0001
0021
,  // measure 20
0000
0100
0130
0010
1000
0010
0001
0000
,  // measure 21
0010
0000
0110
0000
0110
0001
1000
1002
,  // measure 22
0000
1000
1003
0001
0010
1000
0010
0100
,  // measure 23
1000
0000
0001
0100
0010
0001
0010
1000
,  // measure 24
0000
0010
0010
1000
0001
0100
0010
1000
,  // measure 25
1001
0000
0100
0010
1000
0100
0010
0001
,  // measure 26
0011
0000
1000
0001
1000
0010
0100
0001
,  // measure 27
1010
0000
0100
0010
1000
0100
0010
0001
,  // measure 28
1000
0010
0100
0102
0000
1003
1100
0000
,  // measure 29
0110
0000
0001
0100
0010
1000
0100
0010
,  // measure 30
0011
0000
1000
0001
1000
0010
0100
0001
,  // measure 31
0101
0000
0010
0100
0001
1000
0100
1000
,  // measure 32
1010
0011
1100
0101
,  // measure 33
1001
0000
0010
1000
0100
0001
0100
0010
,  // measure 34
0110
0000
1000
0010
0001
0010
1000
0100
,  // measure 35
1100
0000
0001
0100
0010
0001
0010
1000
,  // measure 36
0100
0010
0001
0021
0000
0130
0110
0000
,  // measure 37
1001
0000
0010
1000
0100
0001
0100
1000
,  // measure 38
1010
0000
0001
1000
0100
0001
0100
0010
,  // measure 39
0011
0000
0100
0010
1000
0001
0010
0100
,  // measure 40
1100
0110
0011
0101
,  // measure 41
1002
0000
0023
0000
0130
1000
0001
0100
,  // measure 42
0020
0000
2030
0000
3100
0001
0100
1000
,  // measure 43
0020
0000
0130
0002
1000
1003
0100
0000
,  // measure 44
0110
0000
0001
1200
0000
1000
1300
0010
,  // measure 45
0100
0001
0010
1000
0010
0100
0010
1000
,  // measure 46
0010
0001
0100
1000
0100
0010
1000
0000
,  // measure 47
0001
1000
0100
0001
0100
0010
0100
0001
,  // measure 48
0100
1000
0010
0100
0010
0001
0010
0000
,  // measure 49
0110
0001
1000
0100
0010
0001
0100
0101
,  // measure 50
0000
0011
0000
1100
0000
0010
0100
0001
,  // measure 51
1000
0100
0001
0100
0010
0100
1000
0001
,  // measure 52
0000
1010
0000
1001
0000
0100
0010
1000
,  // measure 53
0100
0001
0100
0010
0001
0100
0010
1000
,  // measure 54
0000
1001
0000
0011
0000
1000
0001
0100
,  // measure 55
0010
0100
0010
1000
0100
0001
0100
1000
,  // measure 56
0000
0010
0100
0001
1000
0100
0010
0001
,  // measure 57
0101
0000
1000
0001
0100
1000
0100
0001
,  // measure 58
0011
0000
0100
0001
0010
1000
0010
0100
,  // measure 59
1100
0000
1000
0001
0010
0001
0100
0010
,  // measure 60
1000
0100
0001
2001
0000
3010
1010
0000
,  // measure 61
1100
0000
0010
0100
0010
1000
0100
0001
,  // measure 62
0101
0000
0010
0100
0001
0010
0100
1000
,  // measure 63
0110
0000
0001
1000
0010
1000
0100
0010
,  // measure 64
0011
1100
1010
0101
,  // measure 65
0010
0001
0010
1000
0100
0010
0001
0100
,  // measure 66
0010
0001
0010
1000
0100
0001
0100
1000
,  // measure 67
0010
0100
0010
1000
0100
0001
0100
0010
,  // measure 68
0000
0011
0001
0100
0000
1010
1000
0001
,  // measure 69
0000
1100
0100
0010
0000
0220
0000
0000
,  // measure 70
0000
0000
0000
0000
,  // measure 71
0000
0000
0000
0000
,  // measure 72
0000
0000
0000
0000
,  // measure 73
0000
0000
0000
0000
,  // measure 74
0000
0000
0000
0000
,  // measure 75
0000
0000
0000
0000
,  // measure 76
0000
0000
0000
0000
,  // measure 77
0330
0000
0000
0000
;
