#TITLE:HOLD ON ME;
#ARTIST:tiger yamato;
#BANNER:HOLD ON ME.png;
#BACKGROUND:HOLD ON ME-bg.png;
#JACKET:HOLD ON ME-jacket.png;
#MUSIC:HOLD ON ME.ogg;
#SAMPLESTART:63.134;
#SAMPLELENGTH:20;
#DISPLAYBPM:152;
#BPMS:0=152;
#BGCHANGES:;

//---------------dance-single - ----------------
#NOTES:
     dance-single:
     :
     Beginner:
     2:
     :
0000
0000
0000
0000
,
0000
0000
0000
0000
,
0000
0000
0000
0000
,
0000
0000
0000
0000
,
0000
0000
0000
0000
,
0010
0000
0010
0000
,
0100
0000
0000
0000
,
0001
0000
0001
0000
,
1000
0000
1000
0000
,
0001
0000
1000
0000
,
0001
0000
1001
0000
,
1000
0000
1000
0000
,
0001
0000
0001
0000
,
1000
0000
0001
0000
,
1000
0000
1001
0000
,
0001
0000
0010
0000
,
0001
0000
0010
0000
,
1000
0000
0010
0000
,
1000
0000
0010
0000
,
0001
0000
0100
0000
,
0001
0000
0100
0000
,
1000
0000
0100
0000
,
1000
0000
0100
0000
,
0001
0000
0001
0000
,
0010
0000
0010
0000
,
1000
0000
1000
0000
,
0010
0000
0010
0000
,
0001
0000
0001
0000
,
1000
0000
1000
0000
,
0010
0000
0100
0000
,
0001
0000
0001
0000
,
0001
0000
1000
0000
,
1000
0000
1000
0000
,
1000
0000
0001
0000
,
0001
0000
0001
0000
,
1000
0000
1000
0000
,
0001
0000
0000
0000
,
1000
0000
0000
0000
,
0010
0000
0000
0000
,
0100
0000
0000
0000
,
0001
0000
1000
0000
,
0001
0000
0001
0000
,
1000
0000
0001
0000
,
1000
0000
1000
0000
,
0001
0000
0010
0000
,
1000
0000
0010
0000
,
0100
0000
0100
0000
,
0010
0000
0010
0000
,
0001
0000
1000
0000
,
0001
0000
1000
0000
,
1000
0000
0001
0000
,
1000
0000
0001
0000
,
1000
0000
0100
0000
,
0001
0000
0100
0000
,
0010
0000
0010
0000
,
0100
0000
0100
0000
,
0100
0000
0000
0000
,
1001
0000
0000
0000
,
0001
0000
0001
0000
,
1000
0000
1000
0000
,
0010
0000
0100
0000
,
0010
0000
1001
0000
,
0000
0000
0000
0000
;

//---------------dance-single - ----------------
#NOTES:
     dance-single:
     :
     Easy:
     4:
     :
0000
0000
0000
0000
,
0000
0000
0000
0000
,
0000
0000
0000
0000
,
0000
0000
0000
0000
,
0000
0000
0000
0000
,
0010
0000
0010
0000
,
0100
0000
0000
0000
,
0001
0000
0001
0000
,
1000
0000
1000
0000
,
0001
0000
1000
0000
,
0001
0000
1001
0000
,
1000
0000
1000
0000
,
0001
0000
0001
0000
,
1000
0000
0001
0000
,
1000
0000
1001
0000
,
0001
0000
0010
0000
,
0001
0000
0010
0000
,
1000
0000
0010
0000
,
1000
0000
0010
0000
,
0001
0000
0100
0000
,
0001
0000
0100
0000
,
1000
0000
0100
0000
,
1000
0000
0100
0000
,
0001
1000
0001
0000
,
0010
0000
0010
0000
,
1000
0001
1000
0000
,
0010
0000
0010
0000
,
0001
1000
0001
0000
,
1000
0001
1000
0000
,
0010
0000
0100
0000
,
0001
0100
0001
0000
,
0001
0000
1000
0000
,
1000
0100
1000
0000
,
1000
0000
0001
0000
,
0001
0010
0001
0000
,
1000
0010
1000
0000
,
0002
0003
0000
0000
,
2000
3000
0000
0000
,
0020
0030
0000
0000
,
0100
0010
0000
0000
,
0001
0100
1000
0000
,
0001
0000
0001
0000
,
1000
0100
0001
0000
,
1000
0000
1000
0000
,
0001
1000
0010
0000
,
1000
0001
0010
0000
,
0100
0000
0100
0000
,
0010
0000
0010
0000
,
0001
0010
1000
0000
,
0001
0000
1000
0000
,
1000
0010
0001
0000
,
1000
0000
0001
0000
,
1000
0001
0100
0000
,
0001
1000
0100
0000
,
0010
0000
0010
0000
,
0100
0000
0100
0000
,
0200
0300
0000
0000
,
1001
0000
0000
0000
,
0001
0000
0001
0000
,
1000
0000
1000
0000
,
0010
0000
0100
0000
,
0010
0000
1001
0000
,
0000
0000
0000
0000
;

//---------------dance-single - ----------------
#NOTES:
     dance-single:
     :
     Medium:
     7:
     :
0000
0000
0000
0000
,
0000
0000
0000
0000
,
0000
0000
0000
0000
,
0000
0000
0000
0000
,
0000
0000
0000
0000
,
0010
0000
0100
0000
,
0001
0001
1000
1000
,
0001
0010
0001
0100
,
1000
0001
0100
0000
1001
0000
0000
0000
,
0100
0001
0010
1000
,
1001
0100
1001
0000
,
1000
0100
1000
0010
,
0001
1000
0010
0000
1001
0000
0000
0000
,
0100
1000
0010
0001
,
1000
0001
1000
0001
0000
0000
0000
0000
,
0001
0100
1000
0100
,
0001
0010
1000
1001
,
1000
0100
0001
0100
,
1000
0010
0001
1001
,
0010
0001
0100
0000
,
0010
1000
0100
0000
,
1001
0000
0110
0000
,
0010
0000
0010
0000
0100
0001
1000
0000
,
0010
1000
0100
1001
,
1000
0001
0100
0000
1001
0000
0000
0000
,
0010
0001
0100
1001
,
0001
1000
0100
0000
1001
0000
0000
0000
,
0010
1000
0100
0000
0010
0000
0000
0000
,
0010
0001
0100
0000
0010
0000
0000
0000
,
1001
0010
0110
0100
,
0010
1000
0100
1000
,
0010
1000
0010
1001
,
0010
0001
0100
0001
,
0010
0001
0010
1001
,
0100
0010
0001
1000
,
0010
0100
0001
1000
,
0002
0000
0000
0000
0000
0000
0003
0010
,
0200
0000
0000
0000
0000
0000
0300
1000
,
0020
0000
0000
0030
,
1000
0100
1000
0000
0001
0100
0001
0000
,
0001
0100
1000
0010
,
0001
1100
0001
1100
,
1000
0100
0001
0010
,
1000
0101
1000
0101
,
0010
0000
1000
0000
0001
0100
0000
0000
,
0100
0000
0001
0000
1000
0010
0000
0000
,
1000
0010
1000
0001
,
0000
1000
0001
0000
0100
0000
0100
0000
,
0001
0010
1000
0010
,
0001
0100
1000
0110
,
1000
0010
0001
0010
,
1000
0100
0001
0110
,
1000
0000
1000
0000
0010
1000
0000
0000
,
0001
0000
0001
0000
0100
0001
0000
0000
,
0010
1001
0100
1001
,
0010
0100
0010
0100
,
0002
0000
0000
0000
,
2000
0000
0000
3003
,
1000
0100
0001
0100
,
1001
0010
1001
0000
,
0100
0001
0010
1000
,
0001
0010
0100
1000
0000
0000
0000
0000
,
0000
0000
0000
0000
;

//---------------dance-single - ----------------
#NOTES:
     dance-single:
     :
     Hard:
     9:
     :
0000
0000
0000
0000
,
0000
0000
0000
0000
,
0000
0000
0000
0000
,
0000
0000
0000
0000
,
0000
0000
0000
0000
,
0010
1000
0010
0000
0100
0001
0100
0000
,
1000
0000
0001
0000
1000
0100
0001
0000
,
0100
0000
0010
0000
0110
0000
0000
1000
,
0000
0010
0100
0000
0001
0000
1000
0000
,
0001
0100
0001
0100
0010
1000
0010
0000
,
1000
0100
0010
0001
0100
0000
0101
0000
,
1000
0100
1000
0100
0010
0001
0010
0000
,
0001
1000
0100
0000
0010
0000
0100
0000
,
0010
1000
0010
0000
0100
0001
0100
0000
,
1000
0100
0010
0001
0000
0000
1001
0000
,
1000
0010
1000
0000
0001
0010
0001
0000
,
1000
0001
1000
0000
0010
0000
1001
0000
,
0001
0100
0001
0000
1000
0100
1000
0000
,
0001
1000
0001
0000
0100
0000
1001
0000
,
0001
0100
1000
0000
1000
0100
0001
0000
,
0001
0010
1000
0000
0010
0000
0110
0000
,
0001
0100
0010
1000
,
0001
0000
0200
0000
0000
0310
0000
0000
,
1000
0010
0001
0000
0010
0001
0010
0000
,
0001
0010
0100
0000
1000
0000
1001
0000
,
0001
0100
1000
0000
0010
1000
0010
0000
,
1000
0010
0100
0000
0001
0000
1001
0000
,
0001
0010
1000
0000
1000
0001
0010
0000
,
1000
0010
0001
0000
0001
1000
0100
0000
,
1010
1001
0101
1001
,
0100
0000
0010
0000
1000
0010
0100
0000
,
0010
0001
0100
0000
1000
0001
0100
0000
,
0010
0000
0010
0000
0001
0100
0010
0000
,
0100
1000
0010
0000
0001
1000
0010
0000
,
1000
0000
1000
0000
0010
1000
0100
0000
,
1000
0100
0001
0000
0100
1000
0010
0000
,
2000
0000
0000
0000
0000
0000
3000
0001
,
0200
0000
0000
0000
0000
0000
0300
0010
,
2000
0000
0000
3000
,
0100
0001
0100
1000
0100
0001
0100
0000
,
0000
0000
1000
0010
1000
0100
0001
0000
,
0000
1100
0101
1001
,
0000
0000
0001
0010
0001
0100
1000
0000
,
0000
0101
1100
1001
,
0100
0000
1000
0100
1000
0100
0010
0000
,
0001
0000
0100
0001
0100
0001
0010
0000
,
0010
0001
1000
0000
0100
0001
0010
0000
,
0000
0000
1000
0000
0001
0000
0000
0000
1000
0000
0000
0100
0000
0000
0010
0000
,
0000
0000
0001
0010
0001
0100
1000
0000
,
0000
0101
1001
0101
,
0000
0000
1000
0010
1000
0100
0001
0000
,
0000
1100
1001
1100
,
1000
0000
0010
0100
0010
0100
0010
0000
,
0100
0000
0001
1000
0001
1000
0010
0000
,
0100
0001
0100
0000
0010
1000
0001
0000
,
1000
0100
1000
0001
0100
0010
0100
0000
,
0001
1000
0010
0110
,
2002
0000
0000
3003
,
0100
0000
0010
0000
1001
0000
0000
0100
,
0000
0001
1000
0000
0110
0000
1001
0000
,
0001
0010
0001
0100
0010
0001
1000
0000
,
1000
0100
0001
0010
0000
0000
0000
0000
;

//---------------dance-single - ----------------
#NOTES:
     dance-single:
     :
     Challenge:
     14:
     :
0000
0000
0000
0000
,
0000
0000
0000
0000
,
0000
0000
0000
0000
,
0000
0000
0000
0000
,
0000
0000
0000
0000
0000
0000
0000
0010
,
1000
0100
1000
0100
0000
0000
0000
0000
0010
0001
0010
0001
0000
0000
0000
0000
,
0100
0010
0100
0010
0100
0000
0001
1000
0000
0001
1000
0000
0001
1000
0000
0010
,
0100
0001
0100
1000
0100
0010
0100
0001
,
0010
1000
0010
0001
0100
0001
1000
0100
,
0010
0001
0010
0001
0010
0000
0100
0000
1000
0001
1000
0000
0100
0000
0010
0000
,
0001
0011
0011
0101
0101
1001
1001
1000
,
0010
1000
0010
0100
0010
1000
0000
0000
0001
0100
0010
0100
0001
0100
0010
0000
,
1000
0000
0100
0010
0000
0010
0001
0000
1000
0010
1000
0000
0200
0000
0000
0000
,
0310
0001
0010
0100
1000
0000
0010
1000
0000
0001
1000
0000
0100
0000
0000
0000
,
0110
0110
1001
1010
0000
0002
0000
0013
,
0001
0100
0010
0100
1000
0100
0001
0010
,
1000
0000
0010
0000
0001
0000
0100
0010
0000
0000
0100
0010
0000
0000
0100
0010
,
0000
1000
0100
0001
0100
1000
0010
1000
,
0000
0000
0001
0100
0000
0000
0001
0100
0000
0000
0001
0100
0001
0000
1000
0100
,
1000
0010
0100
0010
0001
0010
1000
0001
,
0100
1000
0100
0002
0000
0013
0001
2000
,
0000
0000
3100
0000
1000
0000
0010
0100
0000
0000
0001
1000
0000
0000
0100
0010
,
0001
0100
0020
1030
0000
0200
0300
0020
,
0031
1000
0010
0001
0010
0100
1000
0100
,
0001
0000
0010
0000
1000
0000
0100
0010
0002
0000
0000
0000
0103
0000
0010
0000
,
1000
0001
0100
1000
0100
0010
1000
0001
,
0000
0000
0010
0001
0000
0000
0010
0001
1000
0000
0010
0100
0010
0000
1000
0000
,
0100
0001
0100
1000
0010
1000
0100
0010
,
1000
0010
0001
0100
0000
0010
1000
0001
,
0020
0000
0100
0000
0230
0000
0000
0000
1300
0001
0000
0001
1000
0001
0000
0000
,
0100
0010
1000
0010
0100
0010
0001
0010
,
0100
0010
0001
0010
1000
0010
0001
0010
,
1000
0100
0001
0100
0010
0100
0001
0100
,
1000
0100
0010
0100
1000
0100
0001
0100
,
0010
0001
1000
0001
0010
0001
0100
0001
,
0010
0001
0100
0001
1000
0001
0100
0001
,
1010
0100
0100
1000
1000
0001
0000
1100
,
0101
1000
1000
0001
0010
0010
0000
0011
,
1010
0100
0100
0010
0010
0001
0000
0100
,
0010
1000
0100
1000
0010
0000
0100
0001
0000
0001
0010
0000
0001
1000
0010
0100
,
0001
0010
1000
1000
1000
0010
1000
0001
,
0100
0000
0010
0000
0010
0000
1000
0100
0000
0100
0001
0000
0010
0000
0100
0000
,
1000
0010
1000
0001
0010
0100
0010
0001
,
0100
0000
1000
0000
1000
0000
0000
0010
0100
0000
0001
0000
0001
0000
1000
0000
,
0100
0010
0001
0100
1000
0100
0001
0010
,
1000
0010
0100
0010
1000
0010
0001
0100
,
0010
0001
0010
1000
0010
0100
0010
1000
,
0100
0000
0110
0000
0001
0000
0100
0000
0010
1000
0000
0010
1000
0000
0100
0000
,
0010
0001
1000
1000
1000
0001
0010
0100
,
1000
0010
0010
0100
0001
1010
1000
0001
,
0010
0100
1000
0001
0001
0100
0100
0010
,
1000
0000
0001
0000
0010
0000
0001
0100
0001
0000
1000
0000
1000
0000
0010
0000
,
1000
0100
0001
0100
0010
0100
0001
0100
,
0010
1000
0010
0001
0010
0100
0010
1000
,
0010
0001
0100
0001
0010
0100
1000
0001
,
0100
0001
1000
0000
0010
0000
1000
0000
1100
0000
0001
0000
0010
0000
0100
0010
,
0001
0100
0001
0100
0001
0000
1000
0010
0000
1000
0010
0000
1000
0100
0010
0001
,
0100
0010
0010
0010
1001
0100
0000
1001
,
1000
0010
0001
0100
0001
0010
0100
1000
,
0010
1000
0001
0010
1000
0100
0001
0100
,
1000
0010
0100
0010
1000
0000
0001
0100
0010
0100
0001
0000
0110
0000
0001
0100
,
1000
0000
1100
0000
0110
0000
0011
0000
0000
0000
2000
0000
3001
0100
0010
0100
,
0010
1000
0010
2000
3000
0000
0000
0000
0000
0000
0000
0000
0000
0000
0000
0000
;

//---------------dance-double - ----------------
#NOTES:
     dance-double:
     :
     Easy:
     4:
     :
00000000
00000000
00000000
00000000
,
00000000
00000000
00000000
00000000
,
00000000
00000000
00000000
00000000
,
00000000
00000000
00000000
00000000
,
00000000
00000000
00000000
00000000
,
00010000
00000000
00000000
00000000
,
00001000
00000000
00000000
00000000
,
00100000
00000000
01000000
00000000
,
00001000
00000000
00010000
00000000
,
00000010
00000000
00000100
00000000
,
00010000
00000000
00001000
00000000
,
00100000
00000000
00100000
00000000
,
00010000
00000000
01000000
00000000
,
00001000
00000000
00010000
00000000
,
00000010
00000000
00001001
00000000
,
00000001
00000000
00000100
00000000
,
00010000
00000000
00001000
00000000
,
01000000
00000000
00100000
00000000
,
10000000
00000000
01000000
00000000
,
00001000
00000000
00010000
00000000
,
00010000
00000000
00001000
00000000
,
01000000
00000000
00001000
00000000
,
00010000
00000000
00000010
00000000
,
00000010
00001000
00000010
00000000
,
00010000
00000000
00001000
00000000
,
00100000
00010000
00100000
00000000
,
00001000
00000000
00010000
00000000
,
00000010
00000000
00001001
00000000
,
00000100
00000000
00000110
00000000
,
00010000
00000000
00011000
00000000
,
00100000
00010000
10000000
00000000
,
00010000
00000000
01000000
00000000
,
10000000
00010000
00100000
00000000
,
00001000
00000000
00011000
00000000
,
00000010
00001000
00000001
00000000
,
00001000
00000000
00000100
00000000
,
00020000
00030000
00000000
00000000
,
00002000
00003000
00000000
00000000
,
00200000
00300000
00000000
00000000
,
01000000
00100000
01000000
00000000
,
00010000
00000000
01000000
00000000
,
00100000
00010000
01000000
00000000
,
00001000
00000000
00010000
00000000
,
00000010
00000100
00000001
00000000
,
00000010
00010000
00001000
00000000
,
01000000
00001000
00010000
00000000
,
00000100
00000000
00001000
00000000
,
00000100
00000000
00010000
00000000
,
00100000
01000000
10000000
00000000
,
00010000
00000000
10000000
00000000
,
00010000
00100000
00001000
00000000
,
00010000
00000000
00000100
00000000
,
00001000
00000001
00001000
00000000
,
00000010
00000100
00000010
00000000
,
00010000
00000000
00001000
00000000
,
01000000
00000000
01000000
00000000
,
00020000
00030000
00000000
00000000
,
00011000
00000000
00000000
00000000
,
00000100
00000000
00000010
00000000
,
00010000
00000000
00001000
00000000
,
01000000
00000000
00100000
00000000
,
01000000
00000000
10010000
00000000
,
00000000
00000000
00000000
00000000
;

//---------------dance-double - ----------------
#NOTES:
     dance-double:
     :
     Medium:
     6:
     :
00000000
00000000
00000000
00000000
,
00000000
00000000
00000000
00000000
,
00000000
00000000
00000000
00000000
,
00000000
00000000
00000000
00000000
,
00000000
00000000
00000000
00000000
,
00110000
00000000
11000000
00000000
,
10000000
01000000
00100000
00010000
,
00001000
00000010
00001001
00000000
,
00000100
00000010
00000100
00001100
,
00010000
00100000
10000000
01000000
,
00100000
00010000
01000000
00000000
10010000
00000000
00000000
00000000
,
00100000
10000000
00100000
00010000
,
00001000
00000100
00000001
00000100
,
00000010
00000000
00000001
00000000
00001000
00000100
00010000
00000000
,
00001000
00010000
00001000
00010000
00000000
00000000
00000000
00000000
,
00100000
00010000
10000000
01000000
,
00100000
00010000
00001000
00010000
,
00000010
00001000
00000001
00000100
,
00000010
00001000
00011000
00000000
,
00100000
00010000
01000000
00000000
,
00100000
10000000
01000000
00000000
,
10000000
00010000
00001000
00000001
,
00001000
00000000
00000010
00000000
00000000
00010000
00000000
00000000
,
00000010
00001000
00000001
00000100
,
00000010
00001000
00010000
00001000
,
00100000
00010000
10000000
01000000
,
00100000
00010000
00011000
00000000
,
00000010
00001000
00000100
00000000
,
00000010
00000001
00000100
00000000
,
00001000
01000000
00010000
00000100
,
00001000
00000100
00001000
00000001
,
00000100
00001000
00010000
00100000
,
00010000
01000000
00010000
10000000
,
01000000
00010000
00001000
00010000
,
00001000
00000010
00010000
00000000
,
00010000
00100000
00001000
00000000
,
00020000
00000000
00000000
00000000
00030000
00000000
00000000
00100000
,
20000000
00000000
00000000
00000000
30000000
00000000
00000000
01000000
,
00020000
00000000
00030000
00000000
,
00100000
00110000
00001000
00011000
,
00000010
00001000
00000100
00001000
,
00000001
00001000
00010000
00001000
,
00100000
00010000
01000000
00010000
,
10000000
00010000
00001000
00010000
,
00000100
00000000
00000010
00000000
00000001
00001000
00000000
00000000
,
00000010
00000000
00000100
00000000
00001000
00010000
00000000
00000000
,
00100000
10000000
01000000
00010000
,
00000000
00001000
00001000
00000000
01000000
00000000
01010000
00000000
,
01000000
00010000
00100000
00010000
,
01000000
00010000
00001000
00010000
,
00000100
00001000
00000010
00001000
,
00000100
00001000
00010000
00001000
,
00100000
00000000
00010000
00000000
10000000
01000000
00000000
00000000
,
00100000
00000000
00010000
00000000
00001000
00010000
00000000
00000000
,
00000010
00001000
00010000
00100000
,
01000000
00010000
00001000
00000100
,
00000002
00000000
00000000
00000000
,
00002000
00000000
00000000
00003003
,
00001000
00000010
00001001
00000000
,
00000100
00000010
00000100
00001100
,
00010000
00011000
00100000
00110000
,
00001000
00010000
00000010
00000100
00000000
00000000
00000000
00000000
,
00000000
00000000
00000000
00000000
;

//---------------dance-double - ----------------
#NOTES:
     dance-double:
     :
     Hard:
     9:
     :
00000000
00000000
00000000
00000000
,
00000000
00000000
00000000
00000000
,
00000000
00000000
00000000
00000000
,
00000000
00000000
00000000
00000000
,
00000000
00000000
00000000
00000000
,
00100000
00001000
00010000
00000000
00000010
00010000
00001000
00000000
,
00010000
00000000
00000100
00000000
00001000
00000100
00000001
00000000
,
00000100
00000000
00001100
00000000
00011000
00000000
00000000
00100000
,
00000000
00010000
10000000
00000000
01000000
00000000
00100000
00000000
,
00001000
01000000
00001000
00010000
00001000
00010000
00000100
00000000
,
00000010
00000001
00000100
00000010
00001000
00000000
00001010
00000000
,
00000010
00000100
00000010
00000100
00001000
00010000
00001000
00000000
,
00100000
00010000
01000000
00000000
00010000
00000000
10000000
00000000
,
00100000
10000000
00100000
00000000
01000000
00010000
01000000
00000000
,
00100000
00001000
00010000
00000100
00000000
00000000
00001001
00000000
,
00000001
00001000
00000001
00000000
00001000
00000100
00001000
00000000
,
00000010
00010000
00001000
00000000
00001000
00000000
01010000
00000000
,
10000000
00010000
10000000
00000000
00010000
01000000
00010000
00000000
,
01000000
00001000
00010000
00000000
00010000
00000000
00001100
00000000
,
00000010
00010000
00001000
00000000
00100000
00001000
00010000
00000000
,
00000100
00010000
00001000
00000000
01000000
00001000
00010000
00000000
,
00000100
00000001
00000010
00001000
,
00000000
00000000
00200000
00000000
00000000
01300000
00000000
00000000
,
00100000
10000000
01000000
00000000
00100000
00001000
00100000
00000000
,
00010000
01000000
00001000
00000000
00011000
00000000
00000110
00000000
,
00000010
00000001
00000100
00000000
00000010
00010000
00000010
00000000
,
00001000
00000100
00010000
00000000
00011000
00000000
01100000
00000000
,
00010000
00001000
00010000
00000000
00000010
00000100
00000001
00000000
,
00000010
00000100
00010000
00000000
00001000
00010000
00001000
00000000
,
00011000
00100000
01010000
11000000
,
10000000
01000000
10000000
00000000
00010000
00100000
00010000
00000000
,
00100000
00001000
00010000
00000000
00000010
00001000
00000100
00000000
,
00000001
00000010
00001100
00000101
,
00000001
00000010
00000001
00000000
00001000
00000100
00001000
00000000
,
00000100
00010000
00001000
00000000
00100000
01000000
00010000
00000000
,
00000100
00010000
00000010
00000000
00001000
00000001
00000100
00000000
,
00000020
00000000
00000000
00000000
00000000
00000000
00000030
00000100
,
00002000
00000000
00000000
00000000
00000000
00000000
00003000
00010000
,
00200000
00000000
00000000
00300000
,
10000000
01000000
00010000
00000000
00001000
00000100
00000001
00000000
,
00000000
00000000
00000010
00000001
00001000
00000100
00000010
00000001
,
00000000
00000100
00000100
00000000
00000000
00000000
00000010
00000000
,
00000000
00000000
00010000
00000010
00010000
00000100
00010000
00001000
,
00000000
00010000
00010000
00000000
00000000
00000000
00110000
00000000
,
01000000
00000000
10000000
01000000
10000000
01000000
00100000
00000000
,
00010000
00000000
01000000
00010000
01000000
00001000
00010000
00000000
,
00000010
00001000
00000001
00000000
00001000
00000001
00000100
00000000
,
00000000
00000000
00010000
00000000
00001000
00000000
00000000
00000000
01000000
00000000
00000000
00010000
00000000
00000000
10000000
00000000
,
00000000
00000000
01000000
10000000
00010000
00100000
01000000
10000000
,
00000000
00100000
00100000
00000000
00000000
00000000
01000000
00000000
,
00000000
00000000
00001000
01000000
00001000
00100000
00001000
00010000
,
00000000
00001000
00001000
00000000
00000000
00000000
00001100
00000000
,
00000010
00000000
00000001
00000010
00000001
00000010
00000100
00000000
,
00001000
00000000
00000010
00001000
00000010
00010000
00001000
00000000
,
01000000
00010000
10000000
00000000
00010000
10000000
00100000
00000000
,
01000000
00010000
00100000
00001000
00010000
00000010
00001000
00000000
,
00001010
00011000
00001100
00000110
,
00002002
00000000
00000000
00003003
,
00000100
00000000
00001100
00000000
00011000
00000000
00000000
00100000
,
00000000
00010000
10000000
00000000
01000000
00000000
00100000
00000000
,
00001000
00010000
00000100
00000010
00000001
00000100
00001000
00000000
,
00010000
01000000
10000000
00010000
00000000
00000000
00000000
00000000
,
00000000
00000000
00000000
00000000
;
