#TITLE:HIT THE GROUND;
#SUBTITLE:(Alexa Remix);
#ARTIST:NAOKI;
#BANNER:HIT THE GROUND (Alexa Remix)-bn.png;
#BACKGROUND:HIT THE GROUND (Alexa Remix)-bg.png;
#JACKET:HIT THE GROUND (Alexa Remix)-jacket.png;
#LYRICSPATH:HIT THE GROUND (Alexa Remix).lrc;
#MUSIC:HIT THE GROUND (Alexa Remix).ogg;
#OFFSET:-0.051;
#SAMPLESTART:6.885;
#SAMPLELENGTH:20;
#DISPLAYBPM:140;
#BPMS:0=140;
#BGCHANGES:;

//---------------dance-single - ----------------
#NOTES:
     dance-single:
     :
     Beginner:
     1:
     :
0000
0000
0000
0000
,
0000
0000
0000
0000
,
1000
0000
0000
0000
,
0001
0000
0000
0000
,
0010
0000
0000
0000
,
0100
0000
0000
0000
,
0010
0000
0000
0000
,
0100
0100
0000
0000
,
1000
0000
0000
0000
,
0001
0000
0000
0000
,
1000
0000
0000
0000
,
0001
0001
0000
0000
,
0010
0000
0000
0000
,
0100
0000
0000
0000
,
1000
0000
0000
0000
,
0001
0001
0000
0000
,
1000
0000
0000
0000
,
0001
0000
0000
0000
,
0010
0000
0000
0000
,
0100
0100
0000
0000
,
0200
0000
0000
0300
,
0000
0000
0000
0000
,
0010
0000
0000
0000
,
0010
0000
0000
0000
,
0001
0000
0000
0000
,
1000
0000
0000
0000
,
0001
0000
0000
0000
,
0010
0000
0000
0000
,
0100
0000
0000
0000
,
0010
0000
0000
0000
,
0001
0000
0000
0000
,
1000
1000
0000
0000
,
0100
0000
0000
0000
,
1000
0000
0000
0000
,
0001
0000
0000
0000
,
0010
0010
0000
0000
,
0100
0000
0000
0000
,
0010
0000
0000
0000
,
0001
0000
0000
0000
,
1000
1000
0000
0000
,
0001
0000
0000
0000
,
0010
0000
0000
0000
,
0100
0000
0000
0000
,
0010
0010
0000
0000
,
0010
0000
0000
0000
,
0001
0000
0000
0000
,
1000
0000
0000
0000
,
0100
0100
0000
0000
,
0010
0000
0000
0000
,
0001
0000
0000
0000
,
1000
0000
0000
0000
,
0100
0100
0000
0000
,
1000
0000
0000
0000
,
0010
0000
0000
0000
,
0100
0000
0000
0000
,
0001
0001
0000
0000
,
1000
0000
0000
0000
,
0001
0000
0000
0000
,
1000
0000
0000
0000
,
0010
0000
0000
0000
,
0100
0000
0000
0000
;

//---------------dance-single - ----------------
#NOTES:
     dance-single:
     :
     Easy:
     5:
     :
0000
0000
0000
0000
,
0000
0000
0000
0000
,
1000
0000
0001
0000
,
1000
0100
0010
0001
,
1000
0000
0100
0000
,
0010
0000
0001
0000
,
1000
1000
0000
0000
,
0001
0001
0000
0000
,
0001
0000
0100
0000
,
0010
0000
1000
0000
,
0001
0001
0000
0000
,
1000
1000
0000
0000
,
1000
0000
0100
0010
,
0100
0000
0001
0000
,
0100
0100
0000
0000
,
0010
0010
0000
0000
,
0001
0000
0100
0000
,
1000
0000
0100
0000
,
0001
0001
0000
0000
,
1000
1000
0000
0000
,
0001
1000
0000
0100
,
0000
0010
0000
0001
,
0000
0100
0000
0010
,
0000
1000
0000
0001
,
1000
0001
0000
0000
,
0001
0100
0000
0000
,
0100
0010
0000
0000
,
0010
1000
0000
0000
,
1001
0000
0001
0000
,
1000
0100
1000
0000
,
0001
0010
0000
0000
,
0001
1000
0000
0000
,
1001
0000
0010
0000
,
0100
0001
1000
0000
,
0001
0100
0000
0000
,
0010
1000
0000
0000
,
0001
0100
0010
1000
,
0001
0000
1000
0000
,
0001
1000
0000
0000
,
1000
0001
0000
0000
,
1000
0100
0010
0001
,
1000
0000
0001
0000
,
1000
0100
0000
0000
,
0010
0001
0000
0000
,
0010
0001
0100
0001
,
0010
0000
0100
0000
,
0110
0110
0000
0000
,
1001
1001
0000
0000
,
0001
0100
1000
0100
,
0001
0000
1000
0000
,
1001
1001
0000
0000
,
0110
0110
0000
0000
,
0100
0100
0010
0010
,
1000
1000
0001
0000
,
1000
0100
0000
0000
,
0010
0001
0000
0000
,
1000
0100
0010
0001
,
1000
0100
0010
0001
,
2000
0000
0000
3000
,
1000
0001
0100
0010
,
2000
0000
0000
3000
;

//---------------dance-single - ----------------
#NOTES:
     dance-single:
     :
     Medium:
     8:
     :
0000
0000
0000
0000
,
0000
0000
0000
0000
,
0000
0001
0000
0010
0000
0100
0000
0001
,
0100
0010
2000
0000
,
3001
0100
0010
0001
,
2000
0000
3001
0000
,
0100
0000
0100
0000
0000
0010
0000
0100
,
0001
0000
0001
0000
0000
1000
0000
0100
,
0010
1000
0001
0100
,
0020
0000
0130
0000
,
1000
0000
1000
0000
0000
0010
0000
0001
,
1000
0000
1000
0000
0000
0010
0000
0100
,
0001
0100
1000
0001
,
0010
0100
1000
0010
,
0100
0000
0100
0000
0000
0010
0000
1000
,
0100
0000
0100
0000
0000
1000
0100
0010
,
0001
0100
1000
0010
,
2000
3002
0023
0230
,
1300
0000
1000
0000
0000
0010
0000
0100
,
0001
0000
0001
0000
0000
1000
0000
0010
,
0100
0110
1000
1100
,
0001
0000
0101
0000
1000
0000
0001
0010
,
0100
0110
0001
0011
,
1000
0000
1010
0000
0001
0000
1000
0010
,
0100
0000
0100
0000
0000
0010
0000
1000
,
0001
0000
0001
0000
0000
0010
0000
0100
,
0010
0000
0010
0000
0000
0001
0000
0100
,
0010
0000
1000
0000
0001
0000
1000
0001
,
1000
0001
0100
0010
,
0200
0301
0200
0310
,
1000
0000
0010
0100
0000
1000
0000
0100
,
0010
0200
0000
1300
,
0001
1000
0010
1000
,
0200
0310
0200
1300
,
0001
0000
0100
0010
0000
1000
0000
0001
,
0010
0000
1000
0000
0000
0001
0000
0100
,
0010
0101
1000
1001
,
0002
0013
0002
0103
,
0010
0000
1000
0100
0000
1000
0000
0010
,
0100
0000
0001
0000
0010
0000
0001
1000
,
0000
0100
0000
0010
0000
0001
0000
0100
,
0000
0010
0000
1000
0000
0001
0000
1000
,
0000
0010
0200
0000
0000
0000
0000
0000
,
0310
0000
0010
0000
0000
0100
0000
0001
,
1000
0001
0010
0100
,
0020
0031
0200
0310
,
1000
0000
0010
0100
0000
1000
0000
1000
,
0001
0100
0100
0100
,
0010
0100
0001
0010
,
0200
1300
0020
0130
,
0001
0000
1000
0001
0000
0100
0000
0010
,
0100
0000
0100
0000
0000
0001
0000
0010
,
0100
1000
0001
0010
,
0002
1003
0200
0301
,
1000
0000
0010
0100
0000
0010
0000
1000
,
0100
0000
0100
0000
0000
0010
0001
0010
,
0000
0100
0000
1000
0000
0010
0000
0001
,
0000
0100
0000
0001
0000
0010
0000
1000
,
0000
0001
0200
0000
0000
0000
0000
0000
,
0310
0000
0010
0000
0010
0100
0000
0010
,
0000
1000
0200
0000
0000
0000
0300
0000
;

//---------------dance-single - ----------------
#NOTES:
     dance-single:
     :
     Hard:
     12:
     :
0000
0000
0000
0000
,
0000
0000
0000
0000
,
0000
0000
1000
0010
0000
0000
0100
0010
0000
0000
1000
0100
0000
0000
0010
0100
,
0010
0000
0100
0000
1000
0000
0001
0000
0100
0010
0100
0010
0100
0000
0001
0000
,
0101
0000
0110
0000
1000
0000
0001
1000
,
1100
0000
0110
0000
0001
0000
1000
0010
,
0001
0000
0000
0000
2000
0000
0000
0000
3001
0000
1000
0010
0000
1000
0100
0000
,
1000
0000
0000
0000
0002
0000
0000
0000
1003
0000
0010
0100
0000
0001
0010
0000
,
0011
0000
1010
0000
0001
0000
0010
0001
,
0101
0000
1100
0000
1000
0000
0010
1000
,
0100
0000
0000
0000
2000
0000
0000
0000
3010
0000
0100
0001
0000
0010
0001
0000
,
1000
0000
0000
0000
0200
0000
0000
0000
1300
0000
0010
1000
0000
0010
0100
0000
,
0001
1000
0001
0010
0001
0100
0001
0010
,
1000
0001
1000
0010
1000
0100
1000
0001
,
1001
0000
0000
0000
0110
0000
0000
0000
0100
0000
0001
1000
0000
0010
1000
0000
,
0100
0000
0000
0000
0010
0000
0000
0000
0100
0000
1000
0001
0000
0100
0001
0000
,
1000
0010
0100
0010
0100
0001
1000
0010
,
0001
0010
0100
2000
0000
3200
0000
0302
,
0000
0000
0013
0000
0100
0000
0000
0000
1000
0000
0010
1000
0000
0100
1000
0000
,
1100
0220
0000
0000
,
0330
0000
1000
0100
0000
0000
0010
0001
0000
0000
0100
0010
0000
0000
0100
0001
,
0000
0000
1000
0001
0000
0000
0100
0010
0000
0000
1000
0000
0001
0000
1000
0000
,
0000
0000
0001
1000
0000
0000
0010
0100
0000
0000
0010
1000
0000
0000
0100
0010
,
0000
0000
0100
1000
0000
0000
0010
0100
0000
0000
0001
0000
0100
0000
0010
0000
,
1000
0000
0000
0000
0100
0000
0000
0000
1000
0000
0010
0100
0000
0010
0100
0000
,
0001
0000
0000
0000
0200
0000
0000
0000
0301
0000
0010
0100
0000
0010
0100
0000
,
0010
0000
0002
0000
1003
0010
0000
0100
,
0001
0000
0010
0000
0100
0000
1000
0000
0001
1000
0100
1000
0001
1000
0100
0000
,
1100
1010
0011
1010
,
0100
0000
0001
0010
1000
0000
0001
0000
,
1000
0000
0000
0000
0010
0000
0100
0000
0000
0000
0010
1000
0000
0100
1000
0000
,
0010
0000
0100
0000
0010
0001
0100
0000
,
0101
1100
1010
1100
,
0001
0000
1000
0100
0001
0000
1000
0010
,
1000
0000
0000
0000
0001
0000
0100
0000
0000
0000
0010
1000
0000
0001
0010
0000
,
0100
0000
0010
0000
0100
1000
0010
0100
,
0110
0000
0101
0000
0011
0000
1010
1000
,
1100
1001
1100
1010
,
1000
0000
0000
0000
0001
0000
0010
0000
0000
0000
0100
0010
0000
0100
1000
0000
,
0001
0000
1000
0000
0000
0100
1000
0010
,
0000
0110
0000
0101
0000
0010
0001
0100
,
0000
0110
0000
1010
0000
1000
0001
1000
,
0001
0000
0000
0000
0010
0000
0000
0000
0000
0000
0100
0010
0000
0100
0010
0000
,
0001
0000
1000
0000
0001
1000
0001
1000
,
0100
1000
0010
0100
0010
1000
0100
0001
,
0100
0000
0010
0001
0100
0000
0010
1000
,
0100
0000
0000
0000
1000
0000
0001
0000
0000
0000
0010
0100
0000
0010
0001
0000
,
0100
0000
0000
0000
0020
0000
0000
0000
1030
0000
0001
0100
0000
0001
1000
0000
,
0010
1000
0100
0010
0001
1000
0100
0010
,
0100
0000
1000
0001
0100
0000
0001
1000
,
0100
0000
0000
0000
1000
0000
0010
0000
0100
0000
0001
1000
0000
0001
0100
0000
,
0010
1000
0100
0001
0100
1000
0010
0000
,
0101
0110
0011
0101
,
0100
0000
0100
0010
1000
0000
0001
0100
,
0001
0000
0000
0000
1000
0000
0010
0000
0000
0000
1000
0100
0000
1000
0010
0000
,
1000
0000
0200
0000
1300
0000
0010
0100
,
0010
1000
0000
0001
0000
0010
0000
0001
,
0000
0100
0000
0010
0000
1000
0100
0001
,
0000
1000
0010
0000
0100
0000
0001
0000
,
1000
0000
0010
0000
0100
0000
0001
0000
0100
0010
0100
0010
1000
0000
0100
0000
,
0000
0010
0200
0000
0000
0000
0300
0000
;

//---------------dance-single - ----------------
#NOTES:
     dance-single:
     :
     Challenge:
     16:
     :
0000
0000
0000
0000
,
0000
0000
0000
0000
,
0001
0000
0010
0001
0100
0000
0010
1000
0100
0000
1000
0001
1000
0000
0100
0010
,
0001
0100
0001
0100
0001
0100
0001
0100
0010
1000
0010
1000
0010
1000
0010
1000
,
0100
0000
1000
0010
1000
0000
0001
0010
0001
0000
0100
0000
0010
0000
1000
0000
,
0100
0000
0010
0001
1000
0000
0001
1000
0010
0000
0100
0000
0001
0000
1000
0000
,
1100
0000
0001
0000
0101
0000
1000
0000
0010
0000
0100
0000
0001
1000
0100
0000
,
1010
0000
0010
0000
0011
0000
0001
0000
0100
0000
0010
1000
0000
1000
0001
0000
,
0100
0000
0001
1000
0001
0000
0010
0100
0010
0000
0001
0000
1000
0000
0010
0000
,
0100
0000
0010
1000
0001
0000
1000
0100
0010
0000
0001
0000
0100
0000
0010
0000
,
0110
0000
1000
0000
1001
0000
0010
0000
1000
0000
0100
0010
0001
0000
1000
0100
,
0010
0000
0001
0000
0100
0000
0010
0000
1000
0000
0100
0000
0010
0001
1000
0000
,
1010
0100
1000
0001
0101
0100
0010
1000
,
1000
0000
0100
0010
0001
0000
1000
0001
1000
0000
0010
0000
0100
0000
0001
0000
,
1001
0000
0010
0000
0110
0000
0100
0000
0001
0000
1000
0010
0000
1000
0100
0000
,
1100
0000
0001
0000
0011
0000
0100
0000
0010
0000
1000
0001
1000
0000
0010
0000
,
0100
0000
0001
0000
0010
0000
1000
0000
0010
0000
0001
0100
0010
1000
0001
0000
,
0100
0000
1000
0000
0100
0000
0010
0000
0100
0000
0001
1000
0010
1000
0001
0000
,
0010
0000
0001
0100
0001
1000
0010
0000
0100
0000
0001
1000
0000
0010
0100
0000
,
0002
0103
0020
1030
0100
0010
0001
1000
,
0010
0000
1000
0100
1000
0100
0010
0000
0001
0000
1000
0000
0001
0000
0100
0000
,
0010
0000
1000
0001
1000
0001
0000
0010
0100
0000
1000
0010
1000
0000
0100
0000
,
0010
0000
0001
1000
0001
0000
1000
0001
1000
0000
0010
0000
0100
0000
0001
0000
,
0010
0000
0100
1000
0100
0000
0010
0001
0010
0000
0100
0000
1000
0000
0001
0000
,
0100
0000
0010
1000
0001
0000
0010
0000
0100
0000
1000
0010
0000
0100
0001
0000
,
0010
0000
0001
0000
0100
0000
0001
0000
0010
0000
0100
1000
0000
1000
0001
0000
,
2000
0000
3010
0000
0200
0000
0301
0000
0010
0000
0001
1000
0000
1000
0100
0000
,
1000
0010
1000
0010
1000
0010
1000
0010
0100
0001
0100
0001
0100
0001
0100
0001
,
0010
0000
0001
1000
0100
0000
1000
0010
0100
0000
0001
0010
0000
0100
1000
0000
,
0010
0000
0100
0001
0010
0000
0001
1000
0100
0000
1000
0001
0000
0010
0100
0000
,
0010
0000
0001
0100
0010
0000
1000
0100
1000
0000
0010
1000
0000
0001
0100
0000
,
0001
0010
0100
0000
0010
0001
0100
0000
0010
0000
1000
0001
0000
1000
0100
0000
,
0010
0000
0001
1000
0001
0000
0100
0010
1000
0000
0100
0010
0000
0001
1000
0000
,
0010
0000
0100
0010
1000
0000
0100
0010
0001
0000
1000
0001
0000
0100
0010
0000
,
1000
0000
0001
1000
0010
0000
0100
0010
1000
0000
0100
0010
0000
0010
0001
0000
,
0100
0001
1000
0000
0100
1000
0001
0000
0010
0000
0100
0010
0000
0001
1000
0000
,
0110
0000
1000
0100
1000
0000
0001
0000
0010
0000
0001
0100
0000
0010
1000
0000
,
0100
0000
0010
0001
0010
0000
0001
1000
0001
0000
0100
0010
1000
0000
0100
0000
,
0011
0000
0100
0000
1010
0000
0001
0000
0010
0000
0001
1000
0000
1000
0100
0000
,
1100
0000
0010
0000
0101
0000
1000
0000
0001
0000
0010
0100
0000
0010
0001
0000
,
0100
0000
0001
1000
0001
0000
0010
0100
1000
0000
0010
0100
0000
0001
1000
0000
,
1001
0000
0010
0000
0100
0000
0001
0010
0001
0000
1000
0100
0000
1000
0001
0000
,
0101
0000
0010
0000
1010
0000
0100
0000
1000
0000
0001
0010
0000
0001
1000
0000
,
1100
0000
0010
0000
0101
0000
0001
0000
0010
0000
0100
1000
0000
1000
0001
0000
,
1001
0000
0010
1000
0100
0000
1000
0001
0010
0000
0001
0100
0000
0010
1000
0000
,
0110
0000
0010
1000
0100
0000
1000
0001
0010
0000
0001
0100
0000
0010
1000
0000
,
0100
0000
1000
0010
0100
0000
0001
0010
0001
0000
1000
0001
0000
0100
0010
0000
,
1000
0000
0001
0010
0100
0000
0010
0001
0100
0000
0010
1000
0000
1000
0001
0000
,
0010
0000
0001
1000
0010
0000
1000
0100
0010
0000
0001
1000
0000
0010
0100
0000
,
0001
0000
0010
0001
1000
0000
0100
1000
0010
0000
0100
0001
1000
0000
0010
0000
,
0100
0000
0001
1000
0001
0000
0010
0000
0100
0000
1000
0001
0000
1000
0100
0000
,
0010
0000
0001
1000
0001
0000
0010
0001
0100
0000
0010
1000
0000
1000
0001
0000
,
0100
0000
0001
0010
0001
0000
0100
0010
1000
0000
0100
0000
1000
0000
0001
0000
,
0100
0000
0010
1000
0010
0000
0100
0001
1000
0000
0100
0010
0001
0000
1000
0000
,
0001
0000
0010
0001
0100
0000
0010
0000
1000
0000
0100
1000
0000
0001
1000
0000
,
0010
1000
0001
0000
0010
0100
0010
0000
0001
0000
0100
0010
0000
1000
0001
0000
,
0010
0001
0100
1000
0100
0010
0100
1000
,
0100
0001
0100
0010
0100
1000
0100
0001
,
0010
0001
0010
0100
0010
1000
0010
0000
0010
1000
0010
0100
0010
0001
0010
0000
,
0001
0100
0001
0100
0010
1000
0010
1000
0100
1000
0100
1000
0001
0010
0001
0010
,
0100
0000
1000
0002
2000
0000
0000
0000
0000
0000
0000
0000
0000
0000
0000
0000
,
0000
0000
0000
3003
;

//---------------dance-double - ----------------
#NOTES:
     dance-double:
     :
     Easy:
     5:
     :
00000000
00000000
00000000
00000000
,
00000000
00000000
00000000
00000000
,
00010000
00000000
00001000
00000000
,
00010000
00001000
00010000
00000000
,
00000100
00000000
00000010
00000100
,
00001000
00000000
00000001
00000000
,
00001000
00001000
00000000
00000000
,
00000010
00000010
00000000
00000000
,
00000100
00000000
00000010
00010000
,
00001000
00000000
00010000
00000000
,
00001000
00001000
00000000
00000000
,
01000000
01000000
00000000
00000000
,
00010000
00000000
00100000
01000000
,
00100000
00010000
00000000
00000000
,
10000000
10000000
00000000
00000000
,
00010000
00010000
00000000
00000000
,
10000000
00000000
00100000
00000000
,
01000000
00000000
00001000
00000000
,
00010000
00010000
00000000
00000000
,
00001000
00001000
00000000
00000000
,
00010000
00010000
00000000
00000100
,
00000000
00000010
00000000
00000001
,
00000000
00000100
00000000
00000001
,
00000000
00001000
00000000
00000100
,
00010000
00000100
00000000
00000000
,
00010000
00001000
00000000
00000000
,
00001000
01000000
00000000
00000000
,
01000000
00100000
00000000
00000000
,
01100000
00000000
00000000
01000000
,
00100000
01000000
00100000
00000000
,
10000000
10000000
00000000
00000000
,
00010000
00010000
00000000
00000000
,
10010000
00000000
00010000
10000000
,
00010000
10000000
00010000
00000000
,
00100000
00100000
00000000
00000000
,
00001000
00001000
00000000
00000000
,
00010000
00001000
00000100
00000001
,
00000001
00000000
00001000
00000000
,
00000010
00000100
00000000
00000000
,
00000100
00000010
00000000
00000000
,
00010000
00001000
00100000
00010000
,
00010000
00000000
10000000
00000000
,
01000000
00100000
00000000
00000000
,
00100000
00001000
00000000
00000000
,
00010000
00000100
00001000
00000010
,
00000100
00000000
00000001
00000000
,
00001000
00001000
00000000
00000000
,
00000001
00000001
00000000
00000000
,
00001000
00000100
00010000
00001000
,
00100000
00000000
00010000
00000000
,
00100000
01000000
00000000
00000000
,
10000000
01000000
10000000
00000000
,
00010000
00010000
01000000
00100000
,
01000000
00000000
00001000
00000000
,
00010000
00001000
00000000
00000000
,
00010000
00001000
00000000
00000000
,
00010000
00000100
00000010
00000100
,
00000100
00000000
00001000
00000000
,
00000001
00001000
00000000
00000000
,
00000010
00001000
00000010
00001000
,
00000010
00000000
00000000
00000000
;

//---------------dance-double - ----------------
#NOTES:
     dance-double:
     :
     Medium:
     8:
     :
00000000
00000000
00000000
00000000
,
00000000
00000000
00000000
00000000
,
00000000
00001000
00000000
00010000
00000000
00001000
00000000
00000100
,
00000010
00000100
00000002
00000000
,
00001003
00000100
00010000
00001000
,
00020000
00000000
00031000
00000000
,
00100000
00000000
00100000
00000000
00000000
01000000
00000000
00100000
,
00010000
00000000
00010000
00000000
00000000
10000000
00000000
00100000
,
01000000
00100000
10000000
01000000
,
00200000
00000000
00310000
00000000
,
00100000
00000000
00100000
00000000
00000000
00001000
00000000
00010000
,
00000100
00000000
00000100
00000000
00000000
00001000
00000000
00000001
,
00000100
00000010
00001000
00010000
,
00100000
01000000
00100000
00010000
,
10000000
00000000
10000000
00000000
00000000
00100000
00000000
01000000
,
00010000
00000000
00010000
00000000
00000000
10000000
01000000
00010000
,
00001000
00010000
00000100
00000010
,
00000002
00000023
00000230
00002300
,
00003001
00000000
00000001
00000000
00000000
00000100
00000000
00000010
,
00010000
00000000
00010000
00000000
00000000
00001000
00000000
00010000
,
00001000
00011000
00100000
00110000
,
00100000
00000000
01100000
00000000
01000000
00000000
10000000
00100000
,
01000000
01100000
01000000
01010000
,
00010000
00000000
00110000
00000000
00100000
00000000
00001000
00010000
,
00001000
00000000
00001000
00000000
00000000
00010000
00000000
00000100
,
00000010
00000000
00000010
00000000
00000000
00001000
00000000
00000001
,
00000100
00000000
00000100
00000000
00000000
00000010
00000000
00000100
,
00001000
00000000
00010000
00000000
00001000
00000000
00010000
00001000
,
00010000
00001000
01000000
00100000
,
20000000
30100000
20000000
30010000
,
00100000
00000000
00010000
01000000
00000000
00100000
00000000
01000000
,
00001000
00020000
00000000
00031000
,
00010000
00000100
00001000
00000010
,
00000200
00000301
00000200
00001300
,
00000100
00000000
00000010
00010000
00000000
00001000
00000000
00010000
,
00001000
00000000
01000000
00000000
00000000
00100000
00000000
10000000
,
00010000
01010000
00100000
01100000
,
20000000
31000000
00200000
00310000
,
01000000
00000000
00010000
00100000
00000000
00001000
00000000
00010000
,
00001000
00000000
00010000
00000000
00000010
00000000
00000100
00000010
,
00000000
00001000
00000000
00000100
00000000
00000001
00000000
00000100
,
00000000
00010000
00000000
00001000
00000000
01000000
00000000
00100000
,
00000000
10000000
00020000
00000000
00000000
00000000
00000000
00000000
,
10030000
00000000
10000000
00000000
00000000
00100000
00000000
01000000
,
00100000
10000000
00100000
01000000
,
00002000
00013000
00020000
00031000
,
00010000
00000000
00001000
00000100
00000000
00000010
00000000
00000010
,
00000100
00000001
00000001
00000001
,
00000100
00000010
00000100
00010000
,
02000000
03100000
20000000
31000000
,
10000000
00000000
00100000
01000000
00000000
00010000
00000000
00100000
,
00001000
00000000
00001000
00000000
00000000
00010000
00000000
00001000
,
00010000
00000010
00000100
00000010
,
00002000
00003001
00000020
00000031
,
00000100
00000000
00000010
00001000
00000000
00000100
00000000
00010000
,
00001000
00000000
00001000
00000000
00000000
00100000
01000000
00100000
,
00000000
00010000
00000000
01000000
00000000
10000000
00000000
01000000
,
00000000
00100000
00000000
10000000
00000000
01000000
00000000
00100000
,
00000000
00010000
00002000
00000000
00000000
00000000
00000000
00000000
,
00003100
00000000
00000100
00000000
00000100
00000010
00000000
00000100
,
00000000
00001000
00000020
00000000
00000000
00000000
00000030
00000000
;

//---------------dance-double - ----------------
#NOTES:
     dance-double:
     :
     Hard:
     12:
     :
00000000
00000000
00000000
00000000
,
00000000
00000000
00000000
00000000
,
00000000
00000000
00000001
00000010
00000000
00000000
00000010
00000100
00000000
00000000
00000100
00001000
00000000
00000000
00000100
00001000
,
00000100
00000000
00010000
00000000
00001000
00000000
00100000
00000000
00010000
10000000
00010000
10000000
00010000
00000000
01000000
00000000
,
01100000
00000000
10100000
00000000
00100000
00000000
01000000
00010000
,
00110000
00000000
00011000
00000000
00001000
00000000
00010000
00001000
,
00000100
00000000
00000000
00000000
00000002
00000000
00000000
00000000
00000013
00000000
00000100
00001000
00000000
00001000
00000100
00000000
,
00000010
00000000
00000000
00000000
00000002
00000000
00000000
00000000
00000103
00000000
00000010
00001000
00000000
00001000
00000100
00000000
,
00001100
00000000
00011000
00000000
00001000
00000000
01000000
00010000
,
00110000
00000000
01100000
00000000
00100000
00000000
00010000
10000000
,
01000000
00000000
00000000
00000000
20000000
00000000
00000000
00000000
30100000
00000000
01000000
00010000
00000000
00010000
00100000
00000000
,
01000000
00000000
00000000
00200000
00000000
00000000
00000000
00000000
00301000
00000000
00010000
00001000
00000000
00001000
00010000
00000000
,
00000100
00000010
00000001
00000100
00000010
00000100
00000001
00001000
,
00000100
00010000
01000000
00100000
00010000
01000000
00100000
10000000
,
10100000
00000000
00000000
00000000
01010000
00000000
00000000
00000000
10000000
00000000
01000000
10000000
00000000
10000000
01000000
00000000
,
10000000
00000000
00000000
00000000
00200000
00000000
00000000
00000000
01300000
00000000
00010000
00100000
00000000
00100000
00010000
00000000
,
10000000
01000000
00010000
00001000
00000010
00000001
00001000
00000010
,
00000100
00000001
00000100
00002000
00000000
00023000
00000000
00230000
,
00000000
00000000
01300000
00000000
00100000
00000000
00000000
00000000
10000000
00000000
00010000
00100000
00000000
00100000
00010000
00000000
,
00110000
20020000
00000000
00000000
,
30030000
00000000
10000000
01000000
00000000
00000000
01000000
00100000
00000000
00000000
00100000
00010000
00000000
00000000
00010000
10000000
,
00000000
00000000
10000000
00010000
00000000
00000000
00010000
00100000
00000000
00000000
00001000
00000000
00010000
00000000
00001000
00000000
,
00000000
00000000
00010000
00000100
00000000
00000000
00000100
00001000
00000000
00000000
00001000
00000010
00000000
00000000
00000010
00000100
,
00000000
00000000
00000100
00000001
00000000
00000000
00000001
00000010
00000000
00000000
00000100
00000000
00000010
00000000
00000001
00000000
,
00000100
00000000
00000000
00000000
00000020
00000000
00000000
00000000
00001030
00000000
00000100
00000010
00000000
00000010
00000100
00000000
,
00010000
00000000
00000000
00002000
00000000
00000000
00000000
00000000
01003000
00000000
00010000
00100000
00000000
00100000
00010000
00000000
,
10000000
00000000
00200000
00000000
01300000
00010000
00000000
10000000
,
01000000
00000000
10000000
00000000
00100000
00000000
01000000
00000000
00010000
00100000
00010000
00100000
00010000
00100000
00010000
00000000
,
00110000
00011000
00001100
00011000
,
00000010
00000000
00000100
00000001
00000010
00000000
00000100
00000000
,
00001000
00000000
00000000
00000000
00000001
00000000
00001000
00000000
00000000
00000000
00000100
00010000
00000000
00010000
00000100
00000000
,
00010000
00000000
00001000
00000000
01000000
00010000
00100000
00000000
,
01100000
11000000
01010000
00011000
,
00001000
00000000
00010000
00001000
00010000
00000000
00000100
00000010
,
00000001
00000000
00000000
00000000
00001000
00000000
00000010
00000000
00000000
00000000
00000100
00000001
00000000
00000001
00000100
00000000
,
00000010
00000000
00010000
00000000
00001000
00010000
01000000
00100000
,
01100000
00000000
00110000
00000000
00011000
00000000
01010000
01000000
,
01100000
10100000
10010000
00110000
,
01000000
00000000
00000000
00000000
00001000
00000000
00010000
00000000
00000000
00000000
00001000
00010000
00000000
00010000
00001000
00000000
,
00010000
00000000
00000020
00000000
00000000
00000130
00000001
00001000
,
00000000
00000110
00000000
00001010
00000000
00000100
00000001
00001000
,
00000000
00001100
00000000
00011000
00000000
00001000
00010000
00001000
,
00100000
00000000
00000000
00000000
00010000
00000000
00000000
00000000
00000000
00000000
01000000
00100000
00000000
00100000
01000000
00000000
,
00010000
00000000
00100000
00000000
01000000
10000000
01000000
00100000
,
01000000
10000000
00100000
01000000
00100000
01000000
00010000
00100000
,
00001000
00000000
00010000
00001000
00000100
00000000
00001000
00010000
,
01000000
00000000
00000000
00000000
10000000
00000000
00100000
00000000
00000000
00000000
01000000
00010000
00000000
00010000
00100000
00000000
,
00001000
00000000
00000000
00000000
00010000
00000000
00000000
00000000
00001000
00000000
00010000
00000100
00000000
00000100
00001000
00000000
,
00000100
00000010
00000001
00000010
00000001
00000100
00000010
00001000
,
00000100
00000000
00010000
00001000
00000100
00000000
00001000
00010000
,
01000000
00000000
00000000
00000000
00100000
00000000
00010000
00000000
01000000
00000000
00100000
01000000
00000000
01000000
00100000
00000000
,
10000000
00010000
01000000
00100000
01000000
00010000
00100000
00000000
,
00110000
11000000
01010000
00011000
,
00010000
00000000
00010000
00000100
00000010
00000000
00000100
00001000
,
00000100
00000000
00000000
00000000
00001000
00000000
00000001
00000000
00000000
00000000
00000100
00000010
00000000
00000010
00001000
00000000
,
00000100
00000000
00000020
00000000
00000031
00000000
00000100
00000010
,
00000100
00000001
00000000
00000100
00000000
00001000
00000000
00010000
,
00000000
00100000
00000000
01000000
00000000
10000000
01000000
00100000
,
00000000
10000000
01000000
00000000
00100000
00000000
00010000
00000000
,
10000000
00000000
01000000
00000000
00100000
00000000
00001000
00000000
00010000
00001000
00010000
00001000
00010000
00000000
00000100
00000000
,
00000000
00000010
00000200
00000000
00000000
00000000
00000300
00000000
;
