#TITLE:HELL SCAPER;
#ARTIST:L.E.D. LIGHT-G;
#BANNER:HELL SCAPER-bn.png;
#BACKGROUND:HELL SCAPER-bg.png;
#JACKET:HELL SCAPER-jacket.png;
#MUSIC:HELL SCAPER.ogg;
#SAMPLESTART:23.999;
#SAMPLELENGTH:20;
#DISPLAYBPM:190:200;
#BPMS:0=190,138=195,154=200;
#STOPS:72=0.631,182=0.6,272=4.5;
#BGCHANGES:;

//---------------dance-single - ----------------
#NOTES:
     dance-single:
     :
     Beginner:
     5:
     :
0000
0000
0000
0000
,
0000
0000
0000
0000
,
0000
0000
0000
0000
,
1000
0000
0001
0000
,
1001
0000
0000
0000
,
0010
0000
0000
0000
,
0100
0000
0000
0000
,
1000
1000
1000
0000
,
1001
0000
0010
0000
,
0100
0000
0001
0000
,
0010
0000
0001
0000
,
0100
0000
1000
0000
,
0010
0010
0010
0010
,
0010
0010
0010
0000
,
1000
1000
1000
1000
,
1000
0000
0001
0000
,
0110
0000
0000
0000
,
0100
0000
0010
0000
,
0110
0000
0001
0000
,
1000
1000
1000
0000
,
0010
0000
1000
0000
,
0100
0100
0100
0000
,
0010
0000
0001
0000
,
0010
0010
0010
0000
,
0001
0000
0100
0000
,
0001
0001
0001
0000
,
1000
0000
0010
0000
,
0010
0000
0010
0000
,
1000
0001
1000
0000
,
1000
0000
1000
0000
,
0010
0100
0010
0000
,
0010
0000
0010
0000
,
0100
0001
0100
0000
,
0100
0000
0100
0000
,
0010
1000
0010
0000
,
1000
0000
0001
0000
,
0010
0100
0010
0000
,
0001
0000
0100
0000
,
0001
1000
0001
0000
,
0010
0000
0001
0000
,
0100
0010
1000
0000
,
0001
0000
1000
0100
,
0010
0001
1001
0000
,
0110
0000
1000
1000
,
1000
1000
1000
0000
,
1001
0000
0110
0000
,
1001
1001
1001
0000
,
0010
0010
0010
0100
,
0001
0001
0001
0000
,
1000
1000
0001
0100
,
0110
0000
0110
0000
,
0110
0000
0000
0000
,
1000
0000
0010
0010
,
0010
0000
0100
0000
,
0001
0000
1000
1000
,
1000
0000
0100
0000
,
0010
0000
0001
0001
,
0001
0000
0100
0000
,
0001
0000
0100
0100
,
0100
0000
0010
0000
,
1000
0000
0001
0010
,
0001
0000
0100
0000
,
0010
0000
1000
0100
,
1000
0000
0001
0000
,
1000
0000
0010
1000
,
0100
0000
0010
0000
,
0001
0000
0100
0010
,
1000
0100
0010
0001
,
1001
0110
0000
0000
;

//---------------dance-single - ----------------
#NOTES:
     dance-single:
     :
     Easy:
     9:
     :
0000
0000
0000
0000
,
0000
0000
0000
0000
,
0000
0000
0000
0000
,
2000
3002
2003
3002
,
0013
0001
0100
0010
,
1000
0100
1000
0010
,
1000
0001
1000
0100
,
1001
0000
1000
0001
0000
0110
0000
0100
,
0010
1000
0100
0010
,
0001
0100
0001
0010
,
1000
0001
1000
0100
,
0010
0001
0100
1000
,
0010
1000
0001
0010
,
0001
0010
0200
2000
0000
0000
0300
0000
,
0010
0010
0010
0010
,
3020
0030
1000
0001
,
0011
0000
0000
0001
0000
0000
1000
0000
,
0200
0300
1000
0001
,
1010
0000
0001
1000
0001
0000
0010
0000
,
1000
0000
0100
0000
2000
0000
0000
3002
,
0000
0103
0001
0010
,
1000
0000
0100
0000
0020
0000
0000
0230
,
0000
1300
0010
1000
,
0001
0000
0010
0000
0002
0000
0000
2003
,
0000
3010
1000
0100
,
0010
0001
1002
0203
,
0320
0000
0230
0000
0301
1000
0000
1010
,
0000
0001
0000
0100
0000
0010
0000
1000
,
0000
0100
0000
0010
0000
0001
0000
0100
,
0000
0001
0000
0010
0000
0001
0000
0100
,
0000
0010
0000
1000
0000
0100
0000
0010
,
0000
0001
0000
0100
0000
0001
0000
0010
,
0002
0000
2003
0000
3010
1000
0000
0001
,
0000
0010
0000
0001
0000
0100
0000
0010
,
0000
1000
0001
1000
0000
1100
0000
1100
,
0000
1100
0000
1100
0000
1100
0000
0001
,
0200
0000
0320
0000
1030
0001
0000
0011
,
0000
0011
0000
0011
0000
0011
0000
0011
,
0000
0100
0010
0100
0000
1010
0000
1010
,
0000
1010
0000
1010
0000
1010
0000
1000
,
0002
0000
0023
0000
0031
0100
0000
0101
,
0000
0101
0000
0101
0000
0101
0000
0101
,
0000
0001
1000
0001
0100
0000
1001
0000
,
0100
1001
0010
1000
,
0100
0010
0001
0110
,
1000
0000
0110
0000
1001
0000
0010
0100
,
0001
0000
0011
0000
1100
0000
0000
0010
,
0000
1001
0000
1000
0001
1000
0001
0000
,
0100
0000
0110
0000
1001
0000
1000
0100
,
0000
1100
0000
0011
0000
0100
0010
0100
,
0020
2030
3002
0203
,
0310
0010
0010
0010
,
1000
0001
1000
0100
,
0020
0000
0000
0032
0000
0000
0103
0000
,
0001
0010
1000
0001
,
2000
0000
0000
3200
0000
0000
0310
0000
,
0001
0100
0001
1000
,
0002
0000
0000
0203
0000
0000
0310
0000
,
1000
0001
1000
0100
,
1000
0001
0000
0000
1100
0000
0101
0000
,
0010
0001
0100
1000
,
0020
0000
0000
0130
0000
0110
0000
0000
,
0001
0010
1000
0100
,
0002
0000
0000
1003
0000
1010
0000
0000
,
0100
0001
0010
1000
,
0200
0000
0000
0310
0000
0011
0000
0000
,
0100
0001
0010
1000
,
2001
3020
0230
0320
,
2030
3001
0000
0000
;

//---------------dance-single - ----------------
#NOTES:
     dance-single:
     :
     Medium:
     13:
     :
0000
0000
0000
0000
,
0000
0000
0000
0000
,
0000
0000
0000
0000
,
1010
0001
0100
0000
0011
1000
0100
0000
,
1000
0010
0001
0100
0010
1000
0001
0000
,
0010
0001
0100
0010
1000
0001
0100
0000
,
0001
0010
1000
0100
0010
0100
1000
0000
,
0110
0000
1001
1001
0000
0110
0000
1001
,
1001
0000
0010
1000
0100
0010
0001
0100
,
0001
0010
0100
1000
0010
0100
0001
0000
,
1000
0001
0010
0001
0100
0010
1000
0000
,
0100
0010
0001
0100
0001
0010
0100
1000
,
0010
0000
0000
0000
1000
0000
0001
0000
1000
0000
0000
0010
0000
0000
0000
0000
,
0100
0000
0000
0000
0000
0000
0001
0000
0000
0000
0000
0000
1000
0000
0000
0000
0000
0000
2200
0000
0000
0000
0000
0000
0000
0000
0000
0000
0000
0000
0000
0000
0000
0000
0000
0000
0000
0000
0000
0000
0000
0300
0000
0000
0000
0000
0000
0000
,
3001
0010
0100
1000
0001
0010
0100
1000
,
0020
0000
0100
0000
1030
0010
0001
0000
,
0011
0000
1000
1010
0000
0001
1000
0010
,
0200
0000
0001
0000
0310
1000
0001
0000
,
0101
0000
0000
0000
1000
0001
1000
0001
2000
0000
0000
0000
3010
0000
0100
0000
,
0001
1000
0100
0000
0010
0001
1000
0001
,
0010
0100
1000
0000
0020
0000
0130
0001
,
0010
0001
1000
0000
0100
0010
0001
0100
,
0001
0010
1000
0000
0200
0000
1300
0001
,
0010
0001
0100
0000
0001
0010
0100
1000
,
0010
1000
0100
0000
0002
0000
0013
0001
,
0100
0010
1000
0000
1001
0001
1000
0001
,
1000
0001
1000
0001
0100
0110
0000
1001
,
0000
0010
1000
0100
0000
0011
0000
0001
,
1000
0010
1000
0100
0000
1100
0000
0101
,
0000
1000
0001
0100
0000
0011
0000
1010
,
0000
0001
1000
0010
0000
1001
0000
1010
,
0000
0100
1000
0001
0000
0011
0000
0100
,
0002
0000
0000
2003
0000
0000
3001
0000
0000
0000
0011
0000
0000
0000
1100
0000
,
0000
0101
0000
1001
1001
0000
0010
1000
,
0100
0010
0001
1000
0001
0101
0000
0011
,
0000
0110
0000
1100
0000
1010
0000
0101
,
0101
0000
0000
1000
0000
0000
0001
0000
0000
0000
1001
0000
0000
0000
0011
0000
,
0000
1100
0000
0101
0000
1010
0000
0110
,
0000
0010
1000
0001
0100
1001
0000
1010
,
0000
1100
0000
0011
0000
1010
0000
0101
,
0101
0000
0000
0010
0000
0000
0100
0000
0001
0000
0010
0000
1000
0000
0000
0000
,
0001
0010
1000
0000
1100
0000
0101
0000
,
1010
0000
0011
0000
0100
0010
1001
0000
,
0100
0010
1001
0000
1000
1100
0000
0101
,
0000
1100
0000
0101
0000
0011
0000
0110
,
0000
0000
1100
0000
0000
0000
1001
0000
1001
0000
0000
0000
0010
0000
1000
0001
,
1000
1000
1000
1000
1000
0000
0000
1100
,
0000
1010
0000
0101
0001
0001
0001
0001
,
0010
0010
0010
0010
0010
0000
0110
0110
,
0000
1001
0000
1100
0100
0100
0100
0100
,
1000
0001
0100
0000
1010
0000
0101
0000
,
0010
1000
0001
1000
0010
0100
0001
0100
,
0010
1000
0001
0000
0010
0100
1000
0000
,
0002
0000
0103
0020
0000
1030
0001
0000
,
1000
0100
0010
0000
0001
0100
0010
0000
,
2000
0000
3001
0020
0000
0031
0100
0000
,
0010
1000
0001
0000
0011
0000
0100
0110
,
0000
0010
1000
0000
1001
0000
0110
0000
,
1000
0100
0001
0000
0010
0100
1000
0000
,
1100
1100
0000
0000
0001
1000
0001
1000
,
0010
1000
0100
0000
0001
1000
0010
0000
,
0110
0000
0010
1000
0000
0102
0103
0000
,
0010
0100
1000
0000
0001
0010
1000
0000
,
1100
0000
0010
0100
0000
1002
1003
0000
,
0010
1000
0001
0000
1000
0100
0001
0000
,
0011
0000
1000
0100
0000
2010
3010
0000
,
0001
0010
0100
0000
1000
0001
0100
0000
,
1001
0001
1000
0001
1000
0001
1000
0001
,
0020
0000
0000
0030
1001
0000
0000
0000
0000
0000
0000
0000
0000
0000
0000
0000
;

//---------------dance-single - ----------------
#NOTES:
     dance-single:
     :
     Hard:
     17:
     :
0000
0000
0000
0000
,
0000
0000
0000
0000
,
0000
0000
0000
0000
,
2010
0000
0000
0000
3002
0000
0000
0000
0203
0000
0000
0000
0310
1000
0010
1000
,
0001
0000
0010
0001
0100
0000
0010
1000
0100
0000
1000
0001
1000
0010
0000
0100
,
0001
0000
0010
0100
1000
0000
0001
1000
0010
0000
1000
0001
1000
0010
0000
0100
,
0001
0000
1000
0100
0010
0000
0001
0100
0001
0000
0010
0001
1000
0100
0000
1000
,
0010
0000
1001
1001
0000
0110
0000
1010
,
0101
0000
0000
0000
0010
0000
1000
0001
1000
0000
0100
0010
0001
0100
0000
0001
,
1000
0000
0010
1000
0100
0000
0010
0001
1000
0000
0001
0010
0001
0100
0000
0100
,
0010
0000
1000
0100
1000
0000
0010
0100
0001
0000
1000
0001
0010
0001
0000
0100
,
0001
0000
0010
0001
1000
0100
1000
0001
0100
0000
0010
1000
0010
0100
0001
1000
,
0020
0000
0000
0000
1030
0000
0001
0000
1000
0000
0000
0010
0000
0000
0000
0000
,
0100
0000
0000
0000
0000
0000
0001
0000
0000
0000
0000
0000
1000
0000
0000
0000
0000
0000
2200
0000
0000
0000
0000
0000
0000
0000
0000
0000
0000
0000
0000
0300
0000
0000
0000
0000
3001
0000
0000
1000
0000
0000
0001
0000
0000
0000
0000
0000
,
1000
0100
1000
0100
0010
0001
0010
0001
1000
0010
1000
0010
0100
0001
0100
0001
,
0020
0000
0031
0100
2000
0001
3001
0000
,
0011
0000
0000
0001
0100
0000
1010
0000
0000
0010
1000
0000
0110
0000
0001
1000
,
0002
0000
0013
0001
2000
0100
3100
0000
,
0101
0000
0000
0000
1000
0001
0100
0010
2000
0000
0000
0000
3100
0000
0010
0000
,
0001
0100
0001
0000
1000
0010
1000
0000
0200
0000
0010
0000
0310
0000
0002
0000
,
0103
0000
1000
0001
1000
0010
0100
0000
0020
0000
0000
0000
1030
0000
0001
0000
,
0010
0100
1000
0000
0001
0100
0001
0000
0020
0000
0100
0000
0130
0000
2000
0000
,
3010
0000
0100
0001
1000
0001
0010
0000
0200
0000
0000
0000
1300
0000
0010
0000
,
0100
0001
1000
0000
0001
0010
0100
0000
2000
0000
0001
0000
3001
0000
0020
0000
,
0130
0000
1000
0010
1000
0001
0100
0000
0002
0000
0000
0000
0013
0000
0100
0000
,
1000
0010
1000
0000
0100
0000
0000
0000
1002
0000
0023
0000
2030
0000
3200
0000
,
0320
0000
0032
0000
0103
0010
1000
0001
0100
0000
1010
0000
0000
0000
0101
0000
,
0000
0011
0110
1100
0000
1001
0000
1010
,
0102
0203
0302
2003
3100
0110
0000
0011
,
0000
1001
1010
1100
0000
0110
0000
0011
,
0000
1001
0101
0011
0001
1100
0000
0011
,
0000
1010
1001
0101
0000
0011
0000
1100
,
0101
0000
0001
1000
0000
0001
1000
0000
0010
0000
1010
0000
0000
0000
0101
0000
,
0000
0011
0110
1100
1001
0100
0010
1000
,
0001
0020
0230
2300
3010
1000
0100
0001
,
0100
0010
0100
1000
0010
0100
1000
0100
,
0001
0000
1000
0100
0000
0100
0010
0000
0001
0000
1000
0000
0001
0000
0010
0000
,
1000
0010
0100
0010
0001
0100
1000
0100
,
0010
1001
0110
0100
0001
0010
1000
0100
,
0010
1000
0100
0001
0010
0100
1000
0010
,
0100
0000
0001
0010
0000
0001
1000
0000
1001
0000
0010
0000
1000
0000
0100
0000
,
0110
0010
0001
1000
1100
0000
0101
0000
,
1010
0000
0000
0000
0011
0000
0000
0000
0100
0000
0001
0010
2000
0000
0000
0000
,
3100
0000
0110
0000
1002
0000
0000
0000
0103
0000
0001
0010
1000
0000
0100
0000
,
1100
0012
0000
0103
0010
2010
0000
3001
,
1000
0000
1200
0000
0000
0000
0310
0000
0002
0000
0000
0000
0103
0000
0001
1000
,
0001
0011
0011
0011
0011
0000
0100
1001
,
0000
1010
0000
0100
1100
1100
1100
1100
,
0001
0101
0101
0101
0101
0000
0110
0110
,
0000
1010
0000
0001
1001
1010
1100
1000
,
1001
0000
0001
0010
0100
0000
0000
0000
1001
0000
1000
0100
0010
0000
0000
0000
,
0001
0000
0001
0000
1000
0000
1000
0000
0010
0100
0001
0010
0100
1000
0010
0100
,
0001
0000
0010
0000
0100
0000
1000
0000
0010
1000
0001
0000
0010
0100
1000
0000
,
0010
1000
0010
1000
0010
0000
0100
0001
0100
0001
0100
0000
0001
0010
0100
1000
,
0010
0000
0100
0000
0001
0000
0010
0000
0100
1000
0001
0000
0100
0010
1000
0000
,
0100
0010
0100
0010
0100
0000
1000
0001
1000
0001
1000
0000
0001
0010
0100
1000
,
0001
0000
1000
0000
0010
0000
1000
0000
0100
0010
0001
0000
1000
0100
1000
0000
,
0010
0100
0001
0100
0010
0000
1000
0001
0010
0001
1000
0000
0100
0010
0100
0010
,
0100
0000
1000
0000
0010
0000
0100
0000
0001
0010
0001
0000
1000
0100
0010
0000
,
0011
0000
1100
0000
0000
0000
0010
0000
1000
0001
1000
0001
0100
0010
0100
0010
,
1000
0000
0100
0000
0010
0000
0001
0000
0100
0001
0010
0000
0001
1000
0100
0000
,
1000
0010
0001
0010
1000
0000
0001
0010
1000
0010
0001
0000
0100
0010
1000
0001
,
0100
0000
0010
0000
1000
0000
0001
0000
0010
0100
0010
0000
0001
1000
0100
0000
,
1000
0100
0001
0100
1000
0000
0001
0100
1000
0100
0001
0000
0010
0001
1000
0100
,
1000
0000
0001
0000
0010
0000
0001
0000
0100
0010
1000
0000
0001
1000
0100
0000
,
0001
0010
1000
0010
0001
0000
1000
0010
0001
0010
1000
0000
0100
0010
0001
1000
,
0010
0000
1000
0000
0001
0000
0010
0000
0100
1000
0001
0000
0100
0010
1000
0000
,
1002
0023
2030
3200
2300
3020
0230
0302
,
0023
0000
0000
0030
1010
0000
0000
0000
0000
0000
0000
0000
0000
0000
0000
0000
;
