#TITLE:HELL SCAPER;
#SUBTITLE:(kors k Remix);
#ARTIST:L.E.D. LIGHT-G Remixed by kors k;
#BANNER:HELL SCAPER (kors k Remix)-bn.png;
#BACKGROUND:HELL SCAPER (kors k Remix)-bg.png;
#JACKET:HELL SCAPER (kors k Remix)-jacket.png;
#MUSIC:HELL SCAPER (kors k remix).ogg;
#OFFSET:0.005;
#SAMPLESTART:63.153;
#SAMPLELENGTH:20;
#DISPLAYBPM:190;
#BPMS:0=190;
#BGCHANGES:;

//---------------dance-single - ----------------
#NOTES:
     dance-single:
     :
     Beginner:
     5:
     :
0000
0000
0000
0000
,
0000
0000
0000
0000
,
0000
0000
0000
0000
,
0000
0000
0000
0000
,
0000
0000
0000
0000
,
0000
0000
0000
0000
,
0010
0000
0001
0001
,
0001
0000
1000
0000
,
0010
0000
0100
0100
,
0100
0000
0001
0000
,
0010
0010
0010
0000
,
0001
0001
0001
0000
,
1000
0000
0001
0000
,
1000
0000
0001
0000
,
0010
0000
0100
0000
,
1001
0000
0000
0000
,
0010
0000
1000
0000
,
0100
0000
0010
0000
,
0001
0000
0100
0000
,
0010
0010
0010
0000
,
1000
0000
0001
0000
,
1000
0000
0100
0100
,
0100
0000
0010
0000
,
0110
0000
0000
0000
,
0001
0001
0000
1000
,
0000
0001
0000
0010
,
0000
0100
0000
1000
,
0000
0100
0000
0010
,
0000
0001
0000
1000
,
0000
0010
0010
0000
,
1001
0000
0110
0000
,
1001
0000
0000
0000
,
0100
0100
0100
0000
,
1000
1000
1000
0000
,
0001
0001
0001
0000
,
0010
0010
0010
0000
,
0001
0000
0100
0000
,
1000
0000
0010
0000
,
0100
0000
0001
0000
,
0110
0000
0000
0000
,
1000
0000
0001
0001
,
0001
0000
0010
0000
,
0100
0000
1000
1000
,
1000
0000
0010
0000
,
1000
0000
0100
0000
,
0010
0000
0001
0000
,
1000
0000
0010
0000
,
0100
0000
0001
0000
,
0020
0000
0030
0000
,
0200
0000
0300
0000
,
0110
0000
0000
0000
,
0001
0002
0000
0000
,
0000
0000
0003
0000
,
1001
0000
0010
0010
,
0010
0000
1000
0000
,
0100
0000
0010
0010
,
0010
0000
0001
0000
,
1000
0000
0001
0001
,
0001
0000
0100
0000
,
0010
0000
1000
1000
,
2000
0000
3000
0000
,
0010
0000
1000
0000
,
0100
0010
0100
0000
,
1000
0000
0010
0000
,
0100
0001
0100
0000
,
0001
0000
0010
0000
,
0001
1000
0001
0000
,
1000
0010
1000
0010
,
0100
0001
1000
0000
,
0000
0010
0000
0010
,
0000
1000
0000
0001
,
0000
1000
0000
0100
,
0000
0010
0000
0001
,
0000
0100
0000
0010
,
1000
0100
1000
0001
,
0010
0000
0100
0000
,
1001
0000
0000
0000
,
0100
0000
0100
0000
,
0010
0000
0001
1000
,
0001
0000
0100
0000
,
0110
0000
0000
0000
,
1000
1000
1000
0000
,
0010
0010
0010
0000
,
0100
0100
0100
0000
,
0001
0001
0001
0000
,
0010
0001
0010
0100
,
1000
0001
1000
0000
,
0010
0010
0100
0100
,
0001
0000
1000
0000
,
0020
0000
0000
0000
,
0030
0000
0000
0000
,
0000
0000
0000
0000
,
0000
0000
0000
0000
,
1000
0001
1000
0001
,
0200
0000
0000
0300
;

//---------------dance-single - ----------------
#NOTES:
     dance-single:
     :
     Easy:
     9:
     :
0000
0000
0000
0000
,
0000
0000
0000
0000
,
0000
0000
0000
0000
,
0000
0000
0000
0000
,
0000
0000
0000
0000
,
0000
0000
0000
0000
,
0010
0001
0101
0101
,
1000
0001
0010
0100
,
1000
0010
1100
1100
,
0001
0100
1010
1010
,
1000
0001
0011
0011
,
0100
0010
1001
1001
,
0010
1000
0100
0010
,
0001
0100
0001
0010
,
0001
0100
1000
0010
,
0200
0000
0000
0310
,
0110
0001
0010
1000
,
0100
0010
0100
1000
,
0010
0000
1000
0000
0100
0000
0010
0001
,
1000
0000
0100
1000
0001
0000
0110
0000
,
1000
0010
0001
1000
,
0010
0100
0101
1010
,
0001
1000
0001
0000
1000
0001
1000
0000
,
0200
0320
0230
0320
,
0130
1000
0010
1000
,
0100
0000
0010
0001
1000
0000
1000
0000
,
0010
1000
0010
0001
,
0100
0000
0001
1000
0010
0000
1000
0001
,
0100
0000
0010
0000
1000
0000
0100
0010
,
0001
0000
1000
0001
1000
0000
1100
0000
,
0012
0103
2010
3100
,
0110
0002
2000
3003
,
0100
0010
0001
1000
,
0010
1000
0100
0001
,
1000
0100
0001
0010
,
0001
1000
0010
0100
,
0001
0100
0001
0000
1000
0010
1000
0000
,
0100
1000
0100
0000
0010
0001
0010
0000
,
2000
3020
0230
0302
,
0023
0000
0000
0000
0000
0000
0031
1000
,
0001
0000
0100
0000
1000
0000
0010
0100
,
0000
0010
0100
0000
0001
0000
1000
0000
,
0100
0000
0010
0000
0001
0000
1000
0010
,
0000
1000
0010
0000
0100
0000
0001
0000
,
0010
0011
0001
0101
,
0100
1100
1000
1010
,
0010
0011
0001
0101
,
0100
1100
1000
1010
,
0020
0000
0000
0000
,
0200
0000
0000
0330
,
0110
0001
1000
0000
,
0100
1000
0002
0200
0000
0000
0000
0000
,
0000
0000
0000
0303
,
1001
0000
1001
0000
0110
0000
1000
0010
,
0000
1000
0100
0000
0010
0000
0001
0000
,
0101
0000
0101
0000
0010
0000
1000
0001
,
0000
0010
0100
0000
1000
0000
0010
0000
,
1100
0000
1100
0000
0010
0000
0100
0001
,
0000
0001
1000
0000
0010
0000
0100
0010
,
1000
0000
0001
0000
0010
1000
0100
0000
,
1000
0001
2000
0002
0000
0000
3003
0000
,
0100
0010
1000
0001
,
0010
0001
0100
1000
,
0010
1000
0001
0010
,
0001
0000
0100
0000
1000
0000
0010
0100
,
0010
1000
0001
0010
,
1000
0001
0010
0100
,
0010
0000
0001
0000
0100
0000
1000
0010
,
1000
0002
0200
0303
,
0010
1000
0100
0010
,
0001
0000
0100
0001
1000
0000
0010
0000
,
1000
0000
0001
0000
1000
0000
0100
0010
,
0001
0000
0010
0100
1000
0000
0010
0000
,
1000
0000
1100
0000
0101
0000
0001
0100
,
1000
0000
0010
1000
0100
0000
0110
0000
,
2001
3010
1002
0103
,
1010
0002
2000
3003
,
0100
0011
0100
1010
,
0001
0000
0010
0100
1000
0000
0001
0000
,
0100
0010
1000
0000
0001
0000
0100
0000
,
0101
2000
0020
3030
,
0100
0010
0100
0010
0100
0000
0000
0010
,
0000
0100
0010
0000
0100
0000
0010
0000
,
0100
0010
0100
0010
0100
0000
0000
0010
,
0000
0100
0010
0000
0100
0000
0010
0000
,
1001
0000
0001
0100
1000
0000
0010
1000
,
0100
0000
0010
0001
1000
0000
0010
0100
,
0010
1000
0100
0001
,
1000
0010
0001
0100
,
0020
0000
0000
0000
,
1030
0001
1000
0001
,
1000
0001
1000
0001
,
1000
0001
1000
0001
,
1000
0001
1000
0001
1000
0001
1000
0001
,
0200
0000
0000
0300
;

//---------------dance-single - ----------------
#NOTES:
     dance-single:
     :
     Medium:
     13:
     :
0000
0000
0000
0000
,
0000
0000
0000
0000
,
0000
0000
0000
0000
,
0000
0000
0000
0000
,
0000
0000
0000
0000
,
0000
0000
0000
0000
,
0010
0000
0000
0000
0001
0000
0000
0000
0100
0000
0010
0000
1000
0000
0000
0001
,
0010
0100
0010
0100
0010
0001
1000
0000
,
1010
0000
0000
0000
0101
0000
0000
0000
0010
0000
0100
0000
1000
0000
0000
0001
,
0100
0000
0000
0000
0010
0000
0000
0000
1000
0000
0001
0000
1000
0000
0000
0100
,
0010
0000
0000
0000
0001
0000
0000
0000
1000
0000
0010
0000
1000
0000
0000
0100
,
1000
0000
0000
0000
0001
0000
0000
0000
0010
0000
0001
0000
0100
0000
0000
0010
,
1000
0100
0010
0001
0100
0000
0010
1000
,
0000
0100
1000
0001
0000
0011
0000
1100
,
0000
0001
0010
0100
1000
0010
1000
0001
,
0200
0000
0000
0000
0000
0000
0310
0100
,
0010
1000
0100
1000
0001
0000
0010
0001
,
0100
0000
0010
1000
0100
0010
0000
0110
,
0000
0001
0100
0000
0001
0010
0100
1000
,
0010
0000
1000
0001
1000
0100
0000
0010
,
0001
0100
1000
0000
1001
0000
0010
0100
,
0001
0010
0100
1000
0000
0001
0000
1000
,
0010
0100
0002
0000
0013
0100
2000
0000
,
3200
0320
0230
0320
0230
0320
0230
0320
,
0031
0100
1000
0010
0000
1000
0100
0010
,
0000
0001
0100
0010
1000
0001
1000
0100
,
0000
0010
0001
1000
0000
0010
1000
0001
,
0000
0010
0100
0010
0002
0000
1003
0001
,
1000
0100
0010
0000
0001
0000
0001
0100
,
1000
0000
0000
0000
0010
0000
1000
0000
0001
0000
0000
0001
0000
0000
0001
0000
,
0200
0000
0310
0000
1000
0100
0002
0000
,
0013
1001
0110
1000
,
0100
0010
0100
0010
0100
0000
0000
0100
,
0000
0100
0010
0100
0010
0000
0100
0000
,
0100
0000
0100
0010
0100
0000
0000
0100
,
0000
0100
0010
0100
0010
0000
0100
0000
,
0001
0100
1000
0000
0001
0010
1000
0000
,
0001
0100
0001
0100
0010
1000
0010
1000
,
0002
2003
3020
0230
,
0302
0000
2000
0000
3003
0000
0100
0010
,
0001
0000
0100
0000
0001
1000
0100
0010
,
0000
0001
0001
0000
0010
0001
0010
0100
,
1000
0000
0000
0010
0000
0000
1000
0000
0001
0000
0100
0000
0001
0000
0010
0000
,
0000
0100
0100
0000
1000
0010
1000
0001
,
0010
0000
0000
0010
0000
0000
0010
0000
0001
0000
0000
0001
0000
0000
0001
0000
,
0100
0000
0000
0100
0000
0000
0100
0000
1000
0000
0000
1000
0000
0000
1000
0000
,
0001
0011
0000
1100
0000
0011
0000
1100
,
0000
0101
0000
1010
0000
0101
0000
1010
,
0020
0000
0000
0000
,
0200
0000
0000
0330
,
0110
0000
0000
0000
0001
0000
1000
0000
0001
0000
0000
0010
0000
0000
0000
0000
,
0100
1000
0002
0200
0000
0000
0003
0000
,
0010
0010
0010
0310
,
1001
0000
0110
0000
0001
0100
1000
0010
,
0001
1000
1000
0000
0100
0010
0001
0100
,
0010
0000
1000
0100
1000
0001
0010
0100
,
1000
0010
0010
0000
1000
0100
0010
0001
,
0010
0100
0010
0001
1000
0010
1000
0100
,
0010
0001
0001
0000
1000
0010
1000
0001
,
0011
0000
0100
0001
1000
0010
1000
0100
,
0010
0001
0020
0002
0030
0000
0103
0010
,
0100
0001
1000
0100
0010
0001
1000
0010
,
0100
0000
0000
0100
0001
0000
0000
0001
1000
0000
0000
1000
0100
0000
0000
0000
,
0010
0100
1000
0010
1000
0001
0100
0001
,
0010
0000
0000
0010
0001
0000
0000
0001
1000
0000
0000
1000
0010
0000
0000
0000
,
0100
0010
1000
0001
0010
0100
1000
0001
,
1000
0000
0000
1000
0010
0000
0000
0010
0100
0000
0000
0100
0010
0000
0000
0000
,
0100
0001
0010
0001
1000
0010
1000
0100
,
0010
0002
2000
3003
,
0010
1000
0000
1100
0000
1010
0000
0101
,
0000
0011
0000
0010
0001
0100
0001
1000
,
0000
0101
0000
1001
0000
1010
0000
1100
,
0000
0110
0000
0011
0000
0001
0100
1000
,
0000
1100
0000
1010
0000
1001
0000
0101
,
0000
0000
0011
0000
0000
0000
0001
0000
0100
0000
0000
0010
0000
0000
1000
0000
,
0000
0110
0002
0000
1003
0010
0200
0000
,
0301
1000
0020
0000
0200
0000
0330
0000
,
0001
1000
0020
0000
1030
0001
0200
0000
,
0301
0010
1000
0010
0001
0100
0010
0000
,
1000
0001
0200
0000
0310
1000
0200
0000
,
0310
0000
0011
0000
1100
0000
0001
1000
,
0100
0010
0100
0010
0100
0000
0000
0100
,
0000
0100
0010
0100
0010
0000
0100
0000
,
0100
0010
0100
0010
0100
0000
0000
0100
,
0000
0100
0010
0100
0010
0000
0100
0000
,
1000
0100
0001
0100
2000
0000
3001
0100
,
0020
0000
1030
0001
2000
0000
3100
0010
,
0002
2003
3020
0230
,
0301
0010
0100
1000
0010
0100
0001
1000
,
0020
0000
0000
0000
,
1030
0001
1000
0001
1000
0001
1000
0001
,
1000
0001
1000
0001
1000
0001
1000
0001
,
1000
0001
1000
0001
1000
0001
1000
0001
,
1000
0001
1000
0001
1000
0001
1000
0001
,
0200
0000
0000
0300
;

//---------------dance-single - ----------------
#NOTES:
     dance-single:
     :
     Hard:
     15:
     :
0000
0000
0000
0000
,
0000
0000
0000
0000
,
0000
0000
0000
0000
,
0000
0000
0000
0000
,
0000
0000
0000
0000
,
0000
0000
0000
0000
,
0010
0000
0001
0000
0100
0000
0001
0000
1000
0010
0000
0000
1000
0000
0000
0100
,
0010
0001
0010
0100
1000
0001
1000
0000
,
1010
0000
0000
0000
0101
0000
0000
0000
0010
0001
0000
0000
0100
0000
0000
0001
,
0010
0000
0100
0000
0010
0000
0001
0000
1000
0100
0000
0000
1000
0000
0000
0001
,
1000
0000
0000
0100
0010
0000
0000
0000
0001
1000
0000
0000
0010
0000
0000
0100
,
0001
0000
0000
0010
0001
0000
1000
0000
0100
0010
0000
0000
0100
0000
0000
1000
,
0001
0100
0001
0100
0010
1000
0010
1000
,
0100
0010
0100
0010
0001
1000
0001
1000
,
0100
1000
0100
1000
0001
0010
0001
0010
,
0002
2000
0000
0000
0000
0000
0000
0000
3003
0000
0000
0000
0100
0010
0100
0010
,
0100
1000
0010
0100
0001
0010
0001
1000
,
0100
0010
0001
0100
0010
1000
0001
1000
,
0100
0010
0001
0100
0010
1000
0001
1000
,
1000
0000
0000
0000
0010
0100
0010
0000
0100
0000
0000
0000
0110
0000
0000
0000
,
1001
0100
0001
0000
0010
0001
1000
0100
,
0010
0001
0010
0100
1000
0001
1000
0100
,
0010
0010
0011
0000
0100
0100
1100
0000
,
0200
0320
0230
0320
0230
0320
0230
0320
,
0130
1000
0010
0001
0000
0010
0100
1000
,
0000
0010
1000
0001
1000
0100
0010
0001
,
0000
0010
0001
1000
0000
0100
0010
0001
,
0100
0000
0010
0000
1000
0000
0001
0000
1000
0000
0000
0000
0010
0100
0010
0100
,
0010
1000
0001
0010
0000
0001
0100
1000
,
0001
1000
0001
0000
0010
0000
0100
0000
1000
0000
0000
1000
0000
0000
1000
0000
,
0010
0100
0101
0000
0001
1000
1100
0000
,
0010
0000
0000
0000
1001
0000
0000
0000
0110
0000
0000
0000
1000
0001
1000
0000
,
0100
0100
0100
0100
0100
0000
0001
0100
,
0000
0000
0100
0000
0100
0000
0100
0000
0100
0000
0000
0000
0100
0010
1000
0010
,
0100
0100
0100
0100
0100
0000
1000
0100
,
0000
0000
0100
0000
0100
0000
0100
0000
0100
0000
0000
0000
0100
0001
0010
0001
,
0100
0010
0100
0001
0010
1000
0001
1000
,
0100
0010
1000
0100
1000
0001
0010
0001
,
0100
0010
1000
0001
0100
0010
1000
0001
,
0011
0000
0000
0000
2020
0000
0000
0000
0030
0000
0000
0000
3001
1000
0001
1000
,
0001
0000
0100
0000
0010
1000
0100
0010
,
0000
0000
0001
0000
0001
0000
0000
0000
1000
0100
1000
0100
1000
0100
1000
0000
,
0010
0100
0010
1000
0100
0010
0001
1000
,
0000
0000
0010
0000
0010
0000
0000
0000
0100
0001
0100
0001
0100
0001
0100
0000
,
0010
0000
0000
1000
0000
0000
1100
0000
0010
0000
0000
0001
0000
0000
0101
0000
,
1000
0000
0000
0100
0000
0000
0011
0000
0001
0000
0000
0100
0000
0000
1010
0000
,
0001
0010
1000
0010
0001
0010
1000
0010
,
0001
0100
1000
0100
0001
0100
1000
0100
,
0020
0000
0000
0000
,
0200
0000
0000
0330
,
0110
0000
0000
0000
0001
0000
1000
0000
0001
0000
0000
0010
0000
0000
0000
0000
,
0100
1000
0001
0100
0010
1000
0010
1000
,
0010
1000
0010
1000
0010
1000
0010
0000
,
1001
0000
0000
0000
0100
0000
0001
0000
0010
0100
0000
0010
0100
0000
1000
0000
,
0010
0000
0100
0000
0100
0000
0000
0000
0001
0010
0001
0000
1000
0010
1000
0000
,
0100
0000
0010
0000
0001
0000
0100
0000
0010
1000
0000
0010
1000
0000
0001
0000
,
0100
0000
0010
0000
0010
0000
0000
0000
1000
0100
1000
0100
0010
0001
0100
0000
,
0001
0000
1000
0100
1000
0000
0010
0000
0100
0001
0000
0100
0001
0000
1000
0000
,
0100
0000
0001
0000
0001
0000
0000
0000
0010
0100
0010
0001
0100
0010
1000
0000
,
0001
0100
0001
0010
0100
1000
0010
1000
,
0001
0000
1000
0000
0002
0000
2000
0000
0003
0000
0000
0000
3010
0100
0010
0100
,
0010
0000
1000
0000
0100
0000
0010
0000
0001
1000
0010
0000
0100
0001
1000
0000
,
0100
0000
0010
0001
0100
0000
0010
0000
1000
0100
1000
0000
0001
0100
0001
0000
,
0010
0000
0100
0000
1000
0000
0010
0000
1000
0001
1000
0000
0010
0100
0001
0000
,
1000
0100
1000
0000
0001
0100
0001
0000
1000
0010
1000
0000
0001
0010
0001
0000
,
0100
0000
0010
0000
1000
0000
0001
0000
0010
0100
0000
0100
1000
0000
0001
0000
,
0100
0000
0001
0000
0010
0000
0001
0000
1000
0100
1000
0000
0001
0100
0001
0000
,
0010
0000
0001
1000
0100
0000
1000
0001
0100
0000
0000
0000
0010
0000
0010
0000
,
1010
0000
0000
0000
0101
0000
0000
0000
1100
0000
0000
0000
0001
1000
0001
1000
,
0001
0010
1000
0010
0100
0010
1000
0010
,
0001
0010
1000
0010
0100
0010
0001
1000
,
0010
0100
0010
0001
0010
1000
0010
0100
,
0010
0000
0001
0000
0010
0000
1000
0000
0010
0000
0001
0000
0010
0100
0010
0100
,
0010
0100
1000
0100
0001
0100
0010
0100
,
1000
0100
0001
0000
0010
0000
0100
0000
1100
0000
0000
0110
0000
0000
0011
0000
,
1000
0001
0110
0000
0010
0100
1001
0000
,
0100
0000
0010
0000
1001
0000
0000
0000
0110
0000
0000
0000
1000
0100
0010
0001
,
0100
0100
1010
0000
0100
0100
0011
0000
,
0100
0000
0100
0010
1000
0000
0001
0000
0002
0000
0023
0000
0130
0000
0000
0000
,
1000
1000
0011
0000
1000
1000
1000
0001
,
1100
0000
0000
0000
0002
0000
0000
0000
0203
0000
0000
0000
0310
1000
0010
0000
,
0100
0100
0100
0100
0100
0000
0001
0100
,
0000
0000
0100
0000
0100
0000
0010
0000
0100
0001
1000
0000
0100
0000
0010
0000
,
0100
0100
0100
0100
0100
1000
0000
0100
,
0000
0000
0100
0000
0100
0000
0010
0000
0100
0000
0000
0000
0100
1000
0001
0000
,
0100
0100
0100
0100
0100
0020
1030
1000
,
1000
0002
0013
0010
0010
0001
0100
0010
,
1000
0100
0010
0001
0010
0100
1000
0000
0001
0100
0000
0000
1000
0100
0000
0000
,
0010
0001
1000
0100
0010
1000
0001
0100
,
0020
0000
0000
0000
,
0031
0010
1000
0010
0001
0010
1000
0010
,
0001
0010
1000
0010
0001
0010
1000
0010
,
0001
0010
1000
0010
0001
0010
1000
0010
,
0001
1000
0001
1000
0001
1000
0001
1000
0001
1000
0001
1000
0001
1000
0001
1000
,
0200
0000
0000
0300
;

//---------------dance-single - ----------------
#NOTES:
     dance-single:
     :
     Challenge:
     18:
     :
0000
0000
0000
0000
,
0000
0000
0000
0000
,
0000
0000
0000
0000
,
0000
0000
0000
0000
,
0000
0000
0000
0000
,
0000
0000
0000
0000
,
0010
0001
0000
0000
0100
0000
0000
0000
0010
1000
0000
0000
0100
0000
0000
1000
,
0001
0000
0010
0100
0010
0000
0001
0000
1000
0000
0100
0000
1000
0000
0000
0000
,
0010
1000
0000
0000
0100
1000
0000
0000
0001
0010
0001
0000
0100
0000
0010
1000
,
0010
0000
0100
0001
0100
0000
0010
1000
0010
1000
0001
0000
0100
0000
0001
1000
,
0010
0000
1000
0100
1000
0000
0001
0100
0001
0000
1000
0010
1000
0000
0001
0010
,
0001
0000
0100
0010
0100
0000
0001
1000
0010
1000
0001
0000
0010
0000
0100
1000
,
0001
0000
0010
0001
1000
0000
0100
0000
1000
0000
0010
0100
0001
0000
1000
0000
,
0100
0010
0001
0100
0010
1000
0001
0010
,
0100
0001
0100
1000
0010
0100
0010
1000
,
0002
2000
0000
0000
0000
0000
0000
0000
3003
0000
0000
0000
0010
0100
0010
0100
,
0001
0010
1000
0010
0100
0001
0100
0010
,
1000
0010
0001
0100
0010
0001
0010
1000
,
0100
0010
0001
0100
1000
0010
1000
0001
,
0001
0000
0000
0000
0010
0100
1000
0000
0010
0000
0100
0000
0001
0000
1000
0001
,
0100
0010
0001
0010
0100
1000
0100
0001
,
0010
0000
1000
0000
0010
0000
0100
0000
0010
0001
1000
0000
0100
1000
0001
0000
,
0110
0000
0110
0000
0001
0100
0010
0000
1001
0000
1001
0000
1000
0100
0010
0001
,
0200
0320
0230
0320
0230
0320
0230
0320
0230
0320
0230
0320
0230
0320
0230
0320
,
1030
0000
0100
0000
1000
0001
0010
0000
0001
0000
0100
0000
0010
1000
0100
0000
,
0010
0000
0001
0000
1000
0001
0100
0000
0010
0000
1000
0100
1000
0000
0001
0100
,
0001
0000
0010
0000
0001
1000
0100
0000
0010
0000
0100
0000
1000
0001
0010
0000
,
0001
0000
0100
0000
0010
1000
0100
0000
0010
0000
0000
0000
0001
1000
0001
1000
,
0001
0000
0010
0000
0100
1000
0010
0000
1000
0000
0001
0000
0010
0100
1000
0000
,
0001
1000
0001
1000
0001
0000
0000
0000
0100
0000
0000
0000
0100
0000
0000
0000
0101
0000
0000
0000
0000
0000
1010
0000
0000
0000
0000
0000
1100
0000
0000
0000
,
0101
0000
0001
1000
0200
0000
0000
0310
0001
0100
0010
1000
0001
2000
0000
0000
,
3100
0000
0010
0001
1000
0000
0000
0000
1001
0000
0010
0000
0100
0001
0100
0001
,
0100
0000
0100
0000
0100
0010
0100
0000
0100
0000
0001
0000
1000
0010
0100
0000
,
0001
0000
0100
0000
0100
1000
0100
0000
0100
0000
0010
0000
0100
0001
1000
0000
,
0100
0000
0100
0000
0100
0010
0100
0000
0100
0000
1000
0000
0010
0001
0100
0000
,
0010
0000
0100
0000
0100
1000
0100
0000
0100
0000
0001
0000
0100
0010
0001
1000
,
0010
0010
0100
0100
0001
0001
1000
1000
,
0100
0100
0010
0010
0001
0001
1000
1000
,
0010
1000
0010
0100
0001
0010
0001
1000
0100
0001
0100
1000
0001
0010
0100
1000
,
0001
0000
0000
0000
2020
0000
0000
0000
0030
0000
0000
0000
3001
1000
0001
1000
,
0001
0000
0010
0000
0001
0000
0100
0010
1000
0001
0000
1000
0100
0000
0010
0000
,
0000
0000
0001
0000
0001
0000
0000
0010
0001
1000
0010
0100
0001
1000
0100
0000
,
0010
0000
0001
1000
0001
0000
0100
0000
0010
1000
0000
1000
0100
0000
0001
0000
,
0000
0000
0010
0000
0010
0000
0000
0000
0001
1000
0100
0010
0100
1000
0001
0000
,
0100
0010
0000
0010
1000
0000
0001
0000
0010
0100
0000
0100
1000
0000
0001
0000
,
0100
0010
0000
0010
1000
0000
0001
0000
0010
0100
0000
0100
1000
0000
0001
0000
,
0010
0000
0001
0100
0001
0000
1000
0100
1000
0000
0001
0010
0001
0000
1000
0010
,
1000
0000
0100
1000
0010
0000
0100
0001
0010
0000
0001
1000
0100
0000
1000
0001
,
0020
0000
0000
0000
,
0200
0000
0000
0330
,
0110
0000
0000
0000
0001
0000
1000
0000
0001
0000
0000
0010
0000
0000
0000
0000
,
0100
0000
1000
0000
0001
0000
0100
0000
0010
1000
0010
1000
0010
1000
0010
1000
,
0010
1000
0010
1000
0010
1000
0010
1000
0010
1000
0010
1000
0010
0000
0000
0000
,
1001
0000
0001
0000
0100
0000
1000
0000
0010
1000
0100
0000
0010
0000
0001
1000
,
0001
0000
0100
0000
0010
0000
1000
0000
0100
0010
0001
0100
0010
1000
0001
0000
,
0010
0000
0100
0000
1000
0000
0010
0000
0100
0001
0010
0001
0100
0000
0010
0000
,
1000
0000
0100
0000
0100
0000
0000
0000
0010
0001
1000
0001
0010
0100
1000
0000
,
0001
0000
0100
0010
1000
0000
0100
0010
0001
1000
0000
0100
0010
0000
0001
0000
,
0100
0000
1000
0000
1000
0000
0010
0000
1000
0001
0010
0001
0100
0001
0010
0100
,
1000
0000
0010
0000
1000
0000
0010
0000
0100
0001
1000
0000
0100
0010
0001
0000
,
1000
0000
0010
0000
2000
0000
0002
0000
3000
0000
0000
0000
0013
0100
0010
0100
,
1000
0010
0100
0010
1000
0000
0001
0000
0010
0001
0010
0100
1000
0001
0100
0000
,
0010
1000
0010
0100
0001
0000
0010
0000
0001
0100
0001
0000
0010
0100
1000
0010
,
0100
0001
0100
0000
0001
1000
0001
0000
0010
0100
1000
0010
0100
0001
1000
0000
,
0100
0000
0010
0001
1000
0000
0010
1000
0100
0010
0001
0000
1000
0001
1000
0010
,
0100
0000
0001
0010
0001
1000
0000
0000
0100
0010
0001
1000
0001
0000
0100
0000
,
0010
1000
0100
0000
0010
0001
0100
0000
0001
1000
0010
0000
1000
0100
0001
0000
,
0010
0000
0001
0100
0001
0000
1000
0100
1000
0000
0000
0000
0010
0000
0010
0000
,
1010
0000
0000
0000
0101
0000
0000
0000
1000
0001
1000
0001
1000
0001
1000
0001
,
0100
0010
1000
0010
0100
0010
0001
0010
,
0100
0010
0001
0010
1000
0100
1000
0001
,
0010
0100
0001
0100
0010
0100
1000
0100
,
0001
0000
0100
0000
1000
0000
0100
0000
0010
0000
0000
0000
0001
1000
0010
0100
,
0001
0010
1000
0010
0100
0010
1000
0010
,
0001
1000
0001
1000
0001
0000
0000
0000
0100
0000
0000
0000
0010
0000
0000
0000
1000
0000
0000
0000
0001
0000
0100
0000
0000
0000
0001
0000
0100
0000
0000
0000
,
0010
0000
1000
0000
0100
0010
0001
0000
1000
0000
0001
0000
0010
0100
1000
0000
,
0001
0000
0100
0000
0110
0000
0000
0000
1001
0000
0010
1000
0100
0000
0000
0000
,
0100
0000
0100
0000
0011
0000
0000
0000
0100
0000
0100
0000
0001
0010
1000
0010
,
0001
0000
0001
0100
1000
0000
1000
0000
2000
0000
3002
0000
0013
0100
0010
0100
,
1000
1000
0011
0000
1000
1000
1000
0101
,
1100
0000
0000
0000
0002
0000
0000
0000
0203
0000
0000
0000
0310
1000
0010
0000
,
0100
0100
0100
0100
0200
0000
0301
0100
,
0000
0000
0000
0100
0000
0000
0100
0000
0000
0100
0000
0000
0100
0000
0000
0001
1000
0001
0100
0000
0000
0010
0000
0000
,
0100
0100
0100
0100
0200
0010
0310
0100
,
0000
0000
0100
0000
0100
0000
0000
0000
0100
0000
0000
0000
0001
1000
0001
0000
,
0100
0100
0100
0100
0200
0320
1030
1000
,
2000
0000
3002
0000
0013
0000
0010
0000
0010
0001
0100
0000
0100
0000
0100
0000
,
0001
0010
0100
0010
0100
0010
0001
0000
1000
0001
0100
0000
1000
0001
0100
0000
,
0010
1000
0001
1000
0100
0010
0001
0100
1000
0001
0010
0100
0001
0010
1000
0100
,
0020
0000
0000
0000
,
0031
1000
0001
1000
0001
1000
0001
1000
0001
1000
0001
1000
0001
1000
0001
1000
,
0001
1000
0001
1000
0001
1000
0001
1000
0001
1000
0001
1000
0001
1000
0001
1000
,
0001
1000
0001
1000
0001
1000
0001
1000
0001
1000
0001
1000
0001
1000
0001
1000
,
0001
1000
0001
1000
0001
1000
0001
1000
0001
1000
0001
1000
0001
1000
0001
1000
,
0200
0000
0000
0300
;
