#TITLE:HEART BEAT FORMULA;
#ARTIST:TAG;
#BANNER:HEART BEAT FORMULA.png;
#BACKGROUND:HEART BEAT FORMULA-bg.png;
#JACKET:HEART BEAT FORMULA-jacket.png;
#MUSIC:HEART BEAT FORMULA.ogg;
#SAMPLESTART:46.44;
#SAMPLELENGTH:20;
#BPMS:0=230;
#BGCHANGES:;

//---------------dance-single - ----------------
#NOTES:
     dance-single:
     :
     Beginner:
     4:
     :
0000
0000
0000
0000
,
0000
0000
0000
0000
,
0000
0000
0000
0000
,
0000
0000
0000
0000
,
0000
0000
0000
0000
,
0001
0000
0001
0000
,
1000
0000
1000
0000
,
0001
0000
1000
0000
,
2002
0000
3003
0000
,
0000
0000
0010
0000
,
0000
0000
0010
0000
,
0000
0000
0100
0000
,
0000
0000
0100
0000
,
0010
0000
1000
0000
,
0100
0000
0000
0000
,
0010
0000
0001
0000
,
0100
0000
0000
0000
,
0010
0000
1000
0000
,
0001
0000
0000
0000
,
0010
0000
0001
0000
,
1000
0000
0000
0000
,
0010
0000
1000
0000
,
0100
0000
0000
0000
,
0010
0000
0001
0000
,
0100
0000
0000
0000
,
0010
0000
1000
0000
,
0001
0000
0000
0000
,
0010
0000
0001
0000
,
1000
0000
0000
0000
,
0000
0000
0010
0000
,
0000
0000
1000
0000
,
0000
0000
0001
0000
,
0000
0000
0100
0000
,
0000
0000
0010
0000
,
0000
0000
0001
0000
,
0000
0000
1000
0000
,
0000
0000
0100
0000
,
0000
0000
0010
0000
,
0000
0000
0001
0000
,
0000
0000
0010
0000
,
0000
0000
1000
0000
,
0000
0000
0100
0000
,
0000
0000
0001
0000
,
0000
0000
0100
0000
,
0000
0000
1000
0000
,
0001
0000
0001
0000
,
0100
0000
0000
0000
,
1000
0000
1000
0000
,
0100
0000
0000
0000
,
0010
0000
1000
0000
,
0100
0000
1000
0000
,
0020
0000
0000
0000
,
0000
0000
0030
0000
,
1000
0000
0001
0000
,
1000
0000
0000
0000
,
0001
0000
1000
0000
,
0001
0000
0000
0000
,
1000
0000
0000
0000
,
0001
0000
0000
0000
,
2002
0000
0000
0000
,
0000
0000
3003
0000
,
1000
0000
1000
0000
,
0100
0000
0000
0000
,
0001
0000
0001
0000
,
0100
0000
0000
0000
,
0010
0000
0001
0000
,
0100
0000
0001
0000
,
0020
0000
0000
0000
,
0000
0000
0030
0000
,
0001
0000
1000
0000
,
0001
0000
0000
0000
,
1000
0000
0001
0000
,
1000
0000
0000
0000
,
0001
0000
0000
0000
,
1000
0000
0000
0000
,
2002
0000
0000
0000
,
0000
0000
3003
0000
,
0000
0000
1000
0000
,
0000
0000
1000
0000
,
0000
0000
0001
0000
,
0000
0000
0001
0000
,
0000
0000
0010
0000
,
0000
0000
0010
0000
,
0000
0000
0000
0000
,
0000
0000
0000
0000
,
1000
0000
0010
0000
,
1000
0000
0100
0000
,
0001
0000
0010
0000
,
0001
0000
0100
0000
,
0001
0000
0000
0000
,
1000
0000
0000
0000
,
0001
0000
0000
0000
,
0000
0000
0000
0000
,
2002
0000
0000
0000
,
0000
0000
0000
0000
,
0000
0000
0000
0000
,
0000
0000
0000
3003
,
0000
0000
0000
0000
;

//---------------dance-single - ----------------
#NOTES:
     dance-single:
     :
     Easy:
     7:
     :
0000
0000
0000
0000
,
0000
0000
0000
0000
,
0000
0000
0000
0000
,
0000
0000
0000
0000
,
0000
0000
0000
0000
,
0001
0100
0010
0100
,
0010
1000
0000
0100
,
0010
0001
1000
0100
,
0010
0001
1000
0000
,
0010
0000
0001
0000
,
0000
1000
0001
0000
,
0010
0000
0100
0000
,
0000
0001
1000
0000
,
0010
0100
1000
0100
,
0010
0001
0000
0100
,
0010
0100
0001
0100
,
0010
1000
0000
0100
,
0010
0001
1000
0100
,
0010
0001
0000
1000
,
0100
0010
0001
0100
,
0010
0100
0000
0100
,
0010
0100
0001
0100
,
0010
1000
0000
0100
,
0010
0100
1000
0100
,
0010
0001
0000
0100
,
0010
1000
0001
0100
,
0010
1000
0000
0001
,
0010
0100
1000
0100
,
0010
0100
0010
0000
,
0001
0000
0100
0000
,
0010
0001
0100
0000
,
0010
0000
0001
0000
,
1000
0100
1000
0000
,
0100
0000
0001
0000
,
0100
0010
0100
0000
,
0010
0000
0100
0000
,
0001
0000
0010
0000
,
0010
0000
0001
0000
,
1000
0100
0010
0000
,
0001
0000
1000
0000
,
0010
0100
0010
0000
,
1000
0000
0001
0000
,
0010
0001
1000
0000
,
0001
0000
1000
0000
,
0010
0000
0010
0000
,
0010
0001
0010
0100
,
1000
0100
1000
0000
,
0010
0001
0100
0001
,
1000
0001
1000
0000
,
0100
0001
0010
1000
,
0100
0000
0010
0000
,
0010
0002
0000
0000
,
0000
0000
0000
1003
,
0001
0000
0010
0000
,
0100
0001
1000
1000
,
0100
0000
1000
0000
,
0001
0001
1000
0010
,
1000
0001
0010
0000
,
1000
0010
0100
0000
,
0010
2000
0000
0000
,
0000
0000
3001
1000
,
0010
1000
0010
0100
,
0001
0100
0001
0000
,
0010
1000
0100
1000
,
0001
1000
0001
0000
,
0100
1000
0010
0001
,
0100
0000
0010
0000
,
0010
2000
0000
0000
,
0000
0000
0000
3001
,
1000
0000
0010
0000
,
0100
1000
0001
0001
,
0100
0000
0001
0000
,
1000
0001
0010
0010
,
0001
1000
0010
0000
,
1000
0001
0100
0000
,
0010
0000
0001
0000
,
0010
0100
1000
0001
,
1000
0000
1000
0000
,
0000
0100
0010
0000
,
1000
0000
0010
0000
,
0000
1000
0001
0000
,
0100
0000
0100
0000
,
0000
1000
0100
0000
,
1000
0000
0000
1000
0000
0000
0001
0000
,
0000
0001
0000
0000
0010
0000
0010
0000
,
1000
0010
0100
0001
,
1000
0100
0010
0000
,
0100
1000
0001
0010
,
0100
0010
0001
0000
,
0100
0010
1000
0000
,
0100
0010
0001
0000
,
0100
0010
1000
0100
,
0010
0000
0001
0000
0100
0000
0001
2000
,
0000
0000
0001
0000
,
0001
0000
0001
0000
,
0001
0000
0001
0000
,
3001
0000
0010
0010
,
0000
0000
0000
0000
;

//---------------dance-single - ----------------
#NOTES:
     dance-single:
     :
     Medium:
     10:
     :
0000
0000
0000
0000
,
0000
0000
0000
0000
,
0000
0000
0000
0000
,
0000
0000
0000
0000
,
0000
0000
0000
0000
,
1000
0100
0010
0100
,
0010
0000
0001
0000
0100
0001
0100
0000
,
0010
1000
0001
0100
,
0010
0000
1000
0000
0001
1000
0001
0000
,
0010
0000
0000
0100
1000
0000
0000
0010
,
0000
1000
0001
1000
,
0010
0000
0000
0001
0100
0000
0000
0010
,
0000
0000
1000
0000
0100
1000
0000
0000
,
0010
0100
0001
0100
,
0010
0000
1000
0100
0000
1000
0100
0000
,
0010
0100
1000
0100
,
0010
0000
0001
0100
0000
0001
0100
0000
,
0010
1000
0001
0100
,
0010
0000
1000
0001
0000
1000
0001
0000
,
0100
0010
1000
0100
,
0010
0000
0100
0010
0000
0100
0010
0000
,
0010
0100
1000
0100
,
0010
0000
0001
0100
0000
0001
0100
0000
,
0010
0100
0001
0100
,
0010
0000
1000
0100
0000
1000
0100
0000
,
0010
0001
1000
0100
,
0010
0000
0001
1000
0000
0001
1000
0000
,
0100
0010
0001
0100
,
0010
0000
0100
0010
0000
0100
0010
0000
,
1000
0000
0000
0001
0100
0000
0000
0001
,
0000
1000
0100
0000
,
0010
0000
0000
0001
1000
0000
0000
0010
,
0000
0100
0001
0000
,
0100
0000
0000
0010
1000
0000
0000
0001
,
0000
0010
0100
1000
,
0010
0000
0000
1000
0100
0000
0000
0100
,
0010
0000
0000
0010
0001
0000
0000
0000
,
0010
0000
0000
0100
1000
0000
0000
0001
,
0000
0100
0010
1000
,
0001
0000
0000
0010
0001
0000
0000
0010
,
0000
0100
1000
0100
,
0010
0000
0000
0001
0010
0000
0000
0100
,
0000
1000
0001
0010
,
0001
0000
0000
1000
0001
0000
0000
0100
,
0000
0000
0100
0000
0010
0100
0000
0000
,
0010
0000
1000
0000
0010
0000
0100
0001
,
0000
0001
0100
0000
0001
0000
0100
0000
,
0010
0000
1000
0000
0100
0000
1000
0001
,
0000
0001
1000
0000
0001
0000
0010
0000
,
0200
0000
0000
0320
0000
0000
0032
0000
,
0203
0000
0320
0030
,
0010
0000
1000
0002
0000
0000
0000
0000
,
0000
0000
0000
1003
,
0001
0000
0000
0010
0000
0100
0000
1100
,
0000
0000
1000
0000
0001
0100
0001
0000
,
0100
0000
0000
0001
0000
1000
0000
1010
,
0000
0000
0001
0000
0010
0100
0010
0000
,
0001
1000
0010
0100
,
0001
0010
0100
1000
,
0010
0000
1000
0002
0000
0000
0000
0000
,
0000
0000
1003
0001
,
0010
0000
0001
0000
0010
0000
0100
1000
,
0000
1000
0100
0000
1000
0000
0100
0000
,
0010
0000
0001
0000
0100
0000
0001
1000
,
0000
1000
0001
0000
1000
0000
0010
0000
,
0200
0000
0000
0320
0000
0000
2030
0000
,
3200
0000
0320
0030
,
0010
0000
0001
1000
0000
1000
0000
1000
,
0000
2000
0000
0000
3001
0000
1001
0000
,
1000
0000
0000
0010
0000
0100
0000
0101
,
0000
0000
0001
0000
1000
0100
1000
0000
,
0100
0000
0000
1000
0000
0001
0000
0011
,
0000
0000
1000
0000
0010
0100
0010
0000
,
1000
0001
0010
0100
,
1000
0010
0100
0001
,
0010
0000
0001
0000
1000
0000
0010
0200
,
0000
0000
0301
1000
,
0001
0000
0000
0100
0001
0000
0000
1000
,
0000
0100
0010
0000
,
0001
0000
0000
1000
0010
0000
0000
0100
,
0000
0001
1000
0000
,
0100
0000
0000
0010
0100
0000
0000
0010
,
0000
0001
0100
0100
,
0001
0000
1000
0100
0000
0000
1000
0000
,
0001
0100
0000
0000
0010
0000
1000
0000
,
0001
0000
0010
0100
0000
1000
0000
0001
,
0000
0100
0000
0000
0010
0000
0010
0000
,
0100
0000
0001
1000
0000
0010
0000
0100
,
0000
0010
0000
0000
1000
0000
1000
0000
,
0200
0000
0000
0320
0000
0000
0032
0000
,
0000
0203
0000
0000
0310
0000
1000
0000
,
0200
0000
0000
0320
0000
0000
0032
0000
,
0000
0203
0000
0000
0310
0000
1000
0002
,
0000
0000
1000
0000
,
1000
0000
1000
0000
,
1000
0000
1000
0000
,
1003
0000
0000
0000
0010
0100
0010
0100
,
0000
0000
0000
0000
;

//---------------dance-single - ----------------
#NOTES:
     dance-single:
     :
     Hard:
     13:
     :
0000
0000
0000
0000
,
0000
0000
0000
0000
,
0000
0000
0000
0000
,
0000
0000
0000
0000
,
0000
0000
0000
0000
,
0001
0000
0100
0000
0010
0100
0010
0000
,
1000
0000
0100
0010
0000
0100
1000
0000
,
0001
0000
0010
0000
0001
1000
0100
0000
,
0010
0000
0001
1000
0000
0010
0100
0000
,
0010
0000
0000
0100
0001
0000
0000
0010
,
0000
0100
1000
0000
0001
0000
0100
0000
,
0010
0000
0000
1000
0100
0000
0000
0010
,
0000
0001
1000
0010
1000
0001
0000
0000
,
0010
0000
0100
0000
1000
0010
0100
0000
,
0010
0000
1000
0001
0000
0001
0100
0000
,
0010
0000
0100
0000
0001
0010
0100
0000
,
0010
0000
0100
1000
0000
1000
0001
0000
,
0010
0000
0001
0000
1000
0010
0001
0000
,
0010
0000
1000
0001
0000
0001
0010
0000
,
0100
0000
0010
0000
0001
1000
0100
0000
,
0010
0000
0001
0100
0000
0100
0010
0000
,
0010
0000
0100
0000
0001
0010
0100
0000
,
0010
0000
0001
1000
0000
1000
0100
0000
,
0010
0000
0100
0000
1000
0010
0100
0000
,
0010
0000
0100
0001
0000
0001
1000
0000
,
0010
0000
1000
0000
0001
0010
1000
0000
,
0010
0000
0001
1000
0000
1000
0010
0000
,
0100
0000
0010
0000
1000
0001
0100
0000
,
0010
0000
1000
0100
0000
0100
0010
0000
,
0011
0000
0000
0100
1000
0010
0100
0001
,
0000
1000
0100
0000
0010
0000
0001
0000
,
0100
0000
0000
0001
1000
0001
1000
0010
,
0000
0100
0010
0000
1000
0000
0100
0000
,
0110
0000
0000
0010
0001
0000
0000
1000
,
0000
0010
0100
0000
0001
0000
0010
0000
,
0001
0000
1000
0001
0100
0000
0001
1000
,
0010
0000
0100
0001
1000
0100
0000
0010
,
0011
0000
0000
0100
0001
0010
0100
1000
,
0000
0001
0100
0000
0010
0000
1000
0000
,
0100
0000
0000
1000
0001
1000
0001
0010
,
0000
0100
0010
0000
0001
0000
0100
0000
,
0110
0000
0000
0010
1000
0100
1000
0001
,
0000
0010
0100
0000
1000
0000
0010
0000
,
1000
0000
0000
0001
1000
0000
0000
0101
,
0000
0010
0100
1000
0001
0100
0000
0000
,
0010
0000
1000
0001
0000
0001
0010
0001
,
0000
0100
0001
0000
1000
0100
0010
0001
,
1000
0000
0010
0100
0000
0100
0001
1000
,
0000
0100
0010
0000
0001
0010
0100
1000
,
0100
0000
0010
0001
0000
0001
0100
0000
,
0010
0100
0110
1001
,
0010
0000
1000
0200
0000
0000
0010
0000
,
0000
0001
0300
0000
0110
0000
1001
0000
,
0001
0000
1000
0010
0000
0100
0001
0100
,
0000
0100
0001
0000
1000
0100
0010
0001
,
0100
0000
0010
1000
0000
0001
0010
0100
,
0000
0100
1000
0000
0010
1000
0100
0000
,
0020
0001
0230
1000
,
0320
0001
0230
1000
,
0310
0000
0001
1000
0000
0010
0100
0000
,
0001
1000
0000
0010
0100
0001
1000
0100
,
0010
0000
0001
1000
0000
1000
0010
1000
,
0000
0100
1000
0000
0001
0100
0010
1000
,
0001
0000
0010
0100
0000
0100
1000
0001
,
0000
0100
0010
0000
1000
0010
0100
0001
,
0100
0000
0010
1000
0000
1000
0100
0000
,
0010
0100
0110
1001
,
0010
0001
1000
0010
0000
0110
0000
0101
,
0000
1100
0000
0100
0010
0000
1001
0000
,
1000
0000
0001
0010
0000
0100
1000
0100
,
0000
0100
1000
0000
0001
0100
0010
1000
,
0100
0000
0010
0001
0000
1000
0010
0100
,
0000
0100
0001
0000
0010
0001
0100
0000
,
0020
1000
0230
0001
,
0320
1000
0230
0001
,
0310
0000
1000
0000
0100
0000
0010
0001
,
0000
0001
0100
0010
1000
0100
0010
0001
,
0010
0000
0000
0100
1000
0000
0000
0001
,
0000
1000
0100
0000
0010
0000
0001
0000
,
0100
0000
0000
0001
1000
0000
0000
0010
,
0000
0100
0010
0000
1000
0000
0100
0000
,
0110
0000
0000
0010
0001
0000
0000
1000
,
0000
0010
0100
0000
0001
0000
0010
0000
,
0001
1000
0001
0100
0000
0100
0001
1000
,
0001
0010
0000
0010
0001
1000
0010
0000
,
0110
0000
0100
0001
0000
0100
1000
0100
,
0000
0100
0000
0001
0010
0100
1000
0000
,
0100
0000
1000
0001
0000
0010
0100
0010
,
0000
0010
0000
0001
0100
0010
1000
0000
,
0110
0000
1000
0010
1000
0000
0001
0010
,
0000
0010
0100
0000
1000
0000
0010
0000
,
1000
0000
0001
1000
0001
0000
1000
0100
,
0000
0010
0100
1000
0001
0100
0010
2000
,
0000
0000
0001
0000
,
0001
0000
0001
0000
,
0001
0000
0001
0000
,
3001
0000
0000
0000
0010
0100
1000
0001
,
0000
0000
0000
0000
;

//---------------dance-single - ----------------
#NOTES:
     dance-single:
     :
     Challenge:
     15:
     :
0000
0000
0000
0000
,
0000
0000
0000
0000
,
0000
0000
0000
0000
,
0000
0000
0000
0000
,
0000
0000
0000
0000
,
0010
1000
0100
0000
1100
0000
1100
0000
,
0101
0000
0001
1000
0000
0001
0000
0100
,
0000
0010
1000
0000
1010
0000
1010
0000
,
0101
0000
0000
0000
0001
0000
1000
0000
0000
0000
0010
0000
1000
0001
1000
0001
,
2000
0000
3010
1010
0000
1010
0000
1010
,
0000
0001
1000
0000
1001
0000
0110
0000
,
0002
0000
0013
0011
0000
0011
0000
0011
,
0000
0000
0001
0000
1000
0000
0010
0000
1000
0100
1000
0000
0000
0000
0000
0000
,
1001
0000
0010
1000
0100
0001
0100
0010
,
0001
0100
0010
0001
0010
1000
0200
0000
,
0310
0000
0001
0100
0010
0001
0010
1000
,
0100
0001
0100
0010
0001
0100
0010
1000
,
1100
0000
0001
0100
0010
0100
1000
0010
,
0001
0010
1000
0100
0001
0100
0020
0000
,
0031
0000
0100
0010
0001
0010
1000
0100
,
0010
1000
0010
0100
0001
0100
1000
0001
,
0100
0000
0010
1000
0010
0001
0010
0100
,
0001
0010
1000
0010
0100
1000
0002
0000
,
0013
0000
1000
0100
0010
1000
0010
0100
,
0010
0001
1000
0010
0001
0010
1000
0100
,
0010
0000
0001
0100
0010
0001
0010
1000
,
0100
0010
0100
1000
0010
0100
0001
0010
,
0100
0000
0010
1000
0010
0001
0100
0010
,
0001
0010
1000
0100
0010
1000
0010
0001
,
0200
0000
0010
0010
0310
1000
0001
0020
,
0000
0100
0100
0130
0010
0001
1000
0001
,
0200
0010
0310
0110
0000
1001
0000
0102
,
0000
1003
0100
1000
0000
0001
0010
0100
,
2100
0001
3001
0000
2010
0010
3010
0000
,
0101
0010
0001
0010
1000
0100
0010
0000
,
1002
0000
1003
0010
0201
0000
0310
0100
,
0001
0010
0100
0010
0100
0010
0001
1000
,
0020
0000
1030
0100
1000
0001
0010
0200
,
0000
1300
0010
1000
0100
0010
0001
0000
,
0012
0000
0013
1001
0000
1100
0000
0110
,
0000
0010
0100
0010
0001
1000
0010
0000
,
2100
0000
0001
0001
3001
0000
0011
0012
,
0000
1000
1003
0010
1000
0001
0100
0000
,
0001
0010
0100
1000
0010
0100
0001
1000
,
0100
0010
0001
0000
1000
0001
1000
0001
,
0110
0000
0010
1000
0100
0010
0001
0100
,
1000
0000
0100
0000
0001
0000
0000
0010
0001
0000
1000
0000
0001
0000
0100
0000
,
0010
0000
1000
0001
0010
1000
0010
0100
,
0010
0000
0001
0000
0100
0000
0000
0010
1000
0000
0100
0000
1000
0000
0001
0000
,
0020
0001
0031
0020
1000
1030
0010
0001
,
0200
0010
0310
0100
0002
1000
1003
0100
,
1100
0000
0000
0000
0101
0000
0001
0010
0002
0000
1000
0000
1000
0000
0000
0000
,
0013
0000
1000
0000
0100
0000
0010
0000
0001
0000
0100
0000
0010
0000
1000
0001
,
1000
0010
0100
0001
0010
1000
0010
0100
,
0010
0000
0001
0000
2000
0000
0000
0000
3010
0100
0010
0100
0010
0000
1000
0000
,
0100
0010
0001
0100
0010
0001
0010
1000
,
0100
0000
0110
0000
0110
0000
0001
0010
0001
0000
0100
0000
0010
0000
0000
0000
,
2010
0000
3001
0100
0001
1000
0100
0000
,
2000
0001
3001
2000
0010
3010
0100
0000
,
0101
0000
0001
0000
1000
0000
0002
0000
0010
0000
0010
0000
0013
0000
0000
0001
,
1000
0000
0010
0000
0100
0000
0001
0010
0001
0000
1000
0000
0100
0000
0010
0000
,
0001
0100
0010
0001
0010
1000
0100
0010
,
1000
0000
0010
0000
0001
0000
0000
0000
0001
1000
0001
0000
0100
0000
0010
0000
,
0001
0010
1000
0100
1000
0010
0001
0100
,
0010
1000
0010
1000
0010
0000
0000
0000
0010
0000
1000
0000
0001
0000
0100
0000
,
0020
1000
1030
0020
0001
0031
0010
1000
,
0200
1000
1300
0001
0200
0010
0310
0000
,
1000
0010
1000
0001
0020
0100
0100
0000
,
0031
0010
0001
1000
0010
1000
0001
0000
,
0011
0001
0100
0010
0001
0010
1000
0100
,
1000
0000
0001
0000
0200
0000
0000
0000
0301
0010
0001
0010
0001
0000
0100
0000
,
0010
1000
0010
0100
0001
0010
1000
0010
,
0001
0000
0100
0000
0110
0000
0000
0010
1000
0000
0001
0000
0100
0000
0000
0000
,
0101
0010
1000
0010
1000
0001
0100
0000
,
1001
0010
1000
0100
0001
0100
1000
0000
,
2010
0000
0001
0001
3001
1000
0010
0102
,
0000
0000
1000
0000
1003
0000
0001
0010
0001
0000
1000
0000
0100
0000
0000
0000
,
2000
0000
0001
0000
3001
0000
1000
0010
2000
0000
0100
0000
3100
0000
0000
0000
,
0010
0001
0010
0100
1000
0001
0100
0000
,
0010
1000
0010
0100
0000
0101
0000
1100
,
0000
0001
0100
0000
0010
1000
0100
1000
,
0002
0000
0013
0011
0000
1100
0000
0101
,
0000
0000
2100
0000
3001
0000
1000
0010
1000
0000
0001
0000
0100
0000
0000
0000
,
0110
0001
0010
1100
0000
1000
1010
0001
,
0100
0000
1001
0000
0000
0000
0010
0000
1000
0000
0010
0100
0001
0000
0000
0000
,
0010
0001
0100
0010
0001
0010
1000
0001
,
0010
0000
1000
0000
0010
0000
0001
0100
0001
0000
1000
0010
1000
0000
0000
0000
,
0100
1000
0010
0100
0001
0010
1000
0001
,
0100
0000
0010
0000
1000
0000
0000
0100
1000
0000
0001
0000
0010
0000
0100
0000
,
0210
0000
1300
0010
0100
0001
1000
1000
,
0010
0000
1000
0000
0100
0000
1000
0001
2000
0000
0010
0000
3010
0000
0000
0000
,
1100
0000
0001
0000
0010
0000
1000
0000
0100
0000
1000
0000
0010
0000
0000
0010
,
1000
0100
1000
0001
0010
0100
1000
0022
,
0000
0030
0000
0000
0103
0000
0010
0000
0100
0000
0001
0000
0010
0000
0200
0000
,
0000
2300
0000
3002
0000
2003
3100
0000
,
2001
0000
3001
0200
0000
0310
1000
0200
,
0000
0000
1300
0000
0001
0000
1000
0010
0100
0000
0100
0000
0100
0000
0100
0000
,
0020
0000
0000
0000
,
0000
0000
0000
0000
,
0030
0000
0000
0000
;

//---------------dance-double - ----------------
#NOTES:
     dance-double:
     :
     Easy:
     7:
     :
00000000
00000000
00000000
00000000
,
00000000
00000000
00000000
00000000
,
00000000
00000000
00000000
00000000
,
00000000
00000000
00000000
00000000
,
00000000
00000000
00000000
00000000
,
01000000
00010000
00000000
10000000
,
00000000
01000000
00000000
00100000
,
00001000
00010000
00000000
00001000
,
00000100
00000010
00000100
00000000
,
00000001
00000000
00001000
00000000
,
00000000
00000100
00001000
00000000
,
00000010
00000000
00000100
00000000
,
00000000
00000001
00001000
00000000
,
00000010
00001000
00000100
00000000
,
00010000
00001000
00100000
00010000
,
01000000
00010000
00100000
00000000
,
01000000
10000000
00010000
01000000
,
00100000
10000000
01000000
00000000
,
00100000
00001000
00010000
00000100
,
00000010
00000100
00001000
00000000
,
00000001
00000100
00000001
00000100
,
00000010
00001000
00000100
00000000
,
00010000
00001000
00100000
00010000
,
01000000
00010000
00100000
00000000
,
01000000
10000000
00010000
01000000
,
00100000
10000000
01000000
00000000
,
00100000
00001000
00010000
00000100
,
00000010
00000100
00001000
00000000
,
00000001
00000100
00000001
00000000
,
00001000
00000000
00000100
00000000
,
00000000
00000010
00000100
00000000
,
00000010
00000000
00000001
00000000
,
00000000
00000100
00001000
00000000
,
00010000
00000000
00001000
00000000
,
00000000
00100000
00010000
00000000
,
10000000
00000000
00100000
00000000
,
01000000
00000000
00010000
00000000
,
10000000
00000000
01000000
00000000
,
00000000
00100000
01000000
00000000
,
00100000
00000000
10000000
00000000
,
00000000
01000000
00010000
00000000
,
00001000
00000000
00010000
00000000
,
00000000
00000010
00001000
00000000
,
00000001
00000000
00000010
00000000
,
00000100
00000000
00001000
00000000
,
00000001
00000010
00000001
00000010
,
00000100
00001000
00000100
00000000
,
00010000
00001000
00010000
00001000
,
00100000
00010000
01000000
00000000
,
00100000
10000000
00010000
00100000
,
01000000
00000000
00100000
00000000
,
00010000
00000000
00000000
20000000
00000000
00000000
00000000
00000000
,
00000000
00000000
00000000
30100000
,
01000000
00010000
01000000
00010000
,
10000000
01000000
00100000
00000000
,
00001000
00010000
00001000
00010000
,
00000100
00001000
00000001
00000000
,
00000010
00000001
00000100
00000000
,
00000010
00001000
00000100
00000000
,
00010000
00000000
00001000
00000000
,
01000000
00000000
00100000
00100000
,
10000000
00100000
10000000
00100000
,
01000000
00010000
01000000
00000000
,
00001000
00010000
00001000
00010000
,
00000010
00001000
00000100
00000000
,
00000010
00000001
00001000
00000010
,
00000100
00000000
00000010
00000000
,
00001000
00000000
00000000
00000002
00000000
00000000
00000000
00000000
,
00000000
00000000
00000000
00000013
,
00000100
00001000
00000100
00001000
,
00000001
00000100
00000010
00000000
,
00010000
00001000
00010000
00001000
,
01000000
00010000
10000000
00000000
,
00100000
10000000
01000000
00000000
,
00100000
00010000
01000000
00000000
,
00001000
00000000
00010000
00000000
,
00000100
00000000
00000010
00000010
,
00000001
00000000
00000100
00000000
,
00000000
00000010
00000100
00000000
,
00000010
00000000
00010000
00000000
,
00000000
00001000
00010000
00000000
,
01000000
00000000
10000000
00000000
,
00000000
00010000
01000000
00000000
,
00100000
00000000
00000000
00100000
00000000
00000000
01000000
00000000
,
00000000
01000000
00000000
00000000
00100000
00000000
00100000
00000000
,
10000000
01000000
10000000
01000000
,
00100000
00010000
01000000
00000000
,
00001000
00010000
00001000
00010000
,
00000010
00001000
00000100
00000000
,
00000010
00000001
00001000
00000000
,
00000010
00001000
00000001
00000000
,
00000010
00000000
00001000
00000000
,
00010000
00000000
00000000
00000000
00001000
00000000
00100000
00020000
,
00000000
00000000
00000000
00000000
,
00000000
00000000
00000000
00000000
,
00000000
00000000
00000000
00000000
,
00000000
00000000
01000000
01030000
,
00000000
00000000
00000000
00000000
;

//---------------dance-double - ----------------
#NOTES:
     dance-double:
     :
     Medium:
     10:
     :
00000000
00000000
00000000
00000000
,
00000000
00000000
00000000
00000000
,
00000000
00000000
00000000
00000000
,
00000000
00000000
00000000
00000000
,
00000000
00000000
00000000
00000000
,
00000001
00001000
00000100
00000010
,
00000001
00000000
00000100
00000010
00000000
00000010
00001000
00000000
,
00000010
00010000
00001000
01000000
,
00010000
00000000
00100000
00010000
00000000
00010000
10000000
00000000
,
00100000
00000000
00000000
10000000
01000000
00000000
00000000
00100000
,
00000000
00010000
00001000
00000000
,
00000100
00000000
00000000
00000010
00000100
00000000
00000000
00000010
,
00000000
00000001
00001001
00000000
,
00000100
00000010
00000100
00001000
,
00010000
00000000
00001000
00010000
00000000
00001000
00010000
00000000
,
00100000
10000000
00100000
01000000
,
00010000
00000000
00100000
01000000
00000000
00100000
01000000
00000000
,
00010000
00001000
00010000
00000100
,
00001000
00000000
00000001
00000100
00000000
00000001
00000100
00000000
,
00000010
00001000
00000100
00000010
,
00000001
00000000
00001000
00000100
00000000
00001000
00000100
00000000
,
00010000
00001000
00100000
00010000
,
10000000
00000000
00100000
01000000
00000000
00100000
01000000
00000000
,
00100000
10000000
01000000
00100000
,
00001000
00000000
00010000
00001000
00000000
00010000
00001000
00000000
,
00000100
00000001
00001000
00000100
,
00000010
00000000
00000001
00001000
00000000
00000001
00001000
00000000
,
00000010
00000100
00001000
00010000
,
00001000
00000000
00010000
00001000
00000000
00010000
00001000
00000000
,
00100000
00000000
00000000
00010000
01000000
00000000
00000000
00100000
,
00000000
10000000
01000000
00100000
,
00010000
00000000
00000000
01000000
00100000
00000000
00000000
00010000
,
00000000
00001000
00000100
00000000
,
00000001
00000000
00000000
00001000
00000100
00000000
00000000
00000010
,
00000000
00000001
00001000
00000010
,
00000100
00000000
00000000
00000100
00001000
00000000
00000000
00001000
,
00010000
00000000
00000000
00010000
00100000
00000000
00000000
00000000
,
10000000
00000000
00000000
00010000
00100000
00000000
00000000
01000000
,
00000000
10000000
00010000
01000000
,
00100000
00000000
00000000
10000000
01000000
00000000
00000000
00010000
,
00000000
00001000
00010000
00000000
,
00000100
00000000
00000000
00001000
00000010
00000000
00000000
00000100
,
00000000
00000001
00000010
00000100
,
00000010
00000000
00000000
00000001
00001000
00000000
00000000
00000010
,
00000000
00000000
00000100
00000000
00001000
00010000
00000000
00000000
,
00001000
00000000
00010000
00001000
00000000
00100000
00000000
00010000
,
00000000
01000000
00000000
00000000
00100000
00000000
10000000
00000000
,
01000000
00000000
00100000
01000000
00000000
10000000
00000000
00010000
,
00000000
01000000
00000000
00000000
00001000
00000000
00010000
00000000
,
00001000
00000000
00000000
00000100
00000000
00000000
00000001
00000000
,
00000010
00000100
00000010
00000001
,
00001000
00000000
00000010
00000200
00000000
00000000
00000000
00000000
,
00000000
00000000
00000000
00000310
,
00000100
00000000
00001000
00010000
00000000
00001000
00000000
00011000
,
00000000
00100000
01000000
01000000
,
00100000
00000000
10000000
00100000
00000000
01000000
00000000
00010000
,
00000000
10000000
01000000
00000000
00100000
00000000
01000000
00000000
,
10000000
01000000
00010000
01000000
,
00010000
00001000
00000100
00000001
,
00000100
00000000
00001000
00020000
00000000
00000000
00000000
00000000
,
00000000
00000000
00000000
00031000
,
00010000
00000000
00001000
00010000
00000000
00000010
00000000
00001000
,
00000000
00000100
00000000
00000000
00000010
00000000
00000001
00000000
,
00000100
00000000
00000010
00000100
00000000
00000001
00000000
00001000
,
00000000
00000100
00000000
00000000
00010000
00000000
00001000
00000000
,
00010000
00000000
00000000
01000000
00000000
00000000
10000000
00000000
,
00100000
01000000
00100000
10000000
,
00010000
00000000
00100000
01000000
00000000
01000000
00000000
01000000
,
00000000
02000000
00000000
00000000
00100000
00000000
03100000
00000000
,
01000000
00000000
00010000
00001000
00000000
00010000
00000000
00011000
,
00000000
00000010
00000100
00000100
,
00000010
00000000
00000001
00000010
00000000
00000100
00000000
00001000
,
00000000
00000001
00000100
00000000
00000010
00000000
00000100
00000000
,
00000001
00000100
00001000
00000100
,
00001000
00010000
00100000
10000000
,
00010000
00000000
00100000
00000000
01000000
00000000
10000000
02000000
,
00000000
00000000
00100000
03100000
,
00010000
00000000
00000000
10000000
00100000
00000000
00000000
01000000
,
00000000
00001000
00010000
00000100
,
00001000
00000000
00000000
00000001
00000010
00000000
00000000
00000100
,
00000000
00000010
00000100
00000000
,
00000010
00000000
00000000
00000001
00001000
00000000
00000000
00000010
,
00000000
00000100
00000001
00000010
,
00000100
00000000
00010000
00001000
00000000
00000000
00100000
00000000
,
00001000
00010000
00000000
00000000
01000000
00000000
00100000
00000000
,
00010000
00000000
00100000
00000000
01000000
00000000
10000000
00010000
,
00000000
10000000
00010000
00000000
01000000
00000000
00100000
00000000
,
10000000
00000000
01000000
00000000
00010000
00000000
00001000
00010000
,
00000000
00001000
00010000
00000000
00000010
00000000
00001000
00000000
,
00000001
00000000
00000010
00000000
00000100
00000000
00001000
00000001
,
00000000
00001000
00000001
00000000
00000100
00000000
00000010
00000000
,
00010000
00000000
00001000
00000000
00000100
00000000
00000001
00001000
,
00000000
00000100
00000010
00000000
00000001
00000000
00000100
00000020
,
00000000
00000000
00000100
00000000
,
00000100
00000000
00000100
00000000
,
00000100
00000000
00000100
00000000
,
00000130
00000000
00000000
00000000
00001000
00000100
00001000
00000100
,
00000000
00000000
00000000
00000000
;

//---------------dance-double - ----------------
#NOTES:
     dance-double:
     :
     Hard:
     13:
     :
00000000
00000000
00000000
00000000
,
00000000
00000000
00000000
00000000
,
00000000
00000000
00000000
00000000
,
00000000
00000000
00000000
00000000
,
00000000
00000000
00000000
00000000
,
00010000
00000000
10000000
00000000
01000000
00100000
00010000
00000000
,
10000000
00000000
00100000
01000000
00000000
00001000
00010000
00000000
,
00000010
00000000
00001000
00000000
00000100
00000010
00000001
00000000
,
00001000
00000000
00000010
00000100
00000000
00000001
00001000
00000000
,
00000100
00000000
00000000
00000010
00001000
00000000
00000000
00010000
,
00000000
01000000
00100000
00000000
00010000
00000000
01000000
00000000
,
00100000
00000000
00000000
10000000
01000000
00000000
00000000
00100000
,
00000000
00001000
00010000
00000010
00010000
00001000
00000000
00000000
,
00000100
00000000
00000001
00000000
00001000
00000100
00000000
00000010
,
00000001
00000000
00000100
00001000
00000000
00010000
00100000
00000000
,
01000000
00000000
00100000
00000000
10000000
01000000
00000000
00010000
,
00001000
00000000
00000010
00000001
00000000
00001000
00000010
00000000
,
00000100
00000000
00000010
00000000
00001000
00000001
00000000
00000010
,
00000100
00000000
00010000
00001000
00000000
00100000
00010000
00000000
,
01000000
00000000
00100000
00000000
10000000
00010000
00000000
00100000
,
01000000
00000000
10000000
00100000
00000000
00010000
00001000
00000000
,
00000010
00000000
00000001
00000000
00001000
00000010
00000000
00000100
,
00000001
00000000
00000010
00001000
00000000
00010000
01000000
00000000
,
00100000
00000000
01000000
00000000
10000000
00100000
00000000
00010000
,
00001000
00000000
00000100
00000001
00000000
00001000
00000100
00000000
,
00000010
00000000
00000100
00000000
00001000
00000001
00000000
00000100
,
00000010
00000000
00010000
00001000
00000000
01000000
00010000
00000000
,
00100000
00000000
01000000
00000000
10000000
00010000
00000000
01000000
,
00100000
00000000
10000000
01000000
00000000
00010000
00001000
00000000
,
00100000
00000000
00000000
00010000
01000000
00000000
00000000
00100000
,
00000000
10000000
01000000
00000000
00100000
00000000
00010000
00000000
,
01000000
00000000
00000000
00001000
00010000
00000000
00000000
00000100
,
00000000
00000010
00000001
00000000
00000100
00000000
00000010
00000000
,
00001000
00000000
00000000
00000001
00000100
00000000
00000000
00000010
,
00000000
00000100
00001000
00000000
00010000
00000000
00100000
00000000
,
10000000
00000000
00000000
00010000
00100000
00000000
00000000
00100000
,
01000000
00000000
00000000
01000000
10000000
00010000
00000000
01000000
,
00100000
00000000
00000000
00010000
00001000
00000000
00000000
00000100
,
00000000
00000010
00001000
00000000
00000100
00000000
00000010
00000000
,
00000001
00000000
00000000
00001000
00000100
00000000
00000000
00010000
,
00000000
00000010
00001000
00000000
00010000
00000000
01000000
00000000
,
00100000
00000000
00000000
10000000
01000000
00000000
00000000
00100000
,
00000000
00010000
01000000
00000000
00100000
00000000
01000000
00000000
,
00100000
00000000
00000000
00010000
00001000
00000000
00000000
00000010
,
00000000
00000001
00001000
00000010
00000100
00000001
00000000
00000000
,
00000010
00000000
00000100
00010000
00000000
00001000
00000000
00100000
,
00000000
00010000
10000000
00000000
00100000
01000000
00010000
00100000
,
01000000
00000000
10000000
01000000
00000000
00010000
00000000
00001000
,
00000000
00010000
00000010
00000000
00000100
00000010
00001000
00000100
,
00000010
00000000
00000001
00001000
00000000
00000010
00000100
00000000
,
00001000
00000100
00000001
00000010
,
00001000
00000000
00010000
00002000
00000000
00000000
00010000
00000000
,
00000000
01000000
00000000
00000000
00013000
00000000
00100000
00000000
,
10000000
00000000
00010000
00100000
00000000
01000000
00100000
01000000
,
00000000
00100000
00010000
00000000
10000000
00100000
01000000
00010000
,
00100000
00000000
00001000
00010000
00000000
00000100
00001000
00000100
,
00000000
00000010
00000100
00000000
00000010
00000000
00000001
00000000
,
00000010
00001000
00010000
01000000
,
10000000
00100000
01000000
00010000
,
00100000
00000000
00010000
10000000
00000000
00000000
10010000
00000000
,
00000000
10000000
01000000
00100000
00010000
01000000
00100000
10000000
,
00100000
00000000
01000000
00001000
00000000
00010000
00000000
00000010
,
00000000
00001000
00000001
00000000
00000010
00000100
00001000
00000010
,
00000100
00000000
00000001
00000100
00000000
00001000
00000000
00010000
,
00000000
00001000
00100000
00000000
01000000
00100000
00010000
01000000
,
00100000
00000000
10000000
00010000
00000000
00100000
01000000
00000000
,
00010000
01000000
10000000
00100000
,
00010000
00000000
00001000
00010000
00000000
00001000
00000000
00010000
,
00000000
00011000
00000000
00000000
00001000
00000000
00000010
00000000
,
00000001
00000000
00001000
00000010
00000000
00000100
00000010
00000100
,
00000000
00000010
00001000
00000000
00000001
00000010
00000100
00001000
,
00000010
00000000
00010000
00001000
00000000
01000000
00010000
01000000
,
00000000
00100000
01000000
00000000
00100000
00000000
10000000
00000000
,
00100000
00010000
00001000
00000100
,
00000001
00000010
00000100
00001000
,
00000010
00000000
00001000
00000000
00000100
00000000
00000010
00000001
,
00000000
00001000
00000010
00000000
00000100
00000000
00000001
00000000
,
00000100
00000000
00000000
00001000
00010000
00000000
00000000
00100000
,
00000000
01000000
00100000
00000000
00010000
00000000
00100000
00000000
,
10000000
00000000
00000000
01000000
00100000
00000000
00000000
00001000
,
00000000
00010000
01000000
00000000
00100000
00000000
00010000
00000000
,
01000000
00000000
00000000
00100000
00010000
00000000
00000000
00001000
,
00000000
00000100
00000010
00000000
00001000
00000000
00000100
00000000
,
00000010
00000001
00001000
00000001
00000000
00000100
00000001
00001000
,
00000001
00000100
00000000
00000100
00000010
00010000
00001000
00000000
,
00100000
00000000
00010000
01000000
00000000
00100000
01000000
00100000
,
00000000
10000000
01000000
00000000
00100000
00000000
00010000
00000000
,
01000000
00000000
00001000
00010000
00000000
00000010
00001000
00000010
,
00000000
00000100
00000010
00000000
00001000
00000000
00000100
00000000
,
00000010
00000000
00000001
00000010
00000000
00000100
00000010
00000100
,
00000000
00000010
00000001
00000000
00000100
00000000
00001000
00000000
,
00010000
00000000
00001000
00010000
00000000
01000000
00100000
01000000
,
00000000
00100000
00010000
01000000
00100000
10000000
01000000
00200000
,
00000000
00000000
01000000
00000000
,
01000000
00000000
01000000
00000000
,
01000000
00000000
01000000
00000000
,
01300000
00000000
00000000
00000000
00010000
00001000
00010000
00001000
,
00000000
00000000
00000000
00000000
;
