#TITLE:HEART BEAT FORMULA (Vinyl Mix);
#ARTIST:TAG (Realtime Remix by U1);
#BANNER:HEART BEAT FORMULA (Vinyl Mix).png;
#BACKGROUND:HEART BEAT FORMULA (Vinyl Mix)-bg.png;
#JACKET:HEART BEAT FORMULA (Vinyl Mix)-jacket.png;
#MUSIC:HEART BEAT FORMULA (Vinyl Mix).ogg;
#SAMPLESTART:26.727;
#SAMPLELENGTH:20;
#BPMS:0=115;
#BGCHANGES:;

//---------------dance-single - ----------------
#NOTES:
     dance-single:
     :
     Beginner:
     4:
     :
0000
0000
0000
0000
,
0000
0000
0000
0000
,
0000
0000
0000
0000
,
0000
0000
0000
0000
,
0000
0000
0000
0000
,
0001
0001
1000
0000
,
0001
1000
0001
0000
,
1000
1000
0001
0000
,
1000
0001
1000
0001
,
0100
0100
0001
0000
,
1000
0010
1000
0000
,
0001
0001
1000
0000
,
0010
0010
0100
0100
,
0002
0000
1003
0000
,
2000
0000
3001
0000
,
0001
0000
0010
0000
,
0100
0000
1000
0000
,
2000
0000
3001
0000
,
0002
0000
1003
0000
,
1000
0000
0100
0000
,
0010
0000
0001
0000
,
2002
3003
0010
0100
,
0220
0330
1000
0001
,
1000
0000
0100
0000
,
0010
0000
0001
0000
,
1000
1000
0000
2000
,
3001
0001
0000
0001
,
1001
0000
1001
0000
,
0110
0000
0110
0000
,
2002
3003
0010
0100
,
0220
0330
1000
0001
,
1000
0000
0100
0000
,
0010
0000
0001
0000
,
1000
1000
0000
2000
,
3001
0001
0000
0001
,
1001
0000
1001
0000
,
0110
0000
0110
0000
,
2000
0000
0000
3000
,
0002
0000
0000
0003
,
0200
0000
0000
0300
,
0020
0000
0000
0030
,
0000
1000
0001
1000
,
0000
1000
0001
1001
,
0000
0001
1000
0001
,
0000
0001
1000
1001
,
0000
0000
0000
0000
;

//---------------dance-single - ----------------
#NOTES:
     dance-single:
     :
     Easy:
     8:
     :
0000
0000
0000
0000
,
0000
0000
0000
0000
,
0000
0000
0000
0000
,
0000
0000
0000
0000
,
0000
0000
0000
0000
,
0001
0100
0010
1000
0000
0001
0100
0000
,
0010
1000
0001
0100
0000
0001
1000
0100
,
0010
0001
1000
0100
0000
0010
0100
0000
,
1000
0001
1000
0001
0000
0020
0200
0330
,
0001
1000
0100
0010
0001
0100
0010
0000
,
0100
0001
1000
0001
1000
0010
0100
0000
,
0001
1000
0100
0010
0001
1000
0100
0000
,
0010
0001
0010
0001
1000
0100
1100
0000
,
0002
0000
0100
0000
1000
0000
0103
0010
,
0200
0000
0001
0000
0010
0000
1300
0100
,
0002
0023
0230
2300
,
3001
0100
0001
0000
0010
0100
0010
0100
,
2000
0000
0001
0000
0100
0000
3001
0010
,
0200
0000
1000
0000
0010
0000
0301
0100
,
2000
3200
0320
0032
,
0203
0000
0320
0000
1030
0000
0001
0100
,
0020
0000
1030
0001
0010
0100
1000
0000
,
0002
0000
0103
0010
1000
0001
1000
0000
,
0010
0010
1000
0000
0100
0100
0010
0000
,
0001
1000
0100
0010
0001
1000
0100
0000
,
0010
0001
0010
0100
1000
0001
0200
0000
,
0310
1000
0001
0010
0100
1000
0001
0000
,
0100
0100
0010
0010
1000
1000
0001
0001
,
1000
1000
0100
0100
0010
0010
0001
0000
,
0200
0000
0301
1000
0100
0010
0001
0000
,
2000
0000
3010
0100
0001
1000
0001
0000
,
0100
0100
0001
0000
0010
0010
0100
0000
,
1000
0001
0010
0100
1000
0001
0010
0000
,
0100
1000
0100
0010
0001
1000
0020
0000
,
0130
0001
1000
0100
0010
0001
1000
0000
,
0010
0010
0100
0100
0001
0001
1000
1000
,
0001
0001
0010
0010
0100
0100
1000
0000
,
0001
1000
0100
0000
0010
0001
0100
0010
,
1000
0001
1000
0000
0010
0100
0002
0000
,
1003
0100
0010
0001
0100
0010
0001
0000
,
0010
1000
0001
0100
0020
0000
0200
0000
,
0330
1000
0001
1000
,
0000
1000
0001
0220
,
0330
0001
1000
0001
,
0000
0001
1000
0220
,
0330
0000
0000
0000
,
0000
0000
0000
0000
;

//---------------dance-single - ----------------
#NOTES:
     dance-single:
     :
     Medium:
     11:
     :
0000
0000
0000
0000
,
0000
0000
0000
0000
,
0000
0000
0000
0000
,
0000
0000
0000
0000
,
0000
0000
0000
0000
,
0001
0000
1000
0000
0000
0100
0000
0000
0010
0000
0000
0001
0000
0000
0100
0000
,
0001
0000
1000
0000
0000
0010
0000
0000
0001
0000
0000
0010
0000
0000
0100
0000
,
0010
0000
1000
0000
0000
0001
0000
0000
0010
0000
0000
0100
0000
0000
1000
0000
,
0001
0000
0010
0000
0000
0001
0000
0000
1000
0000
0000
0200
0020
0000
0330
0000
,
0001
0000
1000
0000
0010
0100
0000
0001
0010
0000
0100
0000
1000
0000
0001
0000
,
0100
0000
1000
0000
0100
0001
0000
0100
0001
0000
0010
0000
0100
0000
1000
0000
,
0001
0000
1000
0000
0100
0010
0000
0001
0010
0000
0100
0000
1000
0000
0010
0000
,
0200
0000
0001
0000
0000
1000
0000
0000
0010
0000
0000
1000
0000
0000
0301
0000
,
0010
0000
0001
0000
0010
0000
0100
2000
0000
0000
0000
0000
3100
0000
0010
0000
,
0001
0000
1000
0000
0001
0000
0010
0200
0000
0000
0000
0000
0000
0000
0310
0001
,
0010
0000
0100
0000
1000
0001
0100
0010
,
1000
0000
0000
1000
0002
0000
0000
0000
0000
0000
0000
0000
0003
0010
0100
0000
,
1000
0000
0001
0000
0100
0000
0010
2000
0000
0000
0000
0000
3001
0000
0010
0000
,
0001
0000
0001
1000
0000
0001
1000
0000
0010
0000
0010
0100
0000
0010
0100
0000
,
0002
0000
0023
0000
0230
0000
1300
0100
,
0020
0000
0000
0000
0230
0000
0000
0000
1300
0000
0000
0000
0001
1000
0001
0000
,
0020
0000
0000
0000
0031
0100
0000
1000
0000
0100
0000
0000
0010
0000
0100
0000
,
0002
0000
0000
0000
0013
0100
0000
1000
0000
0010
0000
0000
1000
0000
0100
0000
,
0010
0000
0010
0001
0000
0010
0001
0000
1000
0000
1000
0001
0000
1000
0001
0000
,
0100
0010
0001
0010
1000
1000
0001
0001
,
0010
0000
0100
0000
1000
0000
0001
0010
0000
0100
0000
0000
2000
0000
0000
0000
,
3001
0000
0100
0000
0010
0100
0000
1000
0000
0100
0010
0000
1000
0000
0001
0000
,
1000
0000
1000
0100
0000
1000
0100
0000
0010
0000
0010
0001
0000
0010
0001
0000
,
1000
0010
0001
0010
1000
0100
0001
0000
,
0200
0000
0000
0000
1300
0010
0000
0001
0000
0010
0000
0000
0100
0000
0010
0000
,
2000
0000
0000
0000
3100
0010
0000
0001
0000
0100
0000
0000
0001
0000
0010
0000
,
0100
0000
0100
1000
0000
0100
1000
0000
0001
0000
0001
1000
0000
0001
1000
0000
,
0010
0100
1000
0100
0001
0001
1000
1000
,
0100
0000
0010
0000
0001
0000
1000
0100
0000
0010
0000
0000
0002
0000
0000
0000
,
1003
0000
0010
0000
0100
0010
0000
0001
0000
0010
0100
0000
0001
0000
1000
0000
,
0001
0000
0001
0010
0000
0001
0010
0000
0100
0000
0100
1000
0000
0100
1000
0000
,
0001
0100
1000
0100
0001
0010
1000
0000
,
0010
0000
0000
0001
1000
0000
0000
0100
0000
0010
0001
0000
1000
0000
1000
0000
,
0100
0000
0000
0010
0001
0000
0000
0010
0000
0100
1000
0000
0200
0000
0000
0000
,
0310
0000
0000
0001
0100
0000
0000
0010
0000
1000
0001
0000
1000
0000
0100
0000
,
0020
0000
0000
0130
0000
0000
2000
0000
0000
3002
0000
0000
0103
0000
1000
0000
,
0100
0000
0010
0100
0000
0001
0000
1000
0000
0100
0000
0010
0000
0001
0000
0000
,
0010
0000
0100
0010
0000
0001
0000
0100
0000
0010
0000
1000
0200
0000
0000
0000
,
0310
0000
0001
0010
0000
0100
0000
1000
0000
0001
0000
0100
0000
0010
0000
0000
,
1000
0000
0001
0100
0000
0010
0000
1000
0000
0100
0000
0010
0002
0000
0000
0000
,
0000
0003
0000
0000
0000
0000
0000
0000
0000
0000
0000
0000
0000
0000
0000
0000
,
0000
0000
0000
0000
;

//---------------dance-single - ----------------
#NOTES:
     dance-single:
     :
     Hard:
     13:
     :
0000
0000
0000
0000
,
0000
0000
0000
0000
,
0000
0000
0000
0000
,
0000
0000
0000
0000
,
0000
0000
0000
0000
,
0001
0000
0001
0000
0100
0000
0000
0010
0000
1000
0001
0100
0010
0000
0000
0000
,
1000
0000
1000
0000
0100
0000
0000
0010
0000
0001
1000
0001
0100
0000
0010
0000
,
0100
0000
0100
0000
0001
0000
0000
1000
0000
0001
0010
0100
1000
0000
0000
0000
,
0010
0000
0010
0000
0100
0000
0000
0001
0000
0001
1000
0100
0010
0100
0010
0100
,
1000
0001
1000
0000
0100
0010
0000
0100
1000
0000
0100
0010
0001
1000
0010
0000
,
0100
0001
0100
0000
0010
1000
0000
0010
0001
0000
0010
0100
0001
1000
0001
0000
,
0010
0100
0010
0000
0001
1000
0000
0001
0010
0000
0001
1000
0100
0010
0001
0000
,
0100
0010
0110
0000
0000
1010
0000
0000
1001
0000
0000
0011
0000
0000
0110
0000
,
0001
0000
0001
0000
0010
0100
0010
0001
0000
0000
0000
0000
1000
0000
0001
0000
,
0010
0000
0000
0100
0000
1000
0000
0020
0000
0000
0000
0000
0030
0000
1000
0001
,
0200
0000
0320
0000
1030
0100
0001
0100
,
1000
0000
0010
1000
0001
0000
0010
0001
1000
0000
0100
0010
0001
0000
0100
0000
,
0010
0000
0000
0000
1000
0100
0000
0020
0000
0000
0000
0000
0031
0000
1000
0000
,
0100
0000
0100
0010
0000
0001
0000
0010
0000
0001
0010
0100
0000
0000
0000
0000
,
2000
0000
0000
0000
0000
0000
0001
3001
0000
0000
0000
0000
0001
1000
0100
0000
,
0020
0000
0000
0000
0000
0000
0031
1000
0000
0000
0000
0000
0001
0010
0100
1000
,
0010
0100
0010
0100
0000
0001
1000
0000
0100
0010
0001
1000
0100
0010
0001
0000
,
1000
0001
1000
0001
0000
0100
0010
0000
1000
0010
0100
0001
1000
0100
0010
0000
,
0001
0000
0001
0000
0010
0100
0010
0000
0100
0000
0100
0000
1000
0001
1000
0000
,
0001
0000
0010
0100
1000
0000
0001
0100
0010
0000
1000
0100
0010
0000
0001
0000
,
1000
0000
0100
0000
0010
0001
0010
0100
0000
1000
0001
0000
0100
0010
0100
0010
,
0100
0000
0010
0000
1000
0100
0010
0001
0000
0100
0010
0000
1000
0000
0100
0000
,
0010
0000
0010
0000
0001
1000
0001
0000
0010
0000
0010
0000
0100
0010
0100
0000
,
0010
0000
0010
0001
0000
0001
1000
0000
1000
0010
0000
0010
0100
0001
1000
0001
,
0010
0100
0010
0100
0000
1000
0001
0000
0100
0010
1000
0001
0100
0010
1000
0000
,
0001
1000
0001
1000
0000
0100
0010
0000
0001
0010
0100
1000
0001
0100
0010
0000
,
1000
0000
1000
0000
0010
0100
0010
0000
0100
0000
0100
0000
0001
1000
0001
0000
,
1000
0000
0010
0100
0001
0000
1000
0100
0010
0000
0001
0100
0010
0000
1000
0000
,
0001
0000
0100
0000
0010
1000
0010
0100
0000
0001
1000
0000
0100
0010
0100
0010
,
0100
0000
0010
0000
0001
0100
0010
1000
0000
0100
0010
0000
0001
0000
0100
0000
,
0010
0000
0010
0000
1000
0001
1000
0000
0010
0000
0010
0000
0100
0010
0100
0000
,
0010
0000
0010
1000
0000
1000
0001
0000
0001
0010
0000
0010
0100
0000
0100
0000
,
0010
0000
0100
1000
0001
0000
0010
0001
1000
0000
0010
0100
0001
0000
0010
0000
,
0100
0000
1000
0001
0100
0000
0010
1000
0001
0000
0010
0100
1000
0100
1000
0100
,
0010
0000
0001
0100
0010
0000
1000
0001
0010
0000
0100
1000
0001
0000
0100
0000
,
0001
1000
0001
1000
0000
0000
0010
0100
0010
0100
0001
0010
0100
1000
0010
0000
,
0200
1000
0001
1000
,
0000
0000
0000
0000
1000
0000
0000
0000
0001
0000
0300
0000
1000
0100
0010
0001
,
0020
1000
0001
1000
,
0000
0000
0000
0000
1000
0000
0000
0000
0001
0000
0030
0000
1000
0010
0001
1000
,
0100
0001
0000
0000
0000
0000
0000
0000
0000
0000
0000
0000
0000
0000
0000
0000
,
0000
0000
0000
0000
;

//---------------dance-single - ----------------
#NOTES:
     dance-single:
     :
     Challenge:
     16:
     :
0000
0000
0000
0000
,
0000
0000
0000
0000
,
0000
0000
0000
0000
,
0010
0000
0001
1000
0200
0000
0000
1300
0000
0100
0000
1000
0001
0000
0100
0000
,
0010
0000
0000
0000
0000
0000
1000
0000
0000
0001
0000
0000
0100
0000
0000
0000
0000
0000
0010
0000
0000
1000
0000
0000
0001
0000
0000
0100
0000
0000
0001
0000
0000
0100
0000
0000
0001
0000
0000
0000
0010
0000
0000
0000
0100
0000
0000
0000
,
1000
0000
0010
0000
0100
0001
0010
0001
0100
0010
1000
0100
0000
1000
0001
0000
,
0010
0000
0001
0000
1000
0010
1000
0100
0010
0001
0100
0001
0000
1000
0100
0000
,
0010
0000
0100
0000
1000
0010
0100
0001
1000
0001
0010
0001
0000
0100
0010
0000
,
1000
0000
0001
0000
0010
0001
0100
0010
1000
0100
1000
0001
0100
0100
0100
0100
,
0010
0000
0110
0000
1000
0100
0010
0001
1000
0001
0100
0010
1000
0100
0001
0000
,
0010
0000
0011
0000
1000
0010
1000
0100
0010
0001
0100
0001
1000
0010
0100
0000
,
0001
0000
1001
0000
1000
0100
0010
0100
1000
0001
0010
0001
0100
0010
1000
0000
,
0100
0000
1100
0100
1000
0001
0010
0100
1000
0010
1000
0001
0010
0001
0100
0010
,
1000
0000
0001
0100
0001
0010
0100
2000
0010
0010
0000
3100
1000
0000
0001
0000
,
0010
0000
0001
0100
0001
1000
0010
0100
0000
0001
0010
0001
1000
0010
1000
0001
,
0100
0000
0010
1000
0100
0010
0001
0100
0001
1000
0001
0010
0001
0100
1000
0000
,
0010
1000
0001
0100
2020
0000
3000
0000
1030
0010
0010
0100
0100
0001
1000
0000
,
0110
0000
0001
0010
0100
1000
0010
1000
0001
0001
0100
0010
1000
0100
0001
0000
,
0010
0001
0100
0010
1000
1100
0000
0011
0000
0100
0001
1000
0001
0010
0100
1000
,
1001
0000
0010
0100
0010
1000
0001
0002
0000
0103
0010
0100
0001
1000
0100
0010
,
0002
0000
1000
0000
1003
0010
1000
0001
0000
0100
0100
0100
0001
0010
0001
1000
,
0100
0100
0100
0100
0000
1100
0000
0101
0000
1100
0001
1000
0010
0100
0010
1000
,
0001
0001
0001
0001
0010
0100
1000
0010
1000
0100
0000
0100
1000
0001
0010
0100
,
0010
0000
0000
0000
0001
0000
0100
0010
0100
0000
0001
0000
1000
0000
0000
0000
1010
0000
1010
0000
0000
0000
0100
0000
1000
0000
0001
0000
0100
0000
0000
0000
,
0010
1000
0100
1000
0001
0010
0001
0100
0000
0110
0001
1000
1001
0010
0100
0000
,
0001
0010
0100
1000
0010
0100
0010
1000
0000
0001
0100
0001
1000
1000
1000
1000
,
0010
0000
0100
0000
0010
0000
1000
0000
0001
0000
0100
0000
0001
0000
1000
0000
0100
0000
0010
0000
0001
0000
0100
0010
0100
0000
0001
0000
1000
0000
0000
0000
,
0011
1000
0100
0001
0010
0100
1000
0000
1100
0010
1000
0001
0100
0010
1000
0000
,
0100
0000
1000
0000
0001
0000
0010
0000
0001
0000
0100
0000
0010
0000
1000
0000
0100
0000
0010
0000
0001
0000
0100
0000
0001
1000
0001
1000
0001
0000
0100
0000
,
0110
0110
0110
0110
1000
0010
1000
0001
0010
0100
1000
0000
0100
0010
0001
1000
,
1010
0000
1010
0000
1010
0000
1010
0000
0100
0000
0010
0000
1000
0000
0001
0000
0010
0000
0001
0000
1000
0000
0000
0010
0100
0000
0001
0000
1000
0000
0100
0000
,
0010
0000
0000
0000
0001
0000
1000
0010
1000
0000
0100
0000
0010
0000
0001
0000
0100
0000
0010
0000
1000
0000
0001
0000
1100
0000
0010
0000
0100
0000
0000
0000
,
0201
0000
0000
0000
0301
0000
1000
0100
1000
0000
0001
0000
0010
0000
0100
0000
1000
0000
1010
0000
0000
0000
0101
0000
0000
0000
1000
0000
0002
0000
0000
0000
,
0013
0000
0001
0000
0100
0010
0100
0010
0100
0000
0001
0000
1000
0000
0010
0000
1000
0000
0100
0000
0001
0000
0000
0000
0011
0000
0011
0000
0011
0000
0011
0000
,
0100
0001
0010
0001
0100
1000
0100
0010
1000
0001
0100
0010
0001
0010
1000
0000
,
0100
0000
1000
0010
1000
0000
0001
0010
0001
0000
0100
0000
0010
0000
0000
0000
2000
0000
0100
0000
3001
0000
2000
0000
0010
0000
3001
0000
0100
0000
0010
0000
,
0100
0000
0000
0001
0010
0000
0000
0001
1000
0000
0100
0000
1000
0000
0010
0000
0000
0000
0100
0000
0001
0000
0100
0000
1000
0000
1000
0000
0001
0000
0001
0000
,
0100
0000
0010
1000
0001
0000
0010
0001
1000
0000
0010
0000
0100
0000
0001
0000
0000
0000
0011
0000
0001
0000
1000
0000
1010
0000
0010
0000
0100
0000
0000
0000
,
0001
0000
0010
0100
1000
0000
0010
0100
0001
0000
1000
0000
0001
0000
0100
0000
0000
0000
0010
0000
1000
0000
0001
0000
1001
0000
1001
0000
1001
0000
1001
0000
,
0100
0000
0010
0000
1000
0000
0100
0000
1000
0000
0001
0000
0010
0000
0100
0000
1000
0000
0010
0000
0001
0000
0100
0010
0100
0000
0001
0000
1000
0000
0100
0000
,
2000
0000
0000
0001
0000
0000
3001
0000
0000
0020
0000
0000
0100
0000
0000
0130
0000
0000
2000
0000
0000
0001
0000
0000
3001
0000
0000
0200
0000
0000
0010
0000
0000
0310
0000
0000
1000
0000
0000
0000
0100
0000
0000
0000
0010
0000
0000
0000
,
0001
0000
0100
0010
1000
0000
0000
1100
0000
1100
0000
1000
0001
0100
0010
0000
,
0100
0000
0010
1000
0001
0000
0000
0010
0001
1000
0000
0000
0101
0101
0101
0101
,
0010
0000
1000
0100
1000
0010
1000
0001
0000
0100
0001
0010
0001
1000
0100
0000
,
0010
0000
0100
1000
0001
0100
0010
1000
0001
1000
0010
0100
0110
0110
0110
0110
,
0110
0110
0000
0000
0000
0000
0000
0000
0000
0000
0000
0000
0000
0000
0000
0000
;

//---------------dance-double - ----------------
#NOTES:
     dance-double:
     :
     Easy:
     8:
     :
00000000
00000000
00000000
00000000
,
00000000
00000000
00000000
00000000
,
00000000
00000000
00000000
00000000
,
00000000
00000000
00000000
00000000
,
00000000
00000000
00000000
00000000
,
00000001
00000100
00000010
00001000
00000000
00000001
00000100
00000000
,
00001000
00010000
00100000
01000000
00000000
00010000
10000000
01000000
,
00100000
00010000
10000000
01000000
00000000
00100000
01000000
00000000
,
00010000
00001000
00010000
00001000
00000000
00000020
00000200
00000330
,
00000001
00001000
00000100
00000010
00000001
00000100
00000010
00000000
,
00000100
00001000
00010000
00001000
00010000
00100000
01000000
00000000
,
00010000
10000000
01000000
00100000
00010000
10000000
01000000
00000000
,
00010000
00001000
00010000
00001000
00000010
00000100
00000110
00000000
,
00000002
00000000
00000100
00000000
00001000
00000000
00000103
00000010
,
00000200
00000000
00000001
00000000
00000010
00000000
00001300
00010000
,
00002000
00023000
00230000
02300000
,
03010000
10000000
00010000
00000000
00100000
01000000
00100000
01000000
,
20000000
00000000
00010000
00000000
01000000
00000000
30010000
00100000
,
02000000
00000000
10000000
00000000
00100000
00000000
03010000
00001000
,
00020000
00032000
00003020
00000032
,
00000203
00000000
00000320
00000000
00001030
00000000
00000001
00000100
,
00000020
00000000
00001030
00000001
00000010
00000100
00001000
00000000
,
00000002
00000000
00000103
00001000
00010000
00001000
00010000
00000000
,
00100000
00100000
10000000
00000000
01000000
01000000
00100000
00000000
,
00010000
10000000
01000000
00100000
00010000
00001000
00000100
00000000
,
00000010
00000001
00000010
00000100
00001000
00000001
00000200
00000000
,
00000310
00001000
00000001
00000010
00000100
00001000
00000001
00000000
,
00000100
00000100
00001000
00001000
00010000
00010000
00100000
00100000
,
10000000
10000000
01000000
01000000
00100000
00100000
00010000
00000000
,
00200000
00000000
00310000
10000000
00100000
01000000
00010000
00000000
,
20000000
00000000
31000000
00010000
00001000
00010000
00001000
00000000
,
00000010
00000010
00000001
00000000
00000100
00000100
00000010
00000000
,
00001000
00000001
00000100
00000010
00001000
00010000
01000000
00000000
,
00100000
00000000
00000000
00000000
00000000
00000000
00000000
00000000
00000000
00000000
00000000
00000000
00000000
00000000
00000000
00000000
00000000
00000000
00000000
00000000
00000000
00000000
00000000
00000000
10000000
00000000
00000000
00000000
00000000
00000000
00000000
00000000
00000000
00000000
00000000
00000000
00000000
00000000
00000000
00000000
00000000
00000000
00000000
00000000
00000000
00000000
00000000
00000000
00100000
00000000
00000000
00000000
00000000
00000000
00000000
00000000
00000000
00000000
00000000
00000000
00000000
00000000
00000000
00000000
00000000
00000000
00000000
00000000
00000000
00000000
00000000
00000000
01000000
00000000
00000000
00000000
00000000
00000000
00000000
00000000
00000000
00000000
00000000
00000000
00000000
00000000
00000000
00000000
00000000
00000000
00000000
00000000
00000000
00000000
00000000
00000000
00010000
00000000
00000000
00000000
00000000
00000000
00000000
00000000
00000000
00000000
00000000
00000000
00000000
00000000
00000000
00000000
00000000
00000000
00000000
00000000
00000000
00000000
00000000
00000000
10000000
00000000
00000000
00000000
00000000
00000000
00000000
00000000
00000000
00000000
00000000
00000000
00000000
00000000
00000000
00000000
00000000
00000000
00000000
00000000
00000000
00000000
00000000
00000000
02000000
00000000
00000000
00000000
00000000
00000000
00000000
00000000
00000000
00000000
00000000
00000000
00000000
00000000
00000000
00000000
00000000
00000000
00000000
00000000
00000000
00000000
00000000
00000000
00000000
00000000
00000000
00000000
00000000
00000000
00000000
00000000
00000000
00000000
00000000
00000000
00000000
00000000
00000000
00000000
00000000
00000000
00000000
00000000
00000000
00000000
00000000
03000000
,
00100000
00010000
10000000
00100000
01000000
00010000
10000000
00000000
,
01000000
01000000
00010000
00010000
00001000
00001000
00000010
00000010
,
00000001
00000001
00000100
00000100
00000010
00000010
00001000
00000000
,
00000001
00001000
00000100
00000000
00000010
00000001
00000100
00001000
,
00010000
00001000
00010000
00000000
00100000
01000000
00020000
00000000
,
10030000
01000000
00100000
00010000
10000000
00100000
00010000
00000000
,
00001000
00010000
00001000
00000010
00000002
00000000
00000200
00000000
,
00000303
00001000
00010000
00001000
,
00000000
00010000
00001000
00000220
,
00000330
00001000
00010000
00001000
,
00000000
00010000
00001000
02200000
,
03300000
00000000
00000000
00000000
,
00000000
00000000
00000000
00000000
;

//---------------dance-double - ----------------
#NOTES:
     dance-double:
     :
     Medium:
     11:
     :
00000000
00000000
00000000
00000000
,
00000000
00000000
00000000
00000000
,
00000000
00000000
00000000
00000000
,
00000000
00000000
00000000
00000000
,
00000000
00000000
00000000
00000000
,
00000001
00000000
00001000
00000000
00000000
00000010
00000000
00000000
00000001
00000000
00000000
00000010
00000000
00000000
00000100
00000000
,
00001000
00000000
00010000
00000000
00000000
00100000
00000000
00000000
10000000
00000000
00000000
01000000
00000000
00000000
00100000
00000000
,
00010000
00000000
00001000
00000000
00000000
00010000
00000000
00000000
00100000
00000000
00000000
01000000
00000000
00000000
10000000
00000000
,
00010000
00000000
00100000
00000000
00000000
00010000
00000000
00000000
00001000
00000000
00000000
00000200
00000020
00000000
00000330
00000000
,
00000001
00000000
00001000
00000000
00000010
00000100
00000000
00000001
00000010
00000000
00000100
00000000
00001000
00000000
00000001
00000000
,
00000100
00000000
00001000
00000000
00010000
00001000
00000000
00010000
00001000
00000000
00010000
00000000
00100000
00000000
01000000
00000000
,
00010000
00000000
10000000
00000000
01000000
00100000
00000000
00010000
00100000
00000000
01000000
00000000
10000000
00000000
00100000
00000000
,
02000000
00000000
00010000
00000000
00000000
10000000
00000000
00000000
00100000
00000000
00000000
10000000
00000000
00000000
03010000
00000000
,
00100000
00000000
00010000
00000000
00100000
00000000
01000000
20000000
00000000
00000000
00000000
00000000
31000000
00000000
00010000
00000000
,
00001000
00000000
00000010
00000000
00000001
00000000
00000010
00000200
00000000
00000000
00000000
00000000
00000000
00000000
00000310
00000001
,
00000010
00000000
00000100
00000000
00001000
00000001
00000100
00001000
,
00010000
00000000
00000000
00001000
00020000
00000000
00000000
00000000
00000000
00000000
00000000
00000000
00030000
00100000
01000000
00000000
,
00010000
00000000
10000000
00000000
01000000
00000000
00100000
00020000
00000000
00000000
00000000
00000000
10030000
00000000
01000000
00000000
,
00010000
00000000
00010000
00001000
00000000
00010000
00001000
00000000
00000010
00000000
00000010
00000001
00000000
00000010
00000001
00000000
,
00000020
00000000
00000230
00000000
00002300
00000000
00003001
00000100
,
00000020
00000000
00000000
00000000
00000230
00000000
00000000
00000000
00001300
00000000
00000000
00000000
00010000
00001000
00010000
00000000
,
00200000
00000000
00000000
00000000
01300000
00010000
00000000
10000000
00000000
01000000
00000000
00000000
00100000
00000000
00010000
00000000
,
20000000
00000000
00000000
00000000
31000000
00100000
00000000
00010000
00000000
00100000
00000000
00000000
01000000
00000000
10000000
00000000
,
00010000
00000000
00010000
00100000
00000000
00010000
00100000
00000000
00001000
00000000
00001000
00010000
00000000
00001000
00010000
00000000
,
00000100
00000010
00000001
00000010
00001000
00001000
00010000
00010000
,
00100000
00000000
10000000
00000000
00010000
00000000
01000000
00100000
00000000
10000000
00000000
00000000
02000000
00000000
00000000
00000000
,
03010000
00000000
00001000
00000000
00000010
00000001
00000000
00001000
00000000
00000010
00000100
00000000
00000001
00000000
00001000
00000000
,
00000100
00000010
00000001
00000100
00001000
00010000
00100000
10000000
,
00010000
10000000
01000000
00010000
00001000
00000010
00000001
00000000
,
00000020
00000000
00000000
00000000
00000130
00001000
00000000
00000001
00000000
00000100
00000000
00000000
00000010
00000000
00001000
00000000
,
00000002
00000000
00000000
00000000
00000103
00000010
00000000
00001000
00000000
00000010
00000000
00000000
00000100
00000000
00000001
00000000
,
00001000
00000000
00001000
00000010
00000000
00001000
00000010
00000000
00010000
00000000
00010000
00001000
00000000
00010000
00001000
00000000
,
01000000
00100000
10000000
00100000
00010000
00010000
00001000
00001000
,
00000010
00000000
00000001
00000000
00001000
00000000
00000100
00000010
00000000
00000001
00000000
00000000
00000200
00000000
00000000
00000000
,
00001300
00000000
00010000
00000000
00100000
10000000
00000000
00010000
00000000
00100000
01000000
00000000
10000000
00000000
00010000
00000000
,
01000000
00100000
10000000
01000000
00010000
00001000
00000010
00000001
,
00001000
00000001
00000100
00001000
00010000
00100000
10000000
01000000
,
00100000
00000000
00000000
00010000
10000000
00000000
00000000
01000000
00000000
00100000
00010000
00000000
10000000
00000000
10000000
00000000
,
01000000
00000000
00000000
00100000
00010000
00000000
00000000
00100000
00000000
00001000
00010000
00000000
00002000
00000000
00000000
00000000
,
00003010
00000000
00000000
00000001
00000100
00000000
00000000
00000010
00000000
00001000
00000001
00000000
00001000
00000000
00000100
00000000
,
00000020
00000000
00000000
00000130
00000000
00000000
00002000
00000000
00000000
00003002
00000000
00000000
00000103
00000000
00001000
00000000
,
00010000
01000000
10000000
00100000
,
00010000
00000000
00001000
00000000
00000010
00000000
00000002
00000103
,
00000010
00001000
00010000
01000000
,
00100000
00000000
00000000
00000000
10000000
00000000
00000000
00000000
01000000
00000000
00000000
00000000
00020000
00002000
00000000
00000000
,
00000000
00033000
00000000
00000000
00000000
00000000
00000000
00000000
00000000
00000000
00000000
00000000
00000000
00000000
00000000
00000000
,
00000000
00000000
00000000
00000000
;

//---------------dance-double - ----------------
#NOTES:
     dance-double:
     :
     Hard:
     14:
     :
00000000
00000000
00000000
00000000
,
00000000
00000000
00000000
00000000
,
00000000
00000000
00000000
00000000
,
00000000
00000000
00000000
00000000
,
00000000
00000000
00000000
00000000
,
00000001
00000000
00000001
00000000
00000100
00000000
00000000
00000010
00000000
00001000
00000001
00000100
00000010
00000000
00001000
00000000
,
00010000
00000000
00010000
00000000
01000000
00000000
00000000
00100000
00000000
10000000
00010000
10000000
01000000
00000000
00100000
00000000
,
00001000
00000000
00001000
00000000
00010000
00000000
00000000
00001000
00000000
00000010
00000001
00001000
00000010
00000000
00000100
00000000
,
00000001
00000000
00000001
00000000
00000010
00000000
00000000
00001000
00000000
00001000
00010000
00100000
01000000
00100000
01000000
00100000
,
10000000
00010000
10000000
00000000
00100000
00010000
00000000
00100000
10000000
00000000
01000000
00010000
00001000
00100000
00010000
00000000
,
00001000
00000100
00001000
00000000
00000001
00000010
00000000
00000100
00001000
00000000
00000010
00000100
00000001
00000100
00001000
00000000
,
00010000
00001000
00010000
00000000
00001000
00010000
00000000
00100000
01000000
00000000
00010000
10000000
01000000
00100000
10000000
00000000
,
00100000
00010000
00100000
00000000
01000000
10000000
00000000
00100000
00010000
00000000
00001000
00000100
00000010
00001000
00000001
00000000
,
00000010
00000000
00000010
00000000
00000100
00001000
00000100
00000001
00000000
00000000
00000000
00000000
00000100
00000000
00000010
00000000
,
00001000
00000000
00001000
00000000
00100000
00010000
00000000
01000000
00000000
00000000
00010000
00000000
10000000
00000000
00100000
00010000
,
00002000
00000000
00003200
00000000
00000301
00000010
00001000
00010000
,
00001000
00000000
00100000
00001000
00010000
00000000
00001000
00100000
00010000
00000000
01000000
00100000
10000000
00000000
01000000
00000000
,
00100000
00000000
00100000
00000000
00010000
01000000
00001000
00020000
00000000
00000000
00000000
00000000
00031000
00000000
00000010
00000000
,
00000001
00000000
00000001
00000000
00000010
00000100
00001000
00000100
00000000
00000000
00000010
00000000
00000001
00000000
00000000
00000000
,
00000020
00000000
00002030
00000000
00023000
00000000
01030000
10000000
,
00200000
00000000
00000000
00000000
00320000
00000000
00000000
00000000
00031000
00000000
00000000
00000000
00000010
00000001
00000010
00000000
,
00000100
00001000
00000100
00001000
00000000
00000010
00000100
00000000
00000001
00001000
00000100
00000010
00000001
00000000
00000100
00000000
,
00001000
00010000
00001000
00010000
00000000
00100000
01000000
00000000
10000000
01000000
00010000
10000000
00100000
00000000
01000000
00000000
,
00010000
00000000
00010000
00000000
10000000
01000000
10000000
00000000
00100000
00000000
00100000
00000000
00010000
00001000
00010000
00000000
,
00001000
00000000
00100000
00010000
00001000
00000000
00010000
00001000
00000100
00000000
00000010
00000001
00000010
00000000
00000100
00000000
,
00001000
00000000
00000001
00000000
00001000
00000100
00000010
00000001
00000000
00000100
00001000
00000000
00010000
00001000
00010000
00001000
,
00010000
00000000
00100000
00000000
10000000
01000000
00100000
00010000
00000000
01000000
00100000
00000000
10000000
00000000
01000000
00000000
,
00100000
00000000
00100000
00000000
00001000
00010000
00001000
00000000
00000100
00000000
00000100
00000000
00000001
00001000
00000001
00000000
,
00000010
00000000
00000010
00001000
00000000
00001000
00010000
00000000
00010000
01000000
00000000
01000000
10000000
00100000
00010000
00100000
,
01000000
00010000
01000000
00010000
00000000
00100000
01000000
00000000
10000000
00010000
01000000
00100000
10000000
00000000
01000000
00000000
,
00010000
00001000
00010000
00001000
00000000
00000010
00000100
00000000
00000001
00000100
00001000
00000001
00000010
00000000
00000100
00000000
,
00001000
00000000
00001000
00000000
00000001
00000100
00000001
00000000
00000010
00000000
00000010
00000000
00001000
00010000
00001000
00000000
,
00010000
00000000
00000010
00001000
00010000
00000000
00001000
00010000
01000000
00000000
00100000
10000000
00100000
00000000
01000000
00000000
,
00010000
00000000
10000000
00000000
00010000
01000000
00100000
10000000
00000000
01000000
00010000
00000000
00001000
00010000
00001000
00010000
,
00001000
00000000
00000010
00000000
00000001
00000100
00000010
00001000
00000000
00000100
00000010
00000000
00000001
00000000
00000100
00000000
,
00000010
00000000
00000010
00000000
00010000
00001000
00010000
00000000
01000000
00000000
01000000
00000000
10000000
00010000
10000000
00000000
,
00100000
00000000
00100000
00010000
00000000
00010000
00001000
00000000
00001000
00000100
00000000
00000100
00000001
00000000
00000001
00000000
,
00000010
00000000
00000100
00001000
00000001
00000000
00000010
00000001
00001000
00000000
00000100
00010000
00001000
00000000
00000010
00000000
,
00001000
00000000
00010000
01000000
10000000
00000000
00100000
01000000
00010000
00000000
10000000
01000000
00100000
01000000
00100000
01000000
,
00010000
00000000
00001000
00010000
00000010
00000000
00000100
00000001
00001000
00000000
00000100
00000010
00000001
00000000
00000010
00000000
,
00001000
00010000
00001000
00010000
00000000
00000000
00100000
01000000
00100000
01000000
00010000
00100000
01000000
10000000
00100000
00000000
,
00020000
01000000
00001000
01000000
,
00000000
00000000
00000000
00000000
00100000
00000000
00000000
00000000
00001000
00000000
00030000
00000000
00000010
00001000
00010000
01000000
,
00002000
00000100
00010000
00000100
,
00000000
00000000
00000000
00000000
00000010
00000000
00000000
00000000
00010000
00000000
00003000
00000000
00100000
00010000
00001000
00000010
,
00001000
00010000
00000000
00000000
00000000
00000000
00000000
00000000
00000000
00000000
00000000
00000000
00000000
00000000
00000000
00000000
,
00000000
00000000
00000000
00000000
;
