#TITLE:Good as Hell;
#SUBTITLE:;
#ARTIST:Lizzo;
#TITLETRANSLIT:;
#SUBTITLETRANSLIT:;
#ARTISTTRANSLIT:;
#GENRE:;
#CREDIT:;
#BANNER:Good as Hell-bn.png;
#BACKGROUND:Good as Hell-bg.png;
#LYRICSPATH:;
#CDTITLE:;
#MUSIC:Good as Hell.ogg;
#OFFSET:1.543210;
#SAMPLESTART:30.666666;
#SAMPLELENGTH:20.000000;
#LASTBEATHINT:0.856158;
#SELECTABLE:YES;
#BPMS:0.000000=95.980003
;
#STOPS:
;
#BGCHANGES:;
#KEYSOUNDS:;
#ATTACKS:;

//---------------dance-single - ----------------
#NOTES:
     dance-single:
     :
     Hard:
     13:
     0.561725,0.541632,0.438929,0.438929,0.534945,430.000000,382.000000,48.000000,48.000000,0.000000,0.000000,0.561725,0.541632,0.438929,0.438929,0.534945,430.000000,382.000000,48.000000,48.000000,0.000000,0.000000:
0000
0000
0000
0000
,
0000
0000
0000
0000
,
0000
0000
0000
0000
,
0020
0000
0000
0000
0130
0000
0000
0000
0101
0000
1000
0001
0000
0000
0000
0000
,
1000
0100
1000
0100
1000
0100
0010
0001
1000
0000
0001
0100
0000
0100
0000
0000
,
2010
0000
0000
0000
3002
0000
0000
0000
1003
0010
0100
0010
1000
0000
0001
0000
,
0100
0001
0010
0001
0100
0010
1000
0000
0000
0000
0001
1000
0001
0000
0100
0000
,
0210
0000
0000
0000
0320
0000
0000
0000
1030
0100
0010
0001
0100
0000
0010
0000
,
1001
0000
0101
0000
1001
0000
1100
0000
0010
1000
0001
1000
0010
0000
0100
0000
,
0001
0000
0000
0000
0010
0000
0000
0000
0100
0000
0000
0000
1000
0000
0000
0000
0000
0000
0001
0000
0000
2000
0000
0000
0000
0000
0000
0000
0000
0000
0000
0000
0000
0000
0000
0000
3010
0000
0000
0100
0000
0000
0010
0000
0000
1000
0000
0000
,
0100
0000
0010
0001
0010
0000
0001
0200
0000
0000
0000
0000
0310
0100
0010
1000
,
0001
0000
0010
0001
0100
0000
0010
2000
0000
0000
0000
0000
3001
1000
0001
0010
,
0100
0000
1000
0010
0100
0000
0001
0000
0011
0000
1100
0000
0000
0000
0010
0000
,
2000
3200
0320
0032
0103
0010
2002
0003
,
0100
0000
0000
0000
0010
0000
3010
1000
0001
1000
0200
0000
0000
0000
0310
0000
,
0002
0203
0320
2030
3001
0100
0220
0030
,
0002
0003
2000
3000
0320
0100
0100
0130
,
1010
0000
0001
0000
1100
0000
0100
0000
0011
0000
0001
0100
0000
0010
1000
0000
,
0001
1000
0001
1000
0001
1000
0010
0100
0001
0000
0010
0100
0000
0100
1000
0000
,
1001
0000
0010
0000
0101
0000
1000
0000
1100
0000
0001
1000
0000
0010
0100
0000
,
0001
0010
0001
0010
0001
0010
0100
1000
0010
0000
1000
0001
0000
0001
0100
0000
,
0110
0000
0001
0000
0011
0000
0100
0000
1100
0000
0100
1000
0000
0001
0010
0000
,
0001
0100
0001
0100
0001
0100
0010
1000
0100
0000
0010
0001
0000
0001
1000
0000
,
1100
0000
0010
0000
1001
0000
0100
0000
1010
0000
1000
0001
0000
1000
0100
0000
,
0010
0100
0010
0100
0010
0100
1000
0001
0100
0000
0001
1000
0000
1000
0010
0000
,
2001
0000
0000
0000
3100
1000
0100
0000
1001
0000
1100
0000
0000
0000
0202
0000
,
0300
0000
1000
0000
1003
0001
0000
0001
0100
0000
0110
0000
1001
0000
0000
0000
,
0021
0000
0000
0000
0031
1000
0001
0000
0101
0000
1010
0000
0000
0000
2200
0000
,
3000
0000
0010
0000
0310
0001
0000
0001
0100
0000
1001
0000
0110
0000
1000
0000
,
0002
0023
0230
2300
3020
0230
0302
0000
,
0000
0000
0010
0000
0010
0000
0013
0100
1000
0100
0020
0000
0000
0000
0031
0000
,
0200
0320
2030
3002
0023
0230
2300
0000
,
0010
0000
0000
0000
3100
0000
1000
0001
1000
0100
0020
0000
0001
0000
0000
0000
,
0200
0000
0000
0000
0030
1000
1000
1300
,
1001
0000
0010
0000
0101
0000
1000
0000
0011
0000
0100
0010
0000
1000
0001
0000
,
0010
0001
1000
0001
0010
0001
1000
0001
0100
0000
0010
1000
0000
1000
0100
0000
,
0110
0000
1000
0000
1001
0000
0010
0000
0101
0000
0001
0010
0000
0100
1000
0000
,
0010
1000
0100
1000
0010
1000
0100
1000
0001
0000
0010
0001
0000
0001
0100
0000
,
1010
0000
0001
0000
0011
0000
0100
0000
1100
0000
0010
0100
0000
0001
1000
0000
,
0100
0010
0001
0010
0100
0010
0001
0010
0100
0000
1000
0001
0000
1000
0010
0000
,
1001
0000
0100
0000
1100
0000
0010
0000
0101
0000
0100
0010
0000
1000
0001
0000
,
1000
0001
0100
0001
1000
0001
0100
0001
0010
0000
0100
1000
0000
1000
0010
0000
,
2100
0000
0000
0000
3001
1000
0001
1000
0010
0000
0100
0001
0000
0100
0010
0000
,
1000
0100
1000
0100
0010
0001
0010
0001
0100
0000
0010
1000
0000
1000
0001
0000
;

//---------------dance-single - ----------------
#NOTES:
     dance-single:
     :
     Medium:
     9:
     0.380144,0.421269,0.237753,0.329197,0.164599,291.000000,265.000000,26.000000,36.000000,0.000000,0.000000,0.380144,0.421269,0.237753,0.329197,0.164599,291.000000,265.000000,26.000000,36.000000,0.000000,0.000000:
0000
0000
0000
0000
,
0000
0000
0000
0000
,
0000
0000
0000
0000
,
0020
0000
0130
0000
0101
1000
0001
0000
,
1000
0000
0100
0000
0010
0000
0001
0000
0100
0000
0001
1000
0000
0010
0000
0000
,
1200
0000
0320
0000
0031
0100
0010
0010
,
1000
0001
0010
0100
0000
0010
1001
0100
,
2000
0000
3002
0000
0013
0001
0100
0010
,
1010
1010
0101
0101
1000
0001
0100
0100
,
0001
0010
0001
0100
1000
0000
1100
0100
,
1000
0001
1000
0010
0100
0000
0101
0001
,
0010
0100
0010
0001
1000
0000
1010
0010
,
1000
0100
0010
0001
0100
0110
0000
0001
,
1000
0100
1000
0010
2000
0001
0002
0000
,
0000
3000
0000
0000
0000
0000
0103
0010
0100
0010
0200
0000
0000
0000
0301
0000
,
1000
0001
1000
0010
2000
0100
3200
0000
,
0001
0000
1300
0000
0000
0010
0010
0010
,
1002
0000
0000
0000
1003
0100
1000
0000
0010
0000
0020
0000
0000
0000
0230
0000
,
0000
0000
0301
0000
0000
0000
1000
0010
1000
0000
0001
0100
0000
0100
0000
0000
,
2010
0000
0000
0000
3001
0010
0001
0000
0100
0000
0200
0000
0000
0000
0320
0000
,
0000
0000
1030
0000
0000
0000
0001
0100
0001
0000
0010
0100
0000
0100
0000
0000
,
1200
0000
0000
0000
1300
0001
1000
0000
0010
0000
0020
0000
0000
0000
2030
0000
,
0000
0000
3100
0000
0000
0000
1000
0001
1000
0000
0010
0100
0000
0100
0000
0000
,
0102
0000
0000
0000
1003
0100
1000
0000
0001
0000
0002
0000
0000
0000
0023
0000
,
0000
0000
0130
0000
0000
0000
0010
0001
0010
0000
0001
1000
0000
1000
0000
0000
,
2010
0000
0000
0000
3001
1000
0001
0000
0100
0000
0200
0000
0000
0000
0320
0000
,
0000
1000
0000
0100
0000
0001
0000
0130
,
0210
0000
0000
0000
0301
1000
0001
0000
0010
0000
0020
0000
0000
0000
0230
0000
,
0000
0001
0000
0010
0000
1000
0000
0310
,
0001
1000
0001
0100
0002
0010
0020
0000
,
0000
0000
0000
0000
0000
0000
0000
0000
0000
0000
0000
0003
0000
0000
0130
0000
,
0001
0010
0001
0100
0002
1000
2003
0000
,
0001
0001
0100
0100
,
3020
0000
0000
0000
0000
0100
0100
0130
,
0110
0000
1001
0000
1000
0001
0100
0000
,
0001
0000
0010
0000
0100
0000
1000
0000
0010
0000
0100
0001
0000
0100
0001
0000
,
0011
0000
1100
0000
0010
1000
0100
0000
,
1000
0000
0001
0000
0100
0000
0010
0000
1000
0000
0001
0010
0000
0001
0010
0000
,
1100
0000
0101
0000
0010
0100
0001
0000
,
0010
0000
0100
0000
1000
0000
0001
0000
1000
0000
0010
0100
0000
0010
0100
0000
,
0101
0000
1010
0000
1000
0100
0001
0000
,
0010
0000
0100
0000
1000
0000
0001
0000
0100
0000
0001
1000
0000
0001
1000
0000
,
2100
0000
0000
0000
3001
1000
0001
0000
0100
0000
0200
0000
0000
0000
0320
0000
,
0000
0000
1030
0000
0000
0000
0001
0010
0001
0000
1000
0010
0000
0100
0001
0000
;

//---------------dance-single - ----------------
#NOTES:
     dance-single:
     :
     Easy:
     6:
     0.215546,0.260043,0.256042,0.201176,0.000000,165.000000,137.000000,28.000000,22.000000,0.000000,0.000000,0.215546,0.260043,0.256042,0.201176,0.000000,165.000000,137.000000,28.000000,22.000000,0.000000,0.000000:
0000
0000
0000
0000
,
0000
0000
0000
0000
,
0000
0000
0000
0000
,
0010
0100
0001
0000
,
1000
0100
1000
0000
,
2001
3020
0130
0010
,
1000
0100
0000
0110
,
1002
0203
0310
1000
,
1100
0101
1000
0001
,
0010
0100
1000
1001
,
0010
0100
0001
0011
,
1000
0001
0100
0110
,
0010
1000
1100
0000
,
0002
0023
0230
2300
,
0000
3000
1010
0000
,
2000
3002
0023
0230
,
0001
1300
0000
0000
,
1001
1001
0010
0100
,
0001
0010
1000
1000
,
1100
1100
0010
0100
,
0010
1000
0001
0001
,
0101
0101
1000
0100
,
1000
0010
0100
0100
,
1010
1010
0100
1000
,
0001
0100
0010
0010
,
1001
0100
1000
0000
,
0010
0000
0010
0000
,
0110
0001
0010
0000
,
0100
0000
0100
0000
,
2000
3002
0203
0320
,
0000
0000
0000
0000
,
0230
0320
2030
3002
,
0000
0000
0000
0000
,
0020
0000
0000
0033
,
1001
1001
1000
0100
,
1000
0010
0100
0100
,
0110
0110
0001
1000
,
0100
0010
0001
0001
,
0011
0011
1000
0001
,
1000
0001
0010
0010
,
0110
0110
0010
0100
,
0010
0001
1000
1000
,
0200
0000
0001
0301
,
1000
0010
0100
0001
;

//---------------dance-single - ----------------
#NOTES:
     dance-single:
     :
     Beginner:
     2:
     0.111039,0.120020,0.018289,0.036577,0.000000,85.000000,83.000000,2.000000,4.000000,0.000000,0.000000,0.111039,0.120020,0.018289,0.036577,0.000000,85.000000,83.000000,2.000000,4.000000,0.000000,0.000000:
// measure 0
0000
0000
0000
0000
,  // measure 1
0000
0000
0000
0000
,  // measure 2
0000
0000
0000
0000
,  // measure 3
0010
0000
0100
0000
,  // measure 4
0001
0001
0000
0000
,  // measure 5
1000
1000
0000
0000
,  // measure 6
0010
0010
0000
0000
,  // measure 7
0100
0100
0000
0000
,  // measure 8
0001
0001
0001
0000
,  // measure 9
1000
0000
0100
0000
,  // measure 10
0010
0000
0001
0000
,  // measure 11
0100
0000
0010
0000
,  // measure 12
1000
0000
0001
0000
,  // measure 13
0010
0010
0010
0020
,  // measure 14
0000
0000
0030
0000
,  // measure 15
0100
0100
0100
0200
,  // measure 16
0000
0000
0300
0000
,  // measure 17
1000
0000
1000
0000
,  // measure 18
0001
0001
0000
0000
,  // measure 19
0010
0000
0010
0000
,  // measure 20
0100
0100
0000
0000
,  // measure 21
0010
0000
0010
0000
,  // measure 22
0001
0001
0000
0000
,  // measure 23
0100
0000
0100
0000
,  // measure 24
1000
1000
0000
0000
,  // measure 25
1001
0000
0000
0000
,  // measure 26
0010
0000
0000
0000
,  // measure 27
0100
0000
0000
0000
,  // measure 28
0001
0000
0000
0000
,  // measure 29
1000
1000
1000
2000
,  // measure 30
0000
0000
3000
0000
,  // measure 31
0001
0001
0001
0002
,  // measure 32
0000
0000
0003
0000
,  // measure 33
0110
0000
0000
0000
,  // measure 34
1000
1000
1000
0000
,  // measure 35
0100
0100
0000
0000
,  // measure 36
0001
0001
0001
0000
,  // measure 37
0010
0010
0000
0000
,  // measure 38
0100
0100
0100
0000
,  // measure 39
1000
1000
0000
0000
,  // measure 40
0010
0010
0010
0000
,  // measure 41
0001
0001
0000
0000
,  // measure 42
1000
0000
0010
0010
,  // measure 43
0000
0000
0001
0001
;
