#TITLE:Get the Party Started;
#SUBTITLE:;
#ARTIST:P!NK;
#TITLETRANSLIT:;
#SUBTITLETRANSLIT:;
#ARTISTTRANSLIT:;
#GENRE:;
#CREDIT:;
#BANNER:Get the Party Started-bn.png;
#BACKGROUND:Get the Party Started-bg.png;
#LYRICSPATH:;
#CDTITLE:;
#MUSIC:Get the Party Started.ogg;
#OFFSET:1.395000;
#SAMPLESTART:46.977001;
#SAMPLELENGTH:20.000000;
#LASTBEATHINT:0.832050;
#SELECTABLE:YES;
#DISPLAYBPM:129.000000;
#BPMS:0.000000=129.000000
,183.750000=119.000000
,184.000000=129.000000
;
#STOPS:
;
#BGCHANGES:;
#KEYSOUNDS:;
#ATTACKS:;

//---------------dance-single - ----------------
#NOTES:
     dance-single:
     :
     Hard:
     12:
     0.539927,0.485971,0.263494,0.247025,0.032937,459.000000,427.000000,32.000000,30.000000,0.000000,0.000000,0.539927,0.485971,0.263494,0.247025,0.032937,459.000000,427.000000,32.000000,30.000000,0.000000,0.000000:
0000
0000
0000
0000
,
0000
0000
0000
0000
,
1001
0000
0001
0100
0010
1000
0100
0010
,
0011
0000
1000
0001
1000
0010
0100
0001
,
0101
0000
0010
0001
0100
0001
1000
0100
,
1100
0000
0010
1000
0100
0010
0001
1000
,
2001
0000
3010
0100
0001
0010
0100
1000
,
0001
0000
1000
0001
0020
0000
0031
0100
,
0010
0010
0010
1000
0001
1000
0100
0100
,
0010
0000
0110
0110
0001
0100
0010
1000
,
1200
0000
0310
0001
1000
0001
0100
0010
,
1000
0000
0001
1000
0020
0000
0130
0001
,
1000
1000
1000
0010
0100
0010
1000
0001
,
0101
0000
0000
2010
0000
3001
1000
0010
,
1000
1000
0001
0100
0010
0100
0001
2000
,
0100
0000
3010
0201
0000
0301
1000
0100
,
1000
0010
0100
0001
0010
0100
1000
0001
,
0100
0010
1000
0002
0000
0013
0001
0100
,
0001
0001
0010
0100
1000
0001
1000
0010
,
0100
0000
0001
0021
0000
0130
1000
0001
,
0010
0010
0010
0001
1000
0100
1000
0001
,
0100
0000
0010
1020
0000
1030
0001
1000
,
0100
0100
0010
0001
1000
0001
0100
0010
,
1000
0000
0100
0210
0000
1300
0001
0100
,
0010
1000
0001
1000
0100
0010
0001
1000
,
0010
0010
0020
0100
0130
0001
1000
0000
,
1002
0000
0013
0001
1000
0010
1000
0001
,
0100
0000
0001
1000
0020
0000
1030
0100
,
0010
0001
0001
0100
0010
1000
0100
0200
,
0000
0000
1300
0000
0001
0000
0100
0010
0000
0100
0010
0000
1000
0000
0001
0000
,
0021
0000
0130
1000
0010
1000
0001
0010
,
0100
0000
1000
0001
0020
0000
0031
0100
,
0010
1000
1000
0100
0010
0001
0100
0100
,
0020
0000
1030
2100
0000
3100
1000
0001
,
0010
0001
1000
0001
0100
0010
1000
0100
,
0010
0000
0001
0102
0000
1003
0001
0010
,
0100
1000
0001
1000
0010
0100
0001
1000
,
0100
0000
0010
0012
0000
1003
0001
0100
,
0010
0010
1000
0001
1000
0010
0100
0001
,
0010
0000
0100
0210
0000
1300
0010
0100
,
0001
0001
1000
0010
1000
0100
0010
0001
,
0100
0000
0000
2001
0000
3010
1000
0001
,
0110
0110
0000
0001
0100
0010
1000
0001
,
0010
0000
0100
1200
0000
1300
0001
0100
,
0001
0010
0100
1000
0010
0100
0001
1000
,
0100
0100
0100
0010
0001
1000
0001
0100
,
1002
0000
1003
0001
1000
0100
0010
0001
,
0100
0000
0001
1000
0020
0000
1030
0100
,
1000
0010
0100
1000
0100
0001
0010
0100
,
0000
0000
1000
0000
0001
0000
0100
0010
0000
0100
0010
0000
1000
0000
0001
0000
,
1020
0000
0130
0001
1000
0100
0010
0001
,
1000
0000
0001
0100
0020
0000
0130
0001
,
0010
1000
0010
0001
0100
0010
1000
0001
,
0100
0000
0001
0000
1000
0000
0100
0010
0000
0100
0010
0000
0001
0000
1000
0000
,
0210
0000
0310
1000
0100
0001
0100
1000
,
0010
0000
1000
0001
0010
0100
0010
0001
,
1000
0001
0001
0010
0100
1000
0010
0010
,
0000
0000
1000
0000
0100
0000
1000
0010
0000
0100
0001
0000
0010
0000
0001
0000
,
0102
0000
1003
0001
0010
1000
0010
0001
,
0100
0000
0001
1000
0010
1000
0100
0010
,
0001
1000
0001
0100
0010
0001
0010
1000
,
1100
0000
0001
0101
0000
0100
0010
1000
,
1001
1001
0000
0000
0000
0000
0000
0000
;

//---------------dance-single - ----------------
#NOTES:
     dance-single:
     :
     Medium:
     10:
     0.443469,0.460394,0.247025,0.197620,0.016468,377.000000,347.000000,30.000000,24.000000,0.000000,0.000000,0.443469,0.460394,0.247025,0.197620,0.016468,377.000000,347.000000,30.000000,24.000000,0.000000,0.000000:
0000
0000
0000
0000
,
0000
0000
0000
0000
,
1001
0000
0100
0010
0000
1000
0000
0001
,
0011
0000
0100
1000
0001
1000
0100
0000
,
1100
0000
0001
1000
0000
0010
0000
0100
,
0110
0000
0001
1000
0010
1000
0001
0000
,
2002
0000
0003
0010
0000
0100
0000
0001
,
3001
0000
1000
0001
0020
0000
0130
1000
,
0010
0000
0100
0010
1000
0000
0001
1000
,
0100
0000
0110
0110
0000
0000
0000
0000
,
2002
0000
3000
0100
0000
0010
0000
1000
,
1003
0000
0001
1000
0020
0000
0130
0001
,
0010
0000
0001
1000
0100
0000
1000
0010
,
0100
0000
0000
0101
0000
0001
1000
0001
,
0010
0100
1000
0001
1000
0100
0010
0001
,
0000
0000
0000
1010
0000
0010
0100
0010
,
1000
0001
0000
0001
0010
0100
1000
0001
,
0000
0000
0000
1100
0000
0100
1000
0001
,
1000
0010
0000
0010
0100
1000
0100
0001
,
0000
0000
0000
0011
0000
1000
0100
1000
,
0010
0100
0010
0100
0001
0010
0100
1000
,
0000
0000
0000
1001
0000
1000
0010
1000
,
0002
0000
0013
0100
1000
0001
1000
0100
,
0000
0000
0000
0110
0000
0010
0001
1000
,
0001
0100
0010
1000
0001
0010
0100
1000
,
0001
2000
0100
0000
0000
0010
3000
0000
,
2002
0000
0003
0010
0000
0001
0000
0100
,
3100
0000
1000
0001
0020
0000
0031
0100
,
0010
0000
1000
0100
0010
0000
0001
1000
,
0000
0000
0001
0000
1000
0000
0000
0010
0000
0000
1000
0000
0001
0000
0100
0000
,
0220
0000
0030
1000
0000
0001
0000
0010
,
0310
0000
0100
0001
0020
0000
0031
1000
,
0100
0000
1000
0010
0100
0000
0001
1000
,
0010
0000
0000
1100
0000
1000
0010
1000
,
0001
1000
0010
1000
0100
0010
0001
1000
,
0000
0000
0000
0101
0000
0001
1000
0001
,
0010
0100
0010
0100
1000
0001
1000
0001
,
0000
0000
0000
1010
0000
0100
0010
0100
,
0001
0010
0001
0010
0100
1000
0100
1000
,
0000
0000
0000
0011
0000
0001
0100
0001
,
1000
0100
0010
0001
0100
0010
1000
0001
,
0000
0000
0000
1001
0000
1000
0010
0100
,
0001
1000
0000
0010
1000
0100
0010
0001
,
0000
0000
0000
0110
0000
0010
0001
1000
,
0010
1000
0001
1000
0100
0010
0001
1000
,
0010
0100
0001
0000
0000
1000
0100
0000
,
1002
0000
1000
0000
0013
0001
0100
0010
,
1000
0000
0001
0100
0020
0000
1030
0010
,
1000
0000
1000
0001
0100
0000
0010
0100
,
0000
0000
0001
0000
1000
0000
0000
0010
0000
0000
1000
0000
0001
0000
0100
0000
,
0210
0000
1000
0000
0301
0100
0010
1000
,
0001
0000
0100
0001
0020
0000
0130
1000
,
0010
0000
1000
0001
1000
0000
0100
0010
,
0000
0000
0001
0000
0100
0000
0000
0010
0000
0000
0100
0000
0001
0000
1000
0000
,
2100
0000
3010
0100
0002
0000
0013
0100
,
1000
0000
0001
1000
0020
0000
0130
0001
,
1000
0010
0100
0001
1000
0100
0010
0001
,
0000
0000
0100
0000
0010
0000
0000
0010
0000
0000
1000
0000
0001
0000
0100
0000
,
0201
0000
0310
1000
0200
0000
0310
0001
,
1000
0000
0001
0100
0020
0000
1030
0001
,
0010
0100
0010
0001
0100
0010
1000
0001
,
0101
0000
0000
1010
0000
1000
0100
0010
,
1001
1001
0000
0000
0000
0000
0000
0000
;

//---------------dance-single - ----------------
#NOTES:
     dance-single:
     :
     Easy:
     7:
     0.278786,0.306311,0.181152,0.230557,0.000000,237.000000,215.000000,22.000000,28.000000,0.000000,0.000000,0.278786,0.306311,0.181152,0.230557,0.000000,237.000000,215.000000,22.000000,28.000000,0.000000,0.000000:
0000
0000
0000
0000
,
0000
0000
0000
0000
,
1001
0010
1000
0100
,
0110
0010
0001
1000
,
1001
0100
0010
0001
,
0110
1000
0001
0100
,
2002
0000
0000
0000
,
0003
0001
0010
3001
,
0100
0000
0010
0000
1000
0000
0100
0010
,
0000
0000
0001
1000
0000
0000
0000
0000
,
0220
0000
0000
0000
,
0030
0001
0010
0301
,
1000
0000
0001
0000
0010
0000
0100
1000
,
0000
0000
0000
0020
0000
0000
0130
0000
,
0001
0000
0010
0000
0001
0000
1000
0010
,
0000
0000
0000
2000
0000
0000
3100
0000
,
1001
0000
0000
0000
0010
0000
0100
0001
,
0000
0000
0000
2000
0000
0000
3100
0000
,
0110
0000
0000
0000
0001
0000
1000
0010
,
0000
0000
0000
0200
0000
0000
0301
0000
,
1000
0000
0001
0000
1000
0000
0100
0010
,
0000
0000
0000
1002
0000
0000
0103
0000
,
0001
0000
0010
0000
0001
0000
1000
0100
,
0000
0000
0000
0120
0000
0000
0031
0000
,
1000
0000
0010
0000
1000
0100
0010
0002
,
0000
0200
0000
0000
0000
0000
0303
0000
,
2002
0000
0000
0000
,
3000
1000
0010
1003
,
0001
0000
0100
0000
0010
0000
1000
0001
,
0000
0000
0100
0000
0010
1000
0001
0000
,
0220
0000
0000
0000
,
0030
1000
0010
1300
,
0100
0000
0001
0000
0010
0000
0100
1000
,
0000
0000
0000
0002
0000
0000
0013
0000
,
1000
0000
0001
0000
0100
0000
0010
1000
,
0000
0000
0000
0200
0000
0000
0310
0000
,
0001
0000
0100
0000
0010
0000
1000
0100
,
0000
0000
0000
2000
0000
0000
3001
0000
,
1000
0000
0010
0000
1000
0000
0001
0100
,
0000
0000
0000
0020
0000
0000
1030
0000
,
0001
0000
1000
0000
0001
0010
0100
1000
,
0000
0000
0000
2001
0000
0000
3010
0000
,
1000
0001
0000
0000
1000
0000
0010
0100
,
0000
0000
0000
0210
0000
0000
0301
0000
,
0010
0000
0001
0000
1000
0001
0100
0020
,
0000
2000
0000
0000
0000
0000
3030
0000
,
2001
0001
0001
0001
,
0001
0100
0010
3100
,
1000
0000
0010
0000
0100
0000
0001
1000
,
0000
0000
0001
0000
0010
0100
1000
0000
,
0210
1000
1000
1000
,
1000
0001
0010
0301
,
0100
0000
0010
0000
1000
0000
0001
0010
,
0000
0000
1000
0000
0010
0100
0001
0000
,
1002
0010
1000
0100
,
1003
0000
0001
1000
0010
0000
0110
0000
,
0001
0000
0010
0000
0100
0000
1000
0010
,
0000
0000
0100
0000
0010
1000
0001
0000
,
0210
0010
0001
1000
,
0301
0000
0100
0001
0010
0000
1001
0000
,
1000
0000
0010
0000
1000
0000
0100
0010
,
0000
0000
0000
0110
0000
0001
1000
0000
,
1001
0000
0000
0000
;

//---------------dance-single - ----------------
#NOTES:
     dance-single:
     :
     Beginner:
     3:
     0.137628,0.204208,0.164684,0.082342,0.000000,117.000000,97.000000,20.000000,10.000000,0.000000,0.000000,0.137628,0.204208,0.164684,0.082342,0.000000,117.000000,97.000000,20.000000,10.000000,0.000000,0.000000:
// measure 0
0000
0000
0000
0000
,  // measure 1
0000
0000
0000
0000
,  // measure 2
1001
0000
0000
0000
,  // measure 3
0110
0000
0000
0000
,  // measure 4
1001
0000
0000
0000
,  // measure 5
0110
0000
0000
0000
,  // measure 6
0002
0000
0000
0000
,  // measure 7
0003
0000
0010
0000
,  // measure 8
0001
0000
0100
0000
,  // measure 9
1000
0000
0000
0000
,  // measure 10
2000
0000
0000
0000
,  // measure 11
3000
0000
0010
0000
,  // measure 12
1000
0000
0001
0000
,  // measure 13
0100
0000
0110
0000
,  // measure 14
1001
0000
0010
0000
,  // measure 15
1000
0000
0001
0000
,  // measure 16
1000
0000
0010
0000
,  // measure 17
0100
0000
0001
0000
,  // measure 18
0010
0000
0100
0000
,  // measure 19
1000
0000
0010
0000
,  // measure 20
1000
0000
0001
0000
,  // measure 21
0100
0000
0110
0000
,  // measure 22
1001
0000
1000
0000
,  // measure 23
0100
0000
0010
0000
,  // measure 24
0001
0000
1001
0000
,  // measure 25
0110
0000
0000
0000
,  // measure 26
2000
0000
0000
0000
,  // measure 27
3000
0000
0010
0000
,  // measure 28
0100
0000
0001
0000
,  // measure 29
1000
0000
0000
0000
,  // measure 30
0002
0000
0000
0000
,  // measure 31
0003
0000
0010
0000
,  // measure 32
0001
0000
0100
0000
,  // measure 33
1000
0000
1001
0000
,  // measure 34
0110
0000
0100
0000
,  // measure 35
0010
0000
1000
0000
,  // measure 36
0100
0000
0010
0000
,  // measure 37
0001
0000
0100
0000
,  // measure 38
0010
0000
1000
0000
,  // measure 39
0001
0000
1000
0000
,  // measure 40
0010
0000
0100
0000
,  // measure 41
0110
0000
1000
0000
,  // measure 42
1001
0000
0001
0000
,  // measure 43
0100
0000
0001
0000
,  // measure 44
0010
0000
0110
0000
,  // measure 45
1001
0000
0000
0000
,  // measure 46
0002
0000
0000
0000
,  // measure 47
0003
0000
0010
0000
,  // measure 48
0001
0000
1000
0000
,  // measure 49
0100
0000
0000
0000
,  // measure 50
2000
0000
0000
0000
,  // measure 51
3000
0000
0010
0000
,  // measure 52
0100
0000
0001
0000
,  // measure 53
0010
0000
0000
0000
,  // measure 54
2002
0000
0000
0000
,  // measure 55
3003
0000
0010
0000
,  // measure 56
1000
1000
1000
0000
,  // measure 57
0001
0000
0100
0000
,  // measure 58
0220
0000
0000
0000
,  // measure 59
0330
0000
0010
0000
,  // measure 60
0001
0001
0001
0000
,  // measure 61
1000
0000
0110
0000
,  // measure 62
1001
0000
0000
0000
;
