#TITLE:Get Back Up!;
#ARTIST:NMR runners;
#BANNER:Get Back Up!.png;
#BACKGROUND:Get Back Up!-bg.png;
#JACKET:Get Back Up!-jacket.png;
#MUSIC:Get Back Up!.ogg;
#SAMPLESTART:44.14;
#SAMPLELENGTH:20;
#DISPLAYBPM:155;
#BPMS:0=155;
#BGCHANGES:;

//---------------dance-single - ----------------
#NOTES:
     dance-single:
     :
     Beginner:
     2:
     :
0000
0000
0000
0000
,
0000
0000
0000
0000
,
0000
0000
0000
0000
,
0000
0000
0000
0000
,
0000
0000
0000
0000
,
1000
0000
0000
0000
,
0100
0000
0000
0000
,
0001
0000
0000
0000
,
0010
0000
0000
0000
,
1000
0000
1000
0000
,
0100
0000
0100
0000
,
0001
0000
0001
0000
,
0010
0000
0010
0000
,
1000
0000
0001
0000
,
1000
0000
0001
0000
,
0100
0000
0100
0000
,
0001
0000
0001
0000
,
0010
0000
0010
0000
,
1000
0000
1000
0000
,
0001
0000
0001
0000
,
0100
0000
0100
0000
,
1000
0000
1000
0000
,
0010
0000
0000
0000
,
0001
0000
0000
0000
,
0100
0000
0000
0000
,
1000
0000
0000
0000
,
0010
0000
0000
0000
,
0100
0000
0000
0000
,
1001
0000
0000
0000
,
1000
0000
1000
0000
,
0100
0000
0100
0000
,
0001
0000
0001
0000
,
0010
0000
0010
0000
,
1000
0000
1000
0000
,
0100
0000
0100
0000
,
1000
0000
0001
0000
,
1000
0000
0001
0000
,
0100
0000
0100
0000
,
0001
0000
0001
0000
,
0010
0000
0010
0000
,
1000
0000
1000
0000
,
0010
0000
0000
0000
,
1000
0000
0000
0000
,
0100
0000
0000
0000
,
0001
0000
0000
0000
,
1000
0000
1000
0000
,
0100
0000
0100
0000
,
0001
0000
0001
0000
,
0010
0000
0010
0000
,
0001
0000
0000
0000
,
0100
0000
0000
0000
,
1000
0000
0000
0000
,
0010
0000
0000
0000
,
0100
0000
0100
0000
,
0001
0000
0001
0000
,
0010
0000
0010
0000
,
1000
0000
1000
0000
,
1001
0000
0000
0000
,
0000
0000
0000
0000
;

//---------------dance-single - ----------------
#NOTES:
     dance-single:
     :
     Easy:
     7:
     :
0000
0000
0000
0000
,
0000
0000
0000
0000
,
0000
0000
0000
0000
,
0000
0000
0000
0000
,
0000
0000
0000
0000
,
0001
0000
0100
0000
,
0001
0000
0010
0000
,
0100
0000
1000
0000
,
0100
0000
0001
0000
,
0010
0000
1000
0000
,
0010
0000
0001
0010
,
1000
0000
0100
0000
,
0001
0000
0100
1000
,
0001
0100
1000
0100
,
0001
0010
0001
0100
,
1000
0100
0001
0100
,
0001
0010
0002
0003
,
0010
1000
0100
0001
,
0100
1000
0100
0001
,
0010
1000
0100
0001
,
0100
1000
0200
0300
,
0002
0003
1000
0100
,
0010
0001
1000
0100
,
0020
0031
1000
0100
,
0020
0000
0001
0031
,
2000
3000
0200
0300
,
0002
0003
0020
0030
,
1000
0100
0001
0010
,
2020
3030
0001
0100
,
0020
0000
1030
0100
,
0002
0000
0013
1000
,
0001
0100
1000
0100
,
0202
0303
1000
0100
,
0020
0030
0001
0100
,
0010
1000
0001
0100
,
0101
0000
1010
0000
,
2002
3003
0001
0100
,
0010
0020
1030
2000
,
3100
0200
0301
0002
,
0103
0200
1300
0100
,
2200
3300
0001
0100
,
0020
0000
1030
0100
,
0002
0000
0103
1000
,
1100
0000
0011
0000
,
2002
0000
0000
3003
,
1000
0000
0100
1000
0000
0000
0000
0000
,
0100
0000
0001
0100
0000
0000
0000
0000
,
1000
0000
0100
1000
0000
0000
0000
0000
,
0100
0000
0001
0100
0000
0000
0000
0000
,
0010
0000
0001
0010
0000
0000
0000
0000
,
0001
0000
0100
0001
0000
0000
0000
0000
,
1000
0000
0100
1000
0000
0000
0000
0000
,
0001
0100
1000
0100
,
0002
0103
2000
3100
,
0002
0010
1000
0103
,
0020
1000
1000
1030
,
0002
0013
0002
0103
,
0101
0000
0000
0000
,
0000
0000
0000
0000
;

//---------------dance-single - ----------------
#NOTES:
     dance-single:
     :
     Medium:
     9:
     :
0000
0000
0000
0000
,
0000
0000
0000
0000
,
0000
0000
0000
0000
,
0000
0000
0000
0000
,
0000
0000
0000
0000
,
0010
0001
0100
1000
,
0001
0010
0100
0000
1000
0000
0010
0000
,
1000
0100
0001
0010
,
1000
0100
0010
0000
1000
0000
0010
0000
,
1000
0001
0100
0010
,
1000
0000
0100
0010
1000
0000
0001
0000
,
0100
0001
0100
1000
,
0010
0001
0100
0000
1000
0000
0010
0000
,
1000
0000
0001
0000
0100
0010
1000
0000
,
0100
1000
0001
0100
,
1000
0000
0010
0000
1000
0001
0100
0000
,
1000
0000
0100
0010
2200
0000
3300
0000
,
0010
0000
0100
0000
1000
0001
0100
0000
,
0010
0000
1000
0010
0100
0000
0010
0000
,
1000
0000
0001
0000
1000
0001
0100
0000
,
1000
0001
0100
0000
1000
0000
0001
0000
,
0100
0001
0010
1000
0100
0000
0010
0000
,
2000
3200
0320
0032
,
1003
0010
0100
0001
1000
0000
0010
0000
,
0202
0000
0303
1000
0001
0000
0100
0000
,
0010
1000
0100
0001
0000
1000
0001
0000
,
1000
0010
0100
0001
,
1000
0100
0010
0001
0000
0000
0100
0000
,
2010
0000
0100
3010
,
0100
0001
1000
0010
0100
0000
1000
0000
,
0100
0010
1000
0001
,
0010
0001
0100
1000
,
0202
0003
0010
1300
,
0010
0000
0100
0000
1000
0001
0100
0010
,
1000
0100
0010
0100
,
2020
0000
3030
0001
0000
0100
1000
0000
,
0220
0030
1000
0301
,
1000
0001
0100
0001
1000
0000
0100
0000
,
0010
0001
0100
1000
,
0010
1000
0100
0001
,
2200
0300
0010
3001
,
0100
0000
0010
0000
0100
1000
0010
1000
,
0100
0000
1000
0000
0100
0001
1000
0000
,
0101
0000
0010
0001
0000
1000
0100
0000
,
2020
0000
0000
3030
,
0100
0001
1000
0000
0000
0010
0100
0001
,
1000
0100
2020
3030
,
0100
0001
1000
0000
0000
0100
0010
1000
,
0100
1000
0022
0033
,
0100
0001
1000
0000
0000
0100
0001
1000
,
0100
0010
0202
0303
,
0010
1000
0001
0000
0000
1000
0001
0010
,
1000
0000
0000
0010
0000
0000
0001
0000
0100
0000
0000
0000
1000
0000
0000
0000
,
0100
0001
0010
0000
1000
0000
0100
0000
,
1000
0100
0001
0000
0100
0000
1000
0000
,
0100
0001
1000
0000
0001
0000
0100
0000
,
1000
0100
0010
0000
1000
0000
0001
0000
,
0100
0000
0000
0000
,
0000
0000
0000
0000
;

//---------------dance-single - ----------------
#NOTES:
     dance-single:
     :
     Hard:
     12:
     :
0000
0000
0000
0000
,
0000
0000
0000
0000
,
0000
0000
0000
0000
,
0000
0000
0000
0000
,
0000
0000
0000
0000
,
1000
0000
0100
0000
0001
0000
0100
1000
,
0000
0010
0000
0001
0010
1000
0100
1000
,
0001
0000
0010
0000
1000
0000
0010
0001
,
0000
0100
0000
1000
0100
0001
0010
0000
,
0001
0000
0100
0000
1000
0000
0100
0001
,
0000
0010
0000
1000
0010
0001
0100
0001
,
1000
0000
0010
0000
0001
0000
0010
1000
,
0000
0100
0000
0001
0100
1000
0010
0000
,
0100
0000
0001
0000
1000
0010
1000
0100
,
0000
0010
0011
0100
1000
0000
1100
0000
,
0010
0000
1000
0000
0001
0100
0001
0010
,
0000
0100
1000
0001
0011
0000
0000
0000
,
0100
0000
1000
0000
0001
0010
0001
0100
,
0000
0010
1010
0100
0001
0000
0101
0000
,
0010
0000
0001
0000
1000
0100
1000
0010
,
0000
0100
0001
1000
1010
0000
0000
0000
,
0001
0010
1000
0100
0000
0010
1000
0000
,
0010
0000
0001
0000
0100
0000
0010
0001
,
0010
1000
0100
1000
0000
0010
0001
0000
,
0010
0000
0001
0010
1000
0000
0100
0000
,
0001
0100
1000
0010
0000
0100
1000
0000
,
0100
0000
0001
0000
0010
0000
0100
0001
,
0100
1000
0010
1000
0000
0100
0001
0000
,
0100
0000
1000
0010
,
0101
0000
1000
1100
0000
0010
1000
0100
,
0010
0000
0001
0000
0010
0001
0000
0000
0100
0000
0001
0000
0100
0001
0000
0000
,
0010
0000
1000
0000
0010
1000
0000
0000
0100
0000
1000
0000
0100
1000
0000
0000
,
0001
0000
0100
0000
0001
0010
0001
0000
,
1100
0000
0001
0101
0000
0010
0001
0100
,
0010
0000
1000
0000
0010
1000
0000
0000
0100
0000
1000
0000
0100
1000
0000
0000
,
0011
0000
0000
0101
0000
0010
1000
0100
,
2200
3300
0001
0010
,
0001
0100
0000
0000
0001
1000
0000
0000
0001
0010
0000
0000
1000
0010
0000
0000
,
0001
0100
0000
0000
1000
0100
0000
0000
0001
0010
0000
0000
0001
1000
0000
0000
,
1000
0010
0000
0000
1000
0001
0000
0000
1000
0100
0000
0000
0001
0100
0000
0000
,
1000
0010
0000
0000
0001
0010
0000
0000
1000
0100
0000
0000
1000
0001
0000
0000
,
0001
0100
0001
0100
0001
1000
0001
0010
,
0100
1000
0001
1000
0010
1000
0010
1000
,
0101
0000
0000
0011
0000
0100
1000
0010
,
0001
0000
0010
0000
0001
0010
0000
0000
1000
0000
0010
0000
1000
0010
0000
0000
,
0102
0000
0000
0013
0000
0000
1100
0000
0000
0000
1000
0000
0010
0000
0001
0000
,
0020
0000
0000
0001
0000
0000
1030
0000
0100
0000
0000
0000
0011
0000
0000
0000
,
2100
0000
0000
3010
0000
0000
0101
0000
0000
0000
0001
0000
0010
0000
1000
0000
,
0020
0000
0000
1000
0000
0000
0031
0000
0100
0000
0000
0000
0101
0000
0000
0000
,
0012
0000
0000
0103
0000
0000
1010
0000
0000
0000
1000
0000
0100
0000
0001
0000
,
0200
0000
0000
0001
0000
0000
1300
0000
0010
0000
0000
0000
0101
0000
0000
0000
,
2010
0000
0000
3100
0000
0000
0011
0000
0000
0000
0001
0000
0100
0000
1000
0000
,
0200
0000
0000
1000
0000
0000
0301
0000
0010
0000
0000
0000
0011
0000
0000
0000
,
2200
0000
0000
0000
,
0300
0000
0000
0000
3100
0000
0000
0000
1000
0000
0000
0010
0000
0000
0000
0000
,
0002
0000
0000
0013
,
2000
0000
0000
0000
0000
0000
0000
0000
3100
0000
0000
0002
0000
0000
0000
0000
,
0200
0000
0000
0303
,
0000
0000
0000
0000
;

//---------------dance-single - ----------------
#NOTES:
     dance-single:
     :
     Challenge:
     15:
     :
0000
0000
0000
0000
,
0000
0000
0000
0000
,
0000
0000
0000
0000
,
0000
0000
0000
0000
,
0000
0000
0000
0000
,
0001
0100
1000
0100
0010
0100
0001
0011
,
0000
0000
1100
0000
0000
0000
0010
0000
1000
0100
1000
0000
0001
0100
0001
0000
,
1000
0100
0001
0100
0010
0001
1000
1010
,
0000
0000
0101
0000
0000
0000
0010
0000
0001
0000
0010
0100
1000
0000
0000
0000
,
0001
0100
1000
0100
0010
1000
0100
0110
,
0000
0000
1001
0000
0000
0000
0100
0000
1000
0010
1000
0000
0001
0010
0001
0000
,
1000
0100
0001
0100
0010
0001
1000
0020
,
0000
0230
0000
0302
2003
3002
0203
0000
,
0310
0000
0000
0000
1000
0100
1000
0100
0000
0010
0001
0000
0100
0001
0010
0000
,
0100
0000
0000
0000
0001
1000
0001
1000
0000
0100
0010
0000
0001
1000
0010
0000
,
0100
0000
0000
0000
0001
0010
0001
0010
0000
0001
1000
0000
0010
1000
0100
0000
,
1000
0000
0000
0000
0100
0010
0100
0010
0000
0001
0100
0000
0010
1000
0001
0000
,
0100
0000
0000
0000
0010
1000
0010
1000
0000
0100
0010
0000
0001
1000
0001
0000
,
0010
0000
0000
0000
0100
0010
0100
0010
0000
0001
1000
0000
0001
1000
0100
0000
,
1000
0000
0000
0000
0001
0010
0001
0010
0000
0001
0010
0000
0100
1000
0100
0000
,
0010
0000
0000
0000
0001
0100
0010
1000
0000
0000
1100
0000
0000
0101
0000
0000
,
1001
0000
0010
0000
1000
0000
0001
0000
0010
0001
0010
0000
0100
0000
1000
0001
,
0100
0000
0010
1000
0100
0000
0010
0001
0100
0000
0001
1000
0100
0000
0010
0000
,
0001
0000
0100
0000
1000
0000
0010
0000
1000
0001
0010
0000
0001
0100
0010
0000
,
2000
0000
0001
0000
3001
0000
0110
0000
1001
0000
0010
0000
1000
0001
0100
0000
,
0110
0000
0001
0000
0010
0000
1000
0000
0100
0010
0100
0000
1000
0001
0010
0000
,
0001
0000
0100
0010
1000
0000
0100
1000
0010
0100
0001
0000
1000
0001
0010
0000
,
0001
0000
0100
0010
1000
0000
0100
0000
1000
0010
1000
0001
0010
0000
0100
0000
,
1100
0000
0001
0000
1000
0010
1000
0010
1000
0100
0010
0000
0001
0100
0010
0000
,
1001
0000
0010
1000
0000
1000
0100
0000
0010
0000
0001
1000
0000
1000
0010
0000
,
0100
0001
0100
0000
0010
1000
0010
0000
1000
0100
1000
0000
0001
0010
0001
0000
,
0100
0000
0001
0010
0100
0000
1000
0001
0100
0000
0010
1000
0001
0000
1000
0010
,
1000
0000
0100
0010
0100
1000
0010
0100
0001
0010
0001
0000
1000
0010
1000
0000
,
0101
0000
1000
0100
0000
0100
0010
0000
0001
0000
1000
0010
0000
0010
0100
0000
,
0001
0010
0001
0000
0100
1000
0100
0000
1000
0010
1000
0000
0001
0100
0001
0000
,
0011
0000
0100
0000
1000
0000
1010
0000
0100
0001
1000
0000
0100
0010
0001
0000
,
1000
0000
0001
0000
0010
0001
0100
0000
0010
1000
0010
0000
0100
0001
0100
0000
,
0110
0000
0001
0010
0000
0100
1000
0000
0010
0000
1000
0100
0000
0010
0001
0000
,
1000
0100
0010
0000
0001
1000
0100
0000
0010
0001
0100
0000
0001
1000
0010
0000
,
0100
0001
0100
0000
0001
0010
0001
0000
1000
0100
1000
0000
0010
1000
0010
0000
,
0100
0001
0010
0001
0010
0100
1000
0000
0010
1000
0001
0000
0100
1000
0001
0000
,
1001
0000
0010
0001
0010
0100
1000
0000
0010
0000
0100
0001
1000
0100
1000
0000
,
0010
0001
0100
0000
0010
1000
0100
0000
0010
0001
1000
0000
0100
1000
0001
0000
,
0011
0000
1000
0001
0100
0000
1010
0000
0000
0000
0010
1000
0100
0000
0010
0001
,
1000
0000
0010
0100
0000
0010
0100
0000
0001
0000
1000
0100
0000
1000
0100
0000
,
0010
0000
0001
0100
0001
0000
1010
0000
0000
0000
1000
0000
0010
0000
1000
0000
,
0100
0000
0010
0001
0000
1000
0100
0000
1000
0010
0100
0000
0001
1000
0001
0000
,
0010
0001
0000
0001
1000
0000
0101
0000
0000
0000
0010
0000
1000
0000
0100
0000
,
0010
0001
0010
0001
0010
0100
1000
0000
0001
1000
0200
0000
0310
0000
0000
0000
,
0110
0000
0001
0100
0000
0010
1000
0000
0100
1000
0001
0000
0010
0001
1000
0000
,
0100
0000
1000
0010
0100
0001
1000
0000
0010
1000
0002
0000
0023
0000
0130
0000
,
1100
0000
0001
0100
0010
0000
1000
0100
0000
0100
0010
0000
0001
1000
0001
0000
,
0011
0000
0000
0101
0000
0000
1001
0000
1000
0100
0010
0000
0001
0100
0010
0000
,
1000
0000
0100
0000
0010
0001
0010
0001
0010
0000
0100
1000
0000
0010
1000
0001
,
0100
0000
0010
0000
1000
0100
0000
0100
0001
0000
0010
0001
0000
0001
1000
0010
,
0100
0000
0001
0000
0010
0100
1000
0001
1000
0000
0010
1000
0000
0001
0010
0100
,
1000
0000
0010
0000
1000
0100
0010
0001
0100
0000
0001
0100
0000
0001
1000
0020
,
0200
0000
0000
0000
,
0000
0000
0000
0000
,
0000
0000
0000
0000
,
0330
0000
0000
0000
;

//---------------dance-double - ----------------
#NOTES:
     dance-double:
     :
     Easy:
     7:
     :
00000000
00000000
00000000
00000000
,
00000000
00000000
00000000
00000000
,
00000000
00000000
00000000
00000000
,
00000000
00000000
00000000
00000000
,
00000000
00000000
00000000
00000000
,
00010000
00000000
01000000
00000000
,
00010000
00000000
00001000
00000000
,
00000010
00000000
00000001
00000000
,
00000100
00000000
00001000
00000000
,
00010000
00000000
01000000
00000000
,
10000000
00000000
01000000
00010000
,
00001000
00000000
00000100
00000000
,
00000001
00000000
00000100
00001000
,
00010000
00100000
10000000
01000000
,
00010000
00001000
00000010
00000001
,
00000100
00001000
00010000
01000000
,
10000000
01000000
00020000
00030000
,
00001000
00000100
00000001
00000100
,
00001000
00010000
00100000
10000000
,
01000000
00010000
00001000
00000010
,
00000001
00000100
00002000
00003000
,
00020000
00030000
10000000
01000000
,
00100000
00010000
00001000
00000100
,
00000002
00000103
00001000
00010000
,
00200000
00000000
00310000
01000000
,
00020000
00030000
00002000
00003000
,
00000020
00000030
00000002
00000003
,
00000100
00001000
00010000
00100000
,
00220000
00330000
10000000
01000000
,
00020000
00000000
00031000
00000010
,
00000002
00000000
00000103
00001000
,
00010000
00100000
10000000
01000000
,
00220000
00330000
00001000
00000100
,
00000002
00000003
00000100
00001000
,
00010000
00100000
10000000
01000000
,
01010000
00000000
00011000
00000000
,
00002020
00003030
00001000
00010000
,
00100000
00200000
10300000
20000000
,
31000000
02000000
03010000
00020000
,
00031000
00002000
00003001
00000100
,
00000202
00000303
00001000
00010000
,
00200000
00000000
10300000
01000000
,
00020000
00000000
00031000
00000010
,
00000011
00000000
00000101
00000000
,
00000202
00000003
00002000
00003300
,
00010000
00000000
00001000
00010000
00000000
00000000
00000000
00000000
,
00100000
00000000
10000000
00100000
00000000
00000000
00000000
00000000
,
01000000
00000000
00010000
01000000
00000000
00000000
00000000
00000000
,
00010000
00000000
00001000
00000100
00000000
00000000
00000000
00000000
,
00000001
00000000
00000100
00001000
00000000
00000000
00000000
00000000
,
00010000
00000000
01000000
10000000
00000000
00000000
00000000
00000000
,
01000000
00000000
00010000
00001000
00000000
00000000
00000000
00000000
,
00000010
00000001
00000100
00001000
,
00020000
01030000
20000000
31000000
,
00020000
00001000
00001000
00031000
,
00000020
00001000
00000100
00001030
,
00020000
00130000
02000000
13000000
,
11000000
00000000
00000000
00000000
,
00000000
00000000
00000000
00000000
;

//---------------dance-double - ----------------
#NOTES:
     dance-double:
     :
     Medium:
     10:
     :
00000000
00000000
00000000
00000000
,
00000000
00000000
00000000
00000000
,
00000000
00000000
00000000
00000000
,
00000000
00000000
00000000
00000000
,
00000000
00000000
00000000
00000000
,
00100000
10000000
01000000
00010000
,
00001000
00000100
00000010
00000000
00000100
00000000
00010000
00000000
,
01000000
00100000
00001000
00000100
,
00000010
00000100
00001000
00000000
00000100
00000000
00001000
00000000
,
00010000
01000000
00100000
10000000
,
00100000
00010000
00001000
00000100
00000010
00000000
00001000
00000000
,
00010000
01000000
00100000
10000000
,
00100000
00010000
00001000
00000100
00000010
00000000
00000100
00000000
,
00001000
00000000
00010000
00000000
01000000
00100000
01000000
00000000
,
00001000
00000100
00000010
00000000
00010000
00000000
01000000
00000000
,
10000000
00000000
00100000
00000000
01000000
00010000
00001000
00000000
,
00000100
00000010
00002200
00003300
,
00010000
00000000
01000000
00000000
10000000
00000000
00100000
00010000
,
00001000
00000000
00000100
00000010
00000100
00000000
00010000
00000000
,
01000000
00000000
00100000
00000000
10000000
00010000
01000000
00000000
,
00001000
00000100
00000010
00000000
00001000
00000000
00000100
00000000
,
00010000
00000000
00001000
00100000
01000000
00000000
00100000
00000000
,
00020000
00032000
00003200
00000320
,
00001030
00000100
00000010
00000000
00001000
00010000
01000000
00000000
,
02020000
03030000
00100000
00001000
,
00000100
00000010
00001000
00010000
00000000
01000000
00010000
01000000
,
10000000
00000000
00100000
00000000
00010000
00000000
00001000
00000100
,
00000010
00000001
00001000
00000100
00000000
00010000
00001000
00010000
,
02000000
00000000
00010000
03100000
,
00020000
00000000
00000000
00031000
00010000
00001000
00000100
00000010
,
00001000
00000100
00001000
00010000
,
00100000
01000000
10000000
00100000
,
00020000
00000000
00001000
00030100
,
00100000
00000000
00000000
00100000
01000000
00010000
00001000
00000100
,
00000010
00001000
00000010
00001000
,
00220000
00000000
00330000
10000000
00000000
00100000
00010000
00001000
,
00020000
00000000
00031000
00000100
,
00000010
00000000
00000000
00000100
00000010
00000100
00001000
00010000
,
01000000
00100000
01000000
10000000
,
00100000
00001000
00000100
00000010
,
00000202
00000300
00000013
00001000
,
00020000
00000000
00000000
01030000
00000000
10000000
00100000
00010000
,
00001000
00000010
00000001
00000100
,
00022000
00000000
00033000
01000000
00000000
00100000
00010000
00000000
,
20200000
00000000
00000000
30300000
,
01000000
00000000
00001000
00000000
00000000
00000100
00000010
00001000
,
00010000
01000000
00000000
00010000
00002000
00000000
00003000
00000000
,
00000100
00000000
00001000
00000000
00000000
00010000
00001000
00100000
,
01000000
00010000
00000000
01000000
00200000
00000000
00300000
00000000
,
01000000
00000000
00001000
00000000
00000000
00000100
00000010
00001000
,
00010000
01000000
00000000
10000000
02000000
00000000
03000000
00000000
,
00100000
00000000
00010000
00000000
00000000
00001000
00000100
00000010
,
00001000
00000000
00000000
00000100
00000000
00000000
00001000
00000000
00010000
00000000
00000000
00000000
00100000
00000000
00000000
00000000
,
01000000
00000000
00100000
00000000
00001000
00000000
00010000
00001000
,
00000010
00000000
00001000
00000000
00010000
00000000
01000000
00100000
,
10000000
00000000
00100000
00000000
00010000
00000000
00001000
00010000
,
00001000
00000000
00000100
00000000
00001000
00000000
00010000
00001000
,
01000000
00000000
00000000
00000000
,
00000000
00000000
00000000
00000000
;

//---------------dance-double - ----------------
#NOTES:
     dance-double:
     :
     Hard:
     12:
     :
00000000
00000000
00000000
00000000
,
00000000
00000000
00000000
00000000
,
00000000
00000000
00000000
00000000
,
00000000
00000000
00000000
00000000
,
00000000
00000000
00000000
00000000
,
00010000
00000000
00001000
00000000
00000100
00000000
00001000
00010000
,
00000000
01000000
00000000
10000000
00100000
00010000
00001000
00010000
,
00001000
00000000
00000010
00000000
00000001
00000000
00000100
00001000
,
00000000
00000100
00000000
00001000
00010000
01000000
00010000
00000000
,
00001000
00000000
00010000
00000000
01000000
00000000
00010000
00001000
,
00000000
00000100
00000000
00000001
00000010
00001000
00010000
00001000
,
00010000
00000000
00100000
00000000
10000000
00000000
01000000
00010000
,
00000000
01000000
00000000
00010000
00001000
00000100
00002000
00000000
,
00010000
00000000
00003100
00000000
00000001
00000010
00001000
00000010
,
00000000
00000001
00000100
00002000
00010000
00000000
00003100
00000000
,
00001000
00000000
00100000
00000000
00010000
01000000
00010000
00001000
,
00000000
00000100
00000010
00001000
00020000
00000000
00000000
00000000
,
00001000
00000000
01030000
00000000
10000000
00100000
00010000
00100000
,
00000000
10000000
01000000
00020000
00001000
00000000
01030000
00000000
,
00010000
00000000
00000010
00000000
00001000
00000100
00001000
00010000
,
00000000
01000000
00100000
00010000
00002000
00000000
00000000
00000000
,
00013000
00100000
00010000
00001000
00000000
00010000
01000000
10000000
,
00100000
00010000
00001000
00000010
,
00000100
00001000
00000010
00000001
00000000
00000010
00001000
00010000
,
00200000
00000000
00000000
00310000
02000000
00000000
00000000
00000000
,
03001000
00000010
00001000
00010000
00000000
00001000
00000100
00000001
,
00000010
00001000
00010000
00100000
,
01000000
00010000
00100000
10000000
00000000
00100000
00001000
00010000
,
00022000
00003000
00030100
00001000
,
00000010
00000000
00001000
00100000
00000000
00010000
00001000
00000010
,
00000001
00000100
00001000
00000000
00010000
00001000
00000100
00000000
,
00001000
00000000
00010000
00000000
01000000
00010000
00000000
00000000
01000000
00000000
10000000
00000000
00100000
10000000
00000000
00000000
,
00010000
00000000
00001000
00000000
00000100
00000010
00001000
00000000
,
00100000
00000000
00010000
00000010
00000000
00001000
00010000
00100000
,
10000000
01000000
00010000
00000000
00001000
00010000
01000000
00000000
,
00011000
00000000
00000000
00001100
00000000
00000100
00000001
00000010
,
00002000
00000000
00000000
00000000
01003000
00100000
00010000
00000000
,
00001000
00010000
00000000
00000000
00001000
00000100
00000000
00000000
00001000
00000010
00000000
00000000
00000001
00000010
00000000
00000000
,
00001000
00010000
00000000
00000000
00100000
10000000
00000000
00000000
00010000
01000000
00000000
00000000
00001000
00010000
00000000
00000000
,
00010000
00001000
00000000
00000000
00010000
01000000
00000000
00000000
00010000
00100000
00000000
00000000
10000000
00100000
00000000
00000000
,
00010000
00001000
00000000
00000000
00000010
00000001
00000000
00000000
00001000
00000100
00000000
00000000
00010000
00001000
00000000
00000000
,
00001000
00000010
00000001
00000010
00001000
00010000
00100000
00010000
,
00100000
10000000
00100000
10000000
01000000
10000000
00100000
00010000
,
00110000
00000000
00000000
01010000
00000000
00001000
00000010
00001000
,
00000010
00000000
00000001
00000000
00000010
00000001
00000000
00000000
00000100
00000000
00000001
00000000
00000100
00000001
00000000
00000000
,
00001010
00000000
00000000
00000100
00000000
00000000
00011000
00000000
00000000
00000000
01000000
00000000
10000000
00000000
01000000
00000000
,
00020000
00000000
00000000
00100000
00000000
00000000
01030000
00000000
10000000
00000000
00000000
00000000
01000000
00000000
00000000
00000000
,
01010000
00000000
00000000
00100000
00000000
00000000
00011000
00000000
00000000
00000000
00000010
00000000
00000001
00000000
00000010
00000000
,
00002000
00000000
00000000
00000100
00000000
00000000
00003010
00000000
00000001
00000000
00000000
00000000
00000010
00000000
00000000
00000000
,
00001100
00000000
00000000
00000010
00000000
00000000
00011000
00000000
00000000
00000000
00100000
00000000
10000000
00000000
00100000
00000000
,
00020000
00000000
00000000
01000000
00000000
00000000
00130000
00000000
10000000
00000000
00000000
00000000
00100000
00000000
00000000
00000000
,
00110000
00000000
00000000
01000000
00000000
00000000
00011000
00000000
00000000
00000000
00000100
00000000
00000001
00000000
00000100
00000000
,
00002000
00000000
00000000
00000010
00000000
00000000
00003100
00000000
00000001
00000000
00000000
00000000
00000100
00000000
00000000
00000000
,
00002000
00000000
00000000
00000000
,
00000000
00000000
00000000
00000000
00003100
00000000
00000000
00000000
00010000
00000000
00000000
00100000
00000000
00000000
00000000
00000000
,
00020000
00000000
00000000
01030000
,
00020000
00000000
00000000
00000000
00000000
00000000
00000000
00000000
00031000
00000000
00000000
00000020
00000000
00000000
00000000
00000000
,
00000002
00000000
00000000
00000033
,
00000000
00000000
00000000
00000000
;
