#TITLE:Ge-Ko-Ku-Jo;
#ARTIST:kors k feat. MC RALLY;
#BANNER:Ge-Ko-Ku-Jo-bn.png;
#BACKGROUND:Ge-Ko-Ku-Jo-bg.png;
#JACKET:Ge-Ko-Ku-Jo-jacket.png;
#MUSIC:Ge-Ko-Ku-Jo.ogg;
#SAMPLESTART:21.888;
#SAMPLELENGTH:20;
#DISPLAYBPM:175;
#BPMS:0=175;
#BGCHANGES:;

//---------------dance-single - ----------------
#NOTES:
     dance-single:
     :
     Beginner:
     4:
     :
0000
0000
0000
0000
,
0000
0000
0000
0000
,
0000
0000
0000
0000
,
0000
0000
0000
0000
,
0000
0000
0000
0000
,
0000
0000
0000
0000
,
0000
0000
0000
0000
,
0000
0000
0000
0000
,
0010
0000
0010
0000
,
0010
0000
0010
0000
,
0010
0000
0010
0000
,
0010
0000
0010
0000
,
0010
0000
0010
0000
,
0010
0000
0010
0000
,
0001
0000
1000
0000
,
0001
0000
1000
0000
,
0100
0000
1000
0000
,
0001
0001
0001
0000
,
0100
0000
0010
0000
,
1000
1000
1000
0000
,
0001
0000
0010
0000
,
0001
0001
0001
0000
,
0100
0000
0010
0000
,
0100
0100
0100
0000
,
0001
0000
1000
0000
,
0010
0010
0010
0000
,
1000
0000
0100
0000
,
0010
0010
0010
0000
,
0110
0000
1001
0000
,
0100
0100
0100
0000
,
1000
0000
0001
0000
,
1000
1000
1000
0000
,
0010
0000
0100
0000
,
0001
0000
1000
0000
,
0010
0000
1000
0000
,
0001
0000
0100
0000
,
0110
0000
0001
0000
,
1000
1000
1000
0000
,
0010
0000
0100
0000
,
1001
0000
0000
0000
,
1000
0000
0100
0000
,
0010
0000
0001
0000
,
0100
0000
0010
0000
,
1000
0000
0001
0000
,
0110
0000
0000
0000
,
1001
0000
0000
0000
,
1000
0000
0001
0000
,
0100
0000
0110
0000
,
1001
0000
0000
0000
,
0000
0000
0000
0000
,
0000
0000
0000
0000
,
0000
0000
0000
0000
,
2000
0000
3000
0000
,
0002
0000
0003
0000
,
0200
0000
0300
0000
,
0020
0000
0030
0000
,
1000
0000
1001
0000
,
0001
0000
1001
0000
,
0100
0000
0110
0000
,
0010
0000
0110
0000
,
1000
1000
1000
1000
,
1000
1000
1000
0000
,
0001
0000
1000
0000
,
0010
0000
0100
0000
,
0001
0000
1001
0000
,
0100
0000
0110
0000
,
1000
0000
0001
0000
,
0000
0000
0110
0000
,
0010
0000
0110
0000
,
1000
0000
1001
0000
,
0001
0000
0100
0000
,
0000
0000
1001
0000
,
0010
0000
1001
0000
,
0100
0000
0110
0000
,
0001
0000
0001
0000
,
0000
0000
1001
0000
,
1000
0000
0110
0000
,
0010
0000
1001
0000
,
1000
0000
0100
0000
,
0000
0000
0110
0000
,
0010
0000
0000
0000
;

//---------------dance-single - ----------------
#NOTES:
     dance-single:
     :
     Easy:
     7:
     :
0000
0000
0000
0000
,
0000
0000
0000
0000
,
0000
0000
0000
0000
,
0000
0000
0000
0000
,
0000
0000
0000
0000
,
0000
0000
0000
0000
,
0000
0000
0000
0000
,
0000
0000
0000
0000
,
0010
0000
0010
0000
,
0010
0000
0010
0000
,
0010
0000
0010
0000
,
0010
0000
0010
0000
,
0010
0010
0010
0010
,
0010
0010
0010
0010
,
1000
0001
0010
0100
,
1000
1000
1000
1001
,
1000
0010
1000
0001
,
0100
0101
0202
0303
,
0010
0001
0100
0010
,
1000
1100
2200
3300
,
0001
0010
0001
0100
,
1000
1010
2020
3030
,
0010
1000
0001
0100
,
0001
0011
0022
0033
,
1000
0010
1000
0001
,
0010
0110
0220
0330
,
0100
0010
0001
0100
,
1000
1001
2002
3003
,
0220
0330
0101
1100
,
0101
1100
0101
1100
,
0001
0001
1000
1000
,
0010
0100
0010
1001
,
1000
0001
0010
0001
,
0100
0010
2020
3030
,
0100
1000
0001
0010
,
0001
0100
0202
0303
,
1001
1000
0010
0100
,
0001
0010
0022
0033
,
0110
0000
0000
1001
0000
0000
0110
0000
,
1001
0100
0100
0110
,
1001
0001
0010
0100
,
1000
0010
0202
0303
,
0010
1000
0001
0100
,
0001
1000
2200
3300
,
1001
0001
0010
0100
,
0110
0001
1000
0010
,
1100
0101
1100
0101
,
1001
0110
2002
3003
,
1001
0000
0000
0000
,
0000
0000
0000
0000
,
0000
0000
0000
0000
,
0000
0000
0000
0000
,
1000
0000
1000
0000
,
0001
0000
0001
0000
,
0100
0000
0100
0000
,
0010
0000
0010
0000
,
1000
0100
1100
0000
,
0001
0100
0101
0000
,
1000
0010
1010
0000
,
0001
0010
0011
0000
,
1000
0001
0100
0010
,
0110
1001
0110
0000
,
1000
0100
0010
0001
,
0100
0010
0100
1001
,
0001
0100
0202
0303
,
1000
0001
2020
3030
,
0100
0000
0000
0100
0000
0000
0100
0000
,
0000
1001
0220
0330
,
0100
0001
0022
0033
,
1000
0010
2002
3003
,
1000
0000
0000
1000
0000
0000
1000
0000
,
0000
1100
0022
0033
,
0001
0100
0220
0330
,
1000
0010
0202
0303
,
0001
0000
0000
0001
0000
0000
0001
0000
,
0000
0101
2020
3030
,
0100
1000
2002
3003
,
0001
0010
0022
0033
,
0010
0000
0000
0010
0000
0000
0010
0000
,
0000
0101
2200
3300
,
2002
0000
0000
0000
,
0000
0000
0000
0000
,
0000
0000
0000
0000
,
0000
0000
0000
3003
;

//---------------dance-single - ----------------
#NOTES:
     dance-single:
     :
     Medium:
     9:
     :
0000
0000
0000
0000
,
0000
0000
0000
0000
,
0000
0000
0000
0000
,
0000
0000
0000
0000
,
0000
0000
0000
0000
,
0000
0000
0000
0000
,
0000
0000
0000
0000
,
0000
0000
0000
0000
,
0010
0000
0010
0000
,
0010
0000
0010
0000
,
0010
0000
0010
0000
,
0010
0000
0010
0000
,
0010
0010
0010
0010
,
0010
0010
0010
0010
,
1000
0001
0010
0100
,
1000
0001
1000
0001
1000
0001
0100
0000
,
0001
0010
1001
0001
,
1000
0100
1000
0100
1000
0001
0000
0000
,
0010
0001
0101
0100
,
0010
1000
0010
0100
0001
0100
0000
0000
,
1010
0001
1000
0100
,
1000
0001
0010
0001
0010
0100
0000
0000
,
1100
0001
1000
0100
,
0010
0001
0010
0100
1000
0001
0000
0000
,
0110
0000
0001
0000
1000
0001
0100
0000
,
0010
1000
0100
0010
0001
0100
0000
0000
,
0012
0000
2003
0000
3100
0010
0001
0000
,
1000
0001
0010
0001
1000
0100
0000
0000
,
0110
0001
0011
0101
,
1001
1010
1100
1010
,
1001
0000
0010
1000
0100
0000
0110
0000
,
0001
1000
0001
1000
0001
0010
0100
0000
,
2000
0000
3020
0000
0130
0001
1000
0001
,
0000
0020
0000
0032
0000
2003
0000
3001
,
0200
0000
0320
0000
1030
0100
1000
0001
,
0000
2000
0000
3200
0000
0310
0001
0100
,
0001
0000
0010
0000
0001
1000
0100
0000
,
1000
0010
0100
0000
0001
1000
0000
0000
,
1100
0000
1000
0001
0000
0100
0010
0000
,
0101
0000
0001
0000
1000
0100
1000
0000
,
0002
0000
2003
0000
3010
1000
0100
0010
,
0000
0002
0000
0203
0000
0320
0000
1030
,
0200
0000
0320
0000
0031
1000
0001
0100
,
0000
0002
0000
0023
0000
0031
1000
0100
,
0010
0001
0011
1010
,
0100
1000
0001
1000
0001
0100
0000
0000
,
0020
2030
3200
0302
,
0023
0000
1030
0001
1000
0001
0000
0000
,
2002
0000
0000
0003
,
0020
0000
0000
3000
,
0200
0000
0000
0030
,
0002
0000
0000
0300
,
0020
0003
0002
0030
,
2000
0003
0020
3000
,
0200
0030
0002
0300
,
2000
0003
0200
0300
,
3010
0100
0101
0001
,
0010
0100
1100
1000
,
0001
1000
1010
0010
,
1000
0001
0011
0100
,
1001
0110
1001
0110
,
1000
0001
1000
0000
0101
0000
0000
0000
,
1000
0001
0010
0100
,
1000
0010
1000
0100
1000
0010
0100
0000
,
0001
0000
0100
0000
1000
0010
0000
1000
,
0001
0000
0010
0000
0100
1000
0000
0000
,
0020
0000
0000
2030
0000
0000
3002
0000
,
0000
1003
0001
1000
0200
0000
0320
0000
,
0031
0000
1000
0000
0100
0001
0000
0010
,
0100
0000
1000
0000
0001
0010
0000
0000
,
0002
0000
0000
0203
0000
0000
0320
0000
,
0000
1030
0100
1000
0002
0000
0023
0000
,
0130
0000
1000
0000
0001
0100
0000
0010
,
1000
0000
0100
0000
0010
0001
0000
0000
,
1001
0000
0000
1010
0000
0000
1100
0000
,
0000
1000
0010
0100
0002
0000
2003
0000
,
3100
0000
0010
0000
0001
0100
0000
1000
,
0010
0000
1000
0000
0001
0100
0000
0000
,
0011
0000
0000
0101
0000
0000
1001
0000
,
0000
0100
0001
0100
0002
0000
0003
0000
,
0220
0000
0000
0030
,
0002
0000
0000
0300
,
2000
0000
0000
0003
,
0020
0000
0000
3030
;

//---------------dance-single - ----------------
#NOTES:
     dance-single:
     :
     Hard:
     11:
     :
0000
0000
0000
0000
,
0000
0000
0000
0000
,
0000
0000
0000
0000
,
0000
0000
0000
0000
,
0000
0000
0000
0000
,
0000
0000
0000
0000
,
0000
0000
0000
0000
,
0000
0000
0000
0000
,
0010
0000
0010
0100
,
0010
1000
0010
0001
,
0010
0000
0010
0100
,
0010
0000
0010
0000
,
0010
0010
0010
0010
,
0010
0010
0010
0010
,
0001
0100
0010
0000
1000
0001
1000
0000
,
0100
0010
0001
1000
0001
0100
0010
0000
,
1000
0100
1000
0001
0000
0100
0010
0000
,
1000
0001
1000
0001
0010
0100
0000
0000
,
1000
0010
1000
0001
0000
0010
0100
0000
,
1000
0010
0100
0010
1000
0001
0000
0000
,
0012
0000
0103
0010
0000
1000
0001
0000
,
0010
0001
0100
0001
1000
0001
0000
0000
,
0010
0001
1000
0001
0000
0100
0010
0000
,
1000
0100
1000
0010
1000
0001
0000
0000
,
2010
0000
3100
1000
0000
0001
1000
0100
,
0010
0001
1000
0001
0100
0010
0000
0000
,
1000
0100
0001
0000
1000
0010
1000
0010
,
0100
0001
1000
0100
1000
0001
0000
0000
,
0110
0000
0001
0100
0010
0000
1000
0100
,
1000
0001
1000
0010
0100
0001
0000
0000
,
0010
0001
0010
0000
0100
1000
0100
0000
,
1000
0010
0100
0001
1000
0100
0000
0000
,
0010
0001
0100
0010
1000
0001
1000
0100
,
0000
0020
0000
0032
0000
2003
0000
3010
,
1000
0100
1000
0010
0100
0001
1000
0100
,
0000
2000
0000
3002
0000
0013
0001
1000
,
0100
0000
1000
0001
0000
0001
0010
0000
,
0100
1000
0001
0000
1001
0000
0000
0100
,
0010
0000
1000
0001
0000
0010
0100
0000
,
1000
0001
1000
0001
1000
0001
0000
0000
,
0010
0001
0010
0100
1000
0010
1000
0001
,
0000
0200
0000
0302
0000
2003
0000
3010
,
0100
0010
1000
0100
0010
0001
1000
0001
,
0000
0200
0000
0320
0000
1030
0001
1000
,
0010
0000
0100
0001
1000
0000
0100
1000
,
0010
0000
1000
0001
0010
0001
0000
0000
,
0100
0010
1000
0000
0100
0010
0001
0000
,
1000
0100
0001
1000
0010
0001
0000
0000
,
2002
3000
0020
0030
,
2000
3000
0020
0030
,
0200
0003
0002
0003
,
0020
0300
0200
0330
,
1000
0010
1000
0001
,
0010
0100
1000
0010
,
0100
0002
0000
0000
1003
0200
0000
0000
,
0310
0002
0000
0000
1003
0020
0000
0000
,
1030
0100
0001
0000
0011
0000
0000
0000
,
0100
0010
1000
0000
1100
0000
0000
0000
,
0001
1000
0010
0000
0101
0000
0000
0000
,
0010
0001
0100
0000
1010
0000
0000
0000
,
1000
0100
1000
0100
1000
0100
1000
0100
,
1000
0001
0100
0000
0110
0000
0000
0000
,
0010
1000
0001
0000
0010
0100
1000
0000
,
0010
0100
0001
0100
0010
1000
0001
0000
,
0010
0001
0010
0001
1000
0001
0000
0100
,
0010
1000
0010
1000
0001
0010
0000
0000
,
0001
0000
0001
1000
0000
1000
0100
0000
,
0000
1000
0010
0100
0001
0000
0000
0000
,
0010
0001
1000
0001
1000
0100
0000
0010
,
0100
0010
0100
1000
0001
0100
0000
0000
,
0010
0000
0010
1000
0000
1000
0001
0000
,
0000
0010
0001
1000
0100
0000
0000
0000
,
1000
0010
0100
0010
0100
0001
0000
1000
,
0001
0010
0001
0100
0001
1000
0000
0000
,
0010
0000
0010
0100
0000
0100
0001
0000
,
0000
0100
0010
1000
0001
0000
0000
0000
,
1000
0100
0001
1000
0010
0001
0000
0100
,
0010
0100
0010
1000
0001
0010
0000
0000
,
0100
0000
0100
1000
0000
1000
0010
0000
,
0000
1000
0001
0010
0100
0000
1100
0000
,
2002
3000
0020
0030
,
2000
0003
0002
0003
,
0020
0030
0200
0300
,
0020
0030
0002
3003
;

//---------------dance-single - ----------------
#NOTES:
     dance-single:
     :
     Challenge:
     13:
     :
0000
0000
0000
0000
,
0000
0000
0000
0000
,
0000
0000
0000
0000
,
0000
0000
0000
0000
,
0000
0000
0000
0000
,
0000
0000
0000
0000
,
0000
0000
0000
0000
,
0000
0000
0000
0000
,
0010
0000
0100
0000
0010
0000
1000
0001
,
0010
0001
1000
0100
0010
0001
0100
0000
,
0010
1000
0010
0001
,
0010
1000
0010
0100
,
0010
1000
0010
0000
0010
0100
0010
0000
,
0010
1000
0010
0000
0010
0001
0010
0000
,
1000
0001
0010
0001
0100
0010
1000
0100
,
0010
0001
1000
0001
0100
0010
0110
0000
,
1001
1000
0001
0100
0000
0010
0010
1000
,
0001
0100
1000
0100
0001
1000
0100
0000
,
0010
0001
1000
0001
0000
0100
0100
0010
,
1000
0100
0001
0100
0010
0100
1000
0000
,
2010
0000
3001
0001
0000
1000
0010
1000
,
0100
0010
0001
0100
1000
0100
0001
0000
,
0010
0001
1000
0010
0000
1000
1000
0100
,
0010
0000
0001
0000
1000
0000
0001
0000
0100
0000
0010
0000
1000
0000
0001
0100
,
0001
0000
1100
0100
0000
1000
1000
0001
,
0010
1000
0010
0001
0100
0010
1000
0000
,
0001
0000
0100
0010
0200
0000
0000
0000
0301
0000
1000
0000
0010
0000
1000
0000
,
0100
0000
0001
0000
0100
0000
0010
0000
0100
0000
1000
0000
0010
0000
1000
0001
,
2000
0000
3010
0100
0001
0010
0001
1000
,
0001
0010
0001
0100
0001
0010
0001
0000
,
1000
0100
1000
0000
0001
0000
0100
0000
0010
1000
0010
0000
0100
0000
0001
0000
,
0010
0000
0100
0000
1000
0000
0010
0000
1000
0000
0001
0100
0001
0000
0000
0000
,
0010
0001
0010
0100
1000
0010
0100
1000
,
0100
0010
0100
0001
0010
0100
1000
0000
,
0010
1000
0001
1000
0100
0001
0100
0010
,
0100
0001
0100
1000
0001
0100
0010
0000
,
0110
0000
0001
0000
1000
0000
0010
0000
1000
0000
0001
0000
0100
0010
0100
0000
,
0001
0000
0010
0000
0100
0000
1000
0000
0010
0000
0100
0000
0000
0000
0001
1000
,
0001
0010
0100
1000
0010
0100
0010
1000
,
0100
0000
0001
0000
0100
0000
0010
0000
0001
0000
1000
0000
0010
0100
0010
0100
,
0010
1000
1000
0001
1000
0100
0010
0001
,
0100
0000
1000
0000
0100
0000
0001
0000
1000
0000
0010
0000
0100
0000
0000
0001
,
1000
0010
1000
0100
0010
0001
0100
0001
,
1000
0010
1000
0100
0010
0001
0100
0000
,
1020
0000
0130
0001
0010
1000
0010
0100
,
0010
1000
0010
0001
0100
0010
1000
0000
,
0001
0010
0001
1000
0001
0010
0100
1000
,
0010
1000
0100
1000
0001
0001
0000
0000
,
1001
0200
0000
0000
0301
0200
0000
0000
,
0302
0000
0200
0000
0000
0000
0000
0303
1010
0000
0000
0000
0000
0000
0000
0000
,
1000
0010
1000
0001
,
1000
0000
0010
0000
1000
0000
0001
1000
,
0010
0100
0001
0100
,
0010
0100
0001
0100
,
0020
0000
1000
0000
0000
1030
0000
0000
0002
0000
0010
0000
0000
0013
0000
0000
,
0200
0000
1000
0000
0000
1300
0000
0000
0002
0000
0100
0000
0000
0103
0000
0000
,
0001
0010
1000
0000
1100
0000
0100
0000
,
1000
0010
0001
0000
0101
0000
0100
0000
,
0010
1000
0001
0000
1010
0000
0100
0000
,
0001
0010
1000
0000
1001
0000
0100
0000
,
0001
0010
1000
0010
0001
0100
1000
0100
,
0001
0010
1000
0000
0101
0001
1000
0000
,
0010
1000
0100
1000
0001
0010
0001
0100
,
0010
0001
0010
1000
0100
0010
0110
0000
,
1001
0100
0010
0100
0001
0001
0000
1000
,
0100
0000
0001
0000
0100
0000
1000
0000
0010
0000
0010
0000
0000
0000
1000
0001
,
2000
0000
3010
0200
0000
0301
2000
0000
,
3100
0010
0001
0100
0001
1000
0010
0000
,
0100
0001
1000
0001
0100
0100
0000
0010
,
1000
0100
1000
0001
0100
0100
0010
0000
,
2000
0000
3001
0020
0000
0031
0200
0000
,
0310
1000
0100
0010
0001
1000
0001
0100
,
0010
1000
0001
0010
0001
0001
0000
0100
,
0010
0000
1000
0000
0010
0000
0100
0000
0001
0000
0001
0000
1000
0100
1000
0000
,
1020
0000
0130
0102
0000
1003
2001
0000
,
3100
1000
0001
1000
0100
0010
0001
1000
,
0010
1000
0100
0010
0001
0001
0000
1000
,
0001
0100
1000
0100
0010
0010
0000
0000
,
0102
0000
0013
0012
0000
1003
1200
0000
,
0310
0001
1000
0010
1000
0100
1000
0001
,
0011
1000
0010
0100
,
0010
1000
0100
0010
,
0001
0100
0001
0010
,
0001
0100
0010
1000
;
