#TITLE:Garuda;
#SUBTITLE:(Hommarju Remix);
#ARTIST:Hommarju;
#BANNER:Garuda (Hommarju Remix)-bn.png;
#BACKGROUND:Garuda (Hommarju Remix)-bg.png;
#JACKET:Garuda (Hommarju Remix)-jacket.png;
#MUSIC:Garuda (Hommarju Remix).ogg;
#SAMPLESTART:38.4;
#SAMPLELENGTH:20;
#DISPLAYBPM:125;
#BPMS:0=125;
#BGCHANGES:;

//---------------dance-single - ----------------
#NOTES:
     dance-single:
     :
     Beginner:
     3:
     :
0000
0000
0000
0000
,
0000
0000
0000
0000
,
0000
0000
0000
0000
,
0000
0000
0000
0000
,
0010
0000
1000
0000
,
0100
0000
0010
0000
,
0001
0000
0100
0000
,
0001
0000
1000
1000
,
1000
0000
0001
0000
,
0100
0000
0010
0000
,
1000
0000
0100
0000
,
1001
0000
0000
1000
,
0000
1000
0000
0001
,
0000
0100
0000
0010
,
0000
0100
0000
0001
,
0000
1000
1000
0000
,
0010
0000
0100
0000
,
0001
0000
1000
0000
,
0100
0000
0100
0000
,
0110
0000
0000
0001
,
0001
0000
1000
0000
,
0010
0010
0010
0000
,
0100
0000
0010
0000
,
1000
0000
0001
0000
,
0010
0010
0010
0000
,
0001
0001
0001
0000
,
0000
0100
0000
0010
,
0000
0000
1000
1000
,
1000
0000
0001
0000
,
0100
0000
0010
0000
,
1000
0000
0001
0000
,
1001
0000
0110
0000
,
0000
0010
0000
0010
,
0000
0100
0000
0100
,
0000
1000
0000
0001
,
0000
1000
0000
0001
,
0000
0010
0000
0010
,
0000
0100
0000
0100
,
0000
1000
0000
0001
,
0000
1000
0000
0001
,
0000
0100
0100
0000
,
0001
0000
1000
0000
,
0010
0000
1000
0000
,
0100
0000
0010
0000
,
0001
0000
0100
0000
,
0001
0000
1000
0000
,
0010
0000
0100
0000
,
0001
0000
1000
1000
,
1000
0000
0001
0000
,
0010
0000
0001
0000
,
0100
0000
0010
0000
,
1000
0000
0010
0000
,
1000
1000
1000
0000
,
0001
0001
0001
0000
,
0100
0000
0010
0000
,
1001
0000
0000
0000
,
0110
0000
0001
0000
,
0010
0000
0001
0000
,
0100
0000
0010
0000
,
1000
0000
0100
0000
,
1000
0000
0001
0000
,
1000
0000
0100
0000
,
0010
0000
0010
0000
,
0001
0001
0001
0001
;

//---------------dance-single - ----------------
#NOTES:
     dance-single:
     :
     Easy:
     7:
     :
0000
0000
0000
0000
,
0000
0000
0000
0000
,
0000
0000
0000
0000
,
0000
0000
0000
0000
,
0010
0001
2000
0000
,
3010
1000
0100
0010
,
0001
1000
0200
0000
,
1300
0010
0100
0001
,
0010
0001
1000
1001
,
0010
1000
0100
0110
,
0001
0100
0010
1000
,
2002
0000
3000
1003
,
1001
0001
0100
0010
,
1000
0100
0010
0001
,
1000
0010
1000
0001
,
0110
0001
0100
1000
,
0110
0001
0010
1000
,
0100
0010
0100
1000
,
0001
0001
1000
1000
,
0010
0100
0010
0100
,
0110
1001
0020
2030
,
3200
0320
0032
0103
,
0010
1000
0010
1000
,
0100
0010
0001
1000
,
1001
0110
2000
3002
,
0023
0032
0203
0310
,
1000
0100
1000
0100
,
0010
0010
0010
0010
,
0001
0100
1000
0100
,
0001
0010
1000
0010
,
0001
1000
0010
0100
,
0010
0000
1001
0110
,
1000
0010
0001
0100
,
0010
1000
1100
1100
,
0001
0100
0010
1000
,
0100
0010
0001
0100
,
0001
0010
1000
0001
,
1000
0010
0101
0101
,
0010
0100
0001
1000
,
0100
0100
0100
0100
,
1000
0010
0002
0000
,
0013
0001
0100
0010
,
1000
0001
0200
0000
,
0301
1000
0001
0010
,
0100
1000
0020
0000
,
1030
0100
0001
0010
,
0001
0010
2000
0000
,
3100
0010
0001
1000
,
0010
1000
0100
0110
,
0001
0100
0010
1001
,
1000
0001
0010
0110
,
0001
0100
1000
1001
,
0010
0010
0100
0100
,
1000
0001
1000
0001
,
1100
0101
1100
0101
,
2002
0000
3000
1003
,
1001
0001
0100
0110
,
1000
0100
0001
0110
,
1001
0010
1000
0100
,
0110
0001
1000
0001
,
0010
0001
0010
0001
,
0010
0100
1000
0001
,
0100
0001
0010
1000
,
0001
0001
0001
0001
;

//---------------dance-single - ----------------
#NOTES:
     dance-single:
     :
     Medium:
     10:
     :
0000
0000
0000
0000
,
0000
0000
0000
0000
,
0000
0000
0000
0000
,
0000
0000
0000
0000
,
0010
0000
0001
0100
2000
0000
0000
0000
,
3001
0010
0100
1000
0100
0000
1000
0001
,
0000
0000
1000
0100
0002
0000
0000
0000
,
0013
0001
0010
0100
2000
3002
2003
3002
,
0103
0000
0001
0100
1000
0000
1010
0000
,
0101
0000
1000
0100
0020
0000
0032
0000
,
0103
0010
1000
0001
0100
0010
1000
0001
,
2002
0000
0000
0000
3000
0000
1003
0001
,
1000
0000
0100
0001
0010
0000
0100
1000
,
0010
0000
1000
0001
0100
0000
0110
0000
,
1001
0000
0010
0001
0100
0000
0010
1000
,
1100
0000
0001
0100
1000
0000
0020
0000
,
0230
0001
1000
0301
,
0100
0000
0001
0010
0001
0010
0100
1000
,
1010
0000
0001
1000
0100
0000
1000
0001
,
0200
0000
0010
0000
1000
0000
0301
0100
,
0110
0000
2000
3002
0023
0000
1000
0000
,
0001
1000
0130
0011
,
1010
0000
0001
0100
0001
0000
1000
0100
,
1000
0000
0010
0100
0001
1000
0200
0000
,
0320
0230
2300
3002
0103
0000
0100
0001
,
1000
1100
0110
0011
,
1001
0000
0010
1000
0100
0000
0010
0001
,
0200
0320
2030
3002
,
0013
0000
0001
0100
0001
0000
1000
0000
,
0010
0000
0100
0000
0010
1000
0010
1000
,
0001
0000
1000
0100
0001
0000
0010
0001
,
1000
0001
0000
0100
0010
0000
1000
0001
,
1001
0000
0010
1000
0100
0000
1000
0001
,
0010
0000
0001
0100
0002
2003
3002
2003
,
3010
0000
0101
0000
1000
0000
0001
0100
,
0010
0000
1000
0100
1000
0000
0001
0100
,
0010
0000
1000
0001
1000
0000
0100
0010
,
0001
0000
0100
0010
2000
3002
2003
3002
,
0013
0002
1000
0100
,
2003
3020
0230
0302
,
0013
0000
0001
0100
2000
0000
0000
0000
,
3100
1000
0010
1000
0001
0000
0001
0100
,
0010
0000
1000
0001
0200
0000
0000
0000
,
0301
0010
0001
0010
0200
2300
3200
2300
,
3010
0000
1000
0100
0002
0000
0000
0000
,
0013
0001
1000
0100
0010
0000
0100
1000
,
0000
0000
0001
0100
0020
0000
0000
0000
,
1030
0001
0010
0100
2000
3002
2003
3002
,
0103
0000
0001
0010
1000
0000
1100
0000
,
0011
0000
0100
0001
0010
0000
0110
0000
,
1001
0000
0010
1000
0100
0000
1010
0000
,
0101
0000
1000
0001
0200
0000
0320
0000
,
1030
0100
1000
0000
0001
0100
0001
0000
,
1000
0010
1000
0000
0001
0010
0001
0000
,
0100
0010
1000
0001
0100
0010
1000
0001
,
2002
0000
0000
0000
3000
0000
1003
0001
,
1000
0000
0100
1000
0001
0000
0010
0010
,
0000
0001
0010
0000
0001
1000
1010
0000
,
0011
0000
1000
0100
1000
0000
0001
0100
,
0110
0000
1000
0010
1000
0001
0200
0000
,
0320
1000
0001
1000
,
0100
0000
1000
0000
0130
0010
0110
0000
,
1001
0000
0001
0010
0100
0000
1000
0010
,
2000
3200
0320
0032
,
0000
0000
0000
0000
,
0003
0000
0000
0000
;

//---------------dance-single - ----------------
#NOTES:
     dance-single:
     :
     Hard:
     12:
     :
0000
0000
0000
0000
,
0000
0000
0000
0000
,
0000
0000
0000
0000
,
0000
0000
0000
0000
,
0010
0000
0001
0100
2000
0000
0000
0000
,
3001
0000
0100
0000
0010
0000
0100
0000
0001
0000
1000
0010
1000
0000
0001
0000
,
0100
0000
0001
0010
2000
0000
0000
0100
,
3100
1000
0001
0100
0110
1001
0110
1001
,
0110
0000
0001
1000
1100
0000
0010
0100
,
0101
0000
0001
0010
1100
0000
1000
0100
,
0010
0001
1000
0001
0010
0001
1000
0001
,
2002
0000
0000
0000
0000
0000
0000
0000
3000
0000
0000
0000
1003
0001
1000
0001
,
1000
0000
0010
0100
0000
0010
0100
0000
0000
0000
0001
1000
0000
0001
1000
0000
,
0000
0000
0100
1000
0000
0100
1000
0000
0002
0000
0023
0000
0230
0000
2300
0000
,
3010
0000
0100
0001
0000
0100
0001
0000
0000
0000
1000
0010
0000
1000
0010
0000
,
1010
0000
0000
0000
1000
0000
0100
0000
0001
0010
0001
0010
0001
0000
0000
0000
,
0101
1100
0101
1100
,
0001
0000
0010
0100
0000
0010
0100
0000
2000
0000
3002
0000
0203
0000
0320
0000
,
1030
0000
0001
0010
0000
0001
0010
0000
0000
0000
0100
1000
0000
0100
1000
0000
,
0010
0000
0100
0000
0001
0000
1000
0000
0001
0000
0100
0000
0010
1000
0010
1000
,
0010
0000
0110
0110
1001
0000
0001
0100
,
1100
0000
0000
0000
0110
0000
0000
0000
0011
0000
0000
0000
0100
0010
0100
0010
,
0100
0000
0001
0010
0000
0001
0010
0000
0000
0000
0100
1000
0000
0100
1000
0000
,
1100
0000
0000
0000
0001
0000
1000
0000
0100
0010
0100
0010
0100
0000
0000
0000
,
0011
1010
0011
1010
,
0011
0000
0000
0000
0110
0000
0000
0000
1100
0000
0000
0000
0001
0100
0001
0100
,
0001
0000
1000
0001
0000
1000
0001
0000
0000
0000
0100
0010
0000
0100
0010
0000
,
1000
0100
1000
0001
0100
0001
1000
0100
0010
0001
0000
0000
,
2001
0001
0100
3001
,
1000
0010
1000
0010
0100
0001
0100
0001
,
0010
0001
0010
0001
1000
0100
1000
0100
,
1000
0000
0001
0000
0000
0000
0100
0000
0010
0000
0000
0000
1000
0001
1000
0000
,
1001
0000
0001
0100
0010
1000
0100
0010
,
1000
0010
0100
0010
0001
0001
0001
0001
,
0100
0010
0100
1000
0100
0001
0010
0100
,
1000
0000
0010
0000
0001
0000
0010
0000
0100
0000
0001
0000
1000
0010
1000
0010
,
1000
0100
0010
1000
0010
0001
0100
0001
,
0010
1000
0010
0001
0100
0100
0100
0100
,
0010
1000
0100
0001
0010
0001
0100
1000
,
0001
0100
0001
1000
0100
1000
0001
0100
0001
1000
0100
1000
,
0001
0000
1000
0100
0020
0000
0000
0000
,
0031
0000
0100
0000
0001
0000
0010
0000
0100
0000
1000
0010
1000
0000
0001
0000
,
0100
0000
0001
0010
2000
0000
0000
0000
,
3100
0000
1000
0001
1000
0000
0010
0000
0100
0000
1000
0000
0100
0000
0001
0000
,
0010
0000
0001
0100
2000
0000
0000
0000
,
3001
0000
1000
0000
0010
0000
1000
0000
0100
0000
0010
0001
0010
0000
0100
0000
,
1000
0010
1000
0001
0200
0000
0000
0010
,
0310
0100
0001
1000
1100
0011
1100
0011
,
1100
0000
0001
0100
0101
0000
0010
1000
,
1100
0000
0001
1000
0110
0000
0100
0010
,
1000
0100
1000
0100
0001
0100
0001
0100
,
1000
0010
1000
0010
0001
0010
0001
0010
,
1010
0000
0100
1000
1100
0000
0010
0001
,
1001
0000
0001
0100
0011
0000
1000
0010
,
1000
0100
0001
0100
1000
0100
0001
0100
,
2002
0000
0000
0000
0000
0000
0000
0000
3000
0000
0000
0000
1003
0001
1000
0001
,
1000
0000
0000
0000
0010
0000
0100
0000
0001
0000
0000
0010
0002
0000
2003
0000
,
3010
0000
0100
0000
1000
0000
0100
0001
0100
0000
0010
0000
0110
0000
0000
0000
,
1001
0000
1000
0010
0000
0100
0001
0000
0000
0000
1000
0100
0000
0010
0001
0000
,
0011
0000
0000
0000
0001
0000
0100
0000
1000
0000
0010
0100
0010
0000
0000
0000
,
0101
1100
0101
1100
,
0001
0100
0010
1000
0100
0010
1001
0000
,
0110
0000
0001
1000
0000
0010
0100
0000
0000
0000
0001
1000
0000
0010
0100
0000
,
0001
0000
0010
0000
0001
0000
1000
0000
0010
0000
1000
0000
0001
0000
0010
0000
0100
0000
1000
0000
0000
0002
0000
0000
,
0000
0000
0000
0000
,
0003
0000
0000
0000
;

//---------------dance-single - ----------------
#NOTES:
     dance-single:
     :
     Challenge:
     15:
     :
0000
0000
0000
0000
,
0000
0000
0000
0000
,
0000
0000
0000
0000
,
0000
0000
0000
0000
,
0010
0100
0001
0100
2000
0000
0001
0000
,
3010
0000
1000
0000
0100
0000
0010
0000
0001
0000
1000
0100
1000
0000
0001
0000
,
0100
0010
1000
0010
0002
0000
0103
0010
,
1000
0000
0001
0000
0010
0000
0100
0000
1000
0010
1000
0010
1000
0010
1000
0010
,
1000
0000
0100
0000
0001
0000
0011
0000
0001
0000
0100
0000
1000
0001
1000
0001
,
1000
0000
1010
0001
1000
0100
0010
0001
,
0100
0001
0100
0000
0001
0010
0001
0000
0100
1000
0100
0000
1000
0010
1000
0000
,
2001
0000
0001
0000
0000
0000
0100
0000
3100
0000
0010
0000
1000
0001
1000
0001
,
1000
0000
0000
0000
0110
0000
0100
0000
0001
0010
0001
0010
0000
0100
1000
0000
,
0010
0000
1000
0001
0000
1000
0001
0000
0100
0010
0100
0000
0001
0000
1000
0000
,
1100
0000
0000
0000
0010
0001
0010
0000
0100
0000
1000
0001
0000
1000
0100
0000
,
0110
0000
0000
0000
0001
0000
0100
0000
1000
0010
1000
0010
2000
0000
0000
0000
,
3001
0010
0001
0010
0001
0010
0001
0000
0100
0000
0010
1000
0000
0010
1000
0000
,
0100
0000
1000
0001
0000
0100
0010
0000
1000
0100
1000
0000
0001
0000
0010
0000
,
0001
0000
0100
0010
0000
0100
0010
0000
1000
0000
0010
0100
0000
0010
0100
0000
,
0001
0100
0001
0100
0001
0000
0000
0100
0001
0000
0000
0000
0100
0001
0100
0001
,
0100
0000
0000
0000
0110
0000
1001
0000
1010
0000
0001
0100
0001
0000
1000
0000
,
1100
0000
0000
0000
0110
0000
0000
0000
0011
0000
0000
0000
0100
0010
1000
0001
,
0100
0000
0010
1000
0000
1000
0100
0000
0010
0001
0010
0001
0000
1000
0001
0000
,
0101
0000
0000
0000
1000
0000
0010
0000
0001
0100
0010
0100
0002
0000
2003
0000
,
3100
0000
0100
0000
1100
0000
1100
0000
1000
0010
0100
0010
1000
0000
0001
0000
,
0100
0000
0001
0010
0001
0000
1000
0010
1000
0000
0001
0100
0010
0000
0000
0000
,
1001
0000
0010
1000
0000
0010
1000
0000
0001
0000
0100
0010
0000
0100
0010
0000
,
1000
1000
1000
0100
0100
0100
1000
1000
1000
1000
0000
0000
,
0010
1000
0010
1000
0010
0000
0100
0000
0001
0010
0001
0010
0001
0000
1000
0000
,
0100
1000
0100
1000
0100
0000
0010
0000
0100
0001
0100
0001
0100
0000
0010
0000
,
0001
0000
1000
0100
1000
0000
0001
0100
0001
0000
1000
0010
1000
0000
0001
0010
,
0001
0000
1000
0000
0000
0000
0010
0100
0010
0000
1000
0000
0100
0010
0001
0000
,
0011
0000
0001
0100
0000
0010
1000
0000
0100
1000
0100
0010
0000
0001
1000
0000
,
0010
0000
1000
0010
0000
0100
0001
0000
0101
0000
1010
0000
0101
0000
1010
0000
,
0101
0000
0001
0010
1000
0000
0100
0000
1000
0010
0100
0010
0000
1000
0001
0000
,
0010
0000
0001
0100
0001
0000
1000
0000
0010
0000
0100
0001
0010
0100
1000
0000
,
1001
0000
0010
0100
0010
0000
1000
0000
0100
0000
0010
0001
0010
0000
1000
0000
,
0100
0000
1000
0010
1000
0000
0001
0000
0011
0000
1100
0000
0011
0000
1100
0000
,
0011
0000
0100
0010
1000
0000
0001
0000
0010
0000
0001
0000
0100
0010
1000
0000
,
0001
0001
0001
0100
0100
0100
0001
0001
0001
0100
0100
0100
,
0010
0100
0001
0100
1000
0010
0100
0001
,
0010
0000
0100
0000
0010
0000
0001
0000
1000
0100
1000
0100
1000
0000
0001
0000
,
0100
0001
0010
1000
0010
0001
0100
1000
,
0010
0000
0100
0001
1000
0000
0001
0000
0010
0000
0100
0000
1000
0000
0001
0000
,
0100
0001
0010
1000
0100
1000
0001
0010
,
0100
0000
0010
0000
0001
0000
0100
0000
1000
0010
1000
0010
1000
0000
0001
0000
,
0100
0001
0010
0001
1000
0100
0010
1000
,
0100
0000
1000
0001
0010
0000
0001
0000
0110
0000
1001
0000
0110
0000
1001
0000
,
1000
0010
1000
0010
1000
0000
0001
0000
1000
0010
1000
0010
1000
0000
0000
0000
,
0001
0100
0001
0100
0001
0000
1000
0000
0001
0100
0001
0100
0001
0000
0000
0000
,
1000
0100
1000
0100
1000
0000
0001
0000
0010
0001
0010
0001
0010
0000
0100
0000
,
1000
0010
0100
0010
1000
0000
0001
0000
0101
0000
0000
0000
1100
0000
0000
0000
,
0001
0100
0010
0100
0001
0000
1000
0000
0010
0100
0001
0100
0010
0000
1000
0000
,
0100
1000
0001
1000
0100
0000
0010
0000
0001
0100
0010
0100
0001
0000
1000
0000
,
0001
0010
0100
0000
1000
0010
0100
0000
0001
1000
0100
0000
0010
0001
1000
0000
,
2001
0000
0001
0000
0000
0000
0100
0000
3100
0000
0010
0000
1000
0001
1000
0001
,
1000
0000
0001
0100
1000
0000
0010
0000
0100
0001
0010
0001
1000
0000
1000
0000
,
0100
1000
0100
0010
0000
0001
0100
0010
1000
0000
0001
0000
1010
0000
0000
0000
,
0100
0001
0010
0100
2000
0000
0010
0000
3002
0000
0100
0000
2003
0000
0010
0000
,
3001
0000
0100
0000
0020
0000
2030
0000
3100
1000
0010
0100
0001
0000
0000
0000
,
0011
0000
0001
0100
0010
0000
1000
0000
0100
1000
0001
0100
0000
0001
0010
0000
,
0100
1000
0100
1000
0010
1000
0010
1000
0001
1000
0001
1000
0100
0000
0010
0000
,
0110
0000
0001
0010
1000
0100
1000
0001
,
1000
0000
1000
0000
1000
0000
0010
0000
0010
0000
0010
0000
1000
0000
1000
0000
1000
0000
2000
0000
0000
0002
0000
0000
,
0000
0000
0000
0000
,
3003
0000
0000
0000
;
