#TITLE:Gangnam Style;
#ARTIST:PSY;
#BANNER:Gangnam Style-bn.png;
#BACKGROUND:Gangnam Style-bg.png;
#JACKET:Gangnam Style-jacket.png;
#MUSIC:Gangnam Style.ogg;
#SAMPLESTART:65.91;
#SAMPLELENGTH:20;
#DISPLAYBPM:132;
#BPMS:0=132,175.75=142,176=132;
#STOPS:140=1.819;
#BGCHANGES:;

//---------------dance-single - ----------------
#NOTES:
     dance-single:
     :
     Beginner:
     3:
     :
0000
0000
0000
0000
,
0000
0000
0000
0000
,
0000
0000
0000
0000
,
0000
0000
0000
0000
,
1001
0000
0000
0000
,
0001
0000
1000
0000
,
0010
0000
0000
0000
,
0001
0000
1000
0000
,
0010
0000
1000
0000
,
0100
0100
0100
0000
,
1000
0000
0001
0000
,
0010
0010
0010
0000
,
0001
0000
0100
0000
,
0010
0000
1000
0000
,
0001
0001
0001
0000
,
0001
0000
1000
0000
,
0100
0100
0000
0000
,
1000
0000
0010
0000
,
1000
1000
0000
0000
,
0100
0000
0010
0000
,
0001
0001
0000
0000
,
1000
0000
0001
0000
,
0010
0000
0001
0000
,
0001
0000
1000
0000
,
0010
0000
0010
0000
,
0100
0000
0100
0000
,
0020
0000
0030
0000
,
0200
0000
0300
0000
,
0001
0000
0001
0000
,
1000
0000
1000
0000
,
0002
0000
0003
0000
,
2000
0000
3000
0000
,
0001
0000
1000
0000
,
0100
0100
0100
0000
,
0010
0010
0010
0010
,
0010
0000
0000
0000
,
1001
0000
0000
0000
,
1000
0000
0001
0000
,
0010
0000
0001
0000
,
0100
0000
0010
0000
,
1001
0000
0000
0000
,
1000
0000
0010
0000
,
0100
0000
0010
0000
,
0001
0000
1000
0000
,
0110
0000
0000
0000
,
0000
0000
0001
0001
,
0001
0000
0100
0000
,
0010
0000
1000
0000
,
0110
0000
0000
0000
,
0000
0000
1000
1000
,
1000
0000
0100
0000
,
0001
0000
1000
0000
,
0010
0010
0000
0000
,
0100
0100
0000
0000
,
0001
0000
0010
0000
,
0001
0001
0000
0000
,
1000
1000
0000
0000
,
0001
0001
0000
0000
,
0100
0000
0010
0000
,
0100
0000
0010
0000
,
1001
0000
0000
0000
,
0001
0000
1000
0000
,
0110
0000
0000
0000
,
0000
0000
0100
0100
,
0100
0000
0010
0000
,
1000
0000
0001
0000
,
0110
0000
0000
0000
,
0000
0000
0010
0010
,
0010
0000
0100
0000
,
1000
0000
0001
0000
,
0110
0000
0000
0000
,
1001
0000
0000
0000
;

//---------------dance-single - ----------------
#NOTES:
     dance-single:
     :
     Easy:
     7:
     :
0000
0000
0000
0000
,
0000
0000
0000
0000
,
0000
0000
0000
0000
,
0000
0001
1000
0001
,
1001
0000
0010
0000
,
1000
0000
0100
0010
,
0001
0000
0100
0000
,
0001
0001
1000
1000
,
0010
1000
0010
0100
,
0001
0010
0110
0000
,
0001
0100
0010
1000
,
0100
0010
0110
0000
,
0001
0010
0001
0100
,
0010
1000
0100
0010
,
1001
1001
0010
0100
,
0001
0001
1000
1000
,
0100
1001
0010
1000
,
0100
0010
0100
1000
,
0001
1001
0010
1000
,
0100
0010
0001
0100
,
0010
0110
1000
0100
,
1000
0010
0001
1000
,
0100
0110
0001
0100
,
0001
0001
1000
1000
,
1001
0010
1000
0100
,
1000
0010
0100
0001
,
0010
0010
0010
0010
,
0100
0100
1000
0001
,
0110
0001
0100
0010
,
1001
1000
0100
0010
,
0110
0001
0100
1000
,
1001
0010
1000
0100
,
0010
0010
0100
0100
,
1000
0001
1000
0001
,
1000
0100
0010
0001
,
1001
0001
1000
0001
,
1001
0010
1000
0100
,
0010
0100
1000
0010
,
0100
0001
0010
0001
,
0100
0010
1000
0100
,
1000
0001
0010
0001
,
0100
0010
1000
0001
,
1000
0100
0010
0100
,
0001
0001
1000
1000
,
0220
0000
0000
0000
,
0300
1000
0001
1030
,
0010
0001
0100
0010
,
1000
0100
1000
0001
,
0220
0000
0000
0000
,
0030
1000
0001
1300
,
0100
0001
0010
0100
,
0001
0001
1000
1000
,
0010
0100
0000
0010
,
1000
0100
0000
1000
,
0001
0100
0001
0010
,
0001
1000
0000
0000
,
0010
0100
0000
0100
,
0001
0010
0000
0001
,
1000
0010
1000
0100
,
0010
0001
0100
0100
,
0110
0001
1000
0001
,
0001
0001
1000
1000
,
0220
0000
0000
0000
,
0030
0001
1000
0301
,
0100
0010
0001
1000
,
0001
0100
0001
0010
,
0220
0000
0000
0000
,
0300
1000
0001
1030
,
0010
0001
0100
0010
,
1000
1000
0001
0001
,
0010
0001
1000
0001
,
1001
0000
0000
0000
;

//---------------dance-single - ----------------
#NOTES:
     dance-single:
     :
     Medium:
     9:
     :
0000
0000
0000
0000
,
0000
0000
0000
0000
,
0000
0000
0000
0000
,
0000
0000
0001
0100
1000
0000
0110
0000
,
1001
0010
1000
0001
,
1000
0000
0100
0000
1000
0010
0001
0000
,
1000
0100
0001
0010
,
0002
0000
0003
0001
2000
0000
3000
1000
,
0010
1000
0100
0001
,
0010
0000
0001
0000
1000
0100
0000
1000
,
0001
0100
0010
1000
,
0100
0000
0010
0000
0001
1000
0000
0010
,
1000
0100
0001
0010
,
0001
0010
0100
0000
1000
0010
0100
0000
,
0101
0000
1100
0000
0010
1000
0100
0000
,
0002
0000
0003
0001
2000
0000
3000
1000
,
0010
0000
1001
0000
0000
0001
0100
0000
,
0010
0000
1000
0100
0001
0000
0011
0000
,
0100
0010
0100
0000
0000
0001
1000
0000
,
0110
0000
1001
0000
1000
0100
0010
0000
,
0001
0100
0001
0000
0000
0010
0100
0000
,
1100
0000
1010
0000
1000
0100
1000
0000
,
0001
0100
0010
0000
1010
0000
0101
0000
,
0002
0000
0003
0001
2000
0000
3010
1000
,
0200
0000
0000
0320
0000
0031
1000
0001
,
0200
0000
0000
0320
0000
0000
1030
0001
,
2000
0000
0010
0000
0001
0000
3100
0010
,
0002
0000
0100
0000
0013
0001
1000
0000
,
2000
0000
0000
3020
0000
1030
0001
0100
,
0002
0000
0000
2003
0000
0000
3100
0010
,
0001
0000
0000
1100
0000
0010
1000
0001
,
0100
0000
0000
0011
0000
0000
0001
1000
,
0010
1000
0100
0000
0010
0001
0100
0000
,
0020
0230
0302
2003
,
3010
0000
0000
0010
0000
0000
0010
0000
0100
0000
0000
0100
0000
0000
0100
0000
,
0001
0000
0100
0010
1000
0000
0110
0000
,
1001
0000
0010
0000
1000
0001
1000
0100
,
0010
0000
0001
0000
0100
0010
1000
0000
,
1001
0000
0000
1100
0000
0101
0000
1100
,
0000
0000
0010
1000
0100
0000
0110
0000
,
1001
0000
0001
0000
0010
0100
1000
0001
,
1000
0000
0010
0000
1000
0100
0001
0000
,
1001
0000
0000
0011
0000
1010
0000
0011
,
0002
0000
0003
0001
2000
0000
3000
1000
,
0210
0000
0001
0000
1000
0000
0310
0001
,
0100
0000
0001
0010
1000
0000
1001
0000
,
0110
0000
0000
1010
0000
0101
0000
1010
,
0000
0000
1000
0100
0010
0000
0110
0000
,
1002
0000
0010
0000
0100
0000
1003
0001
,
1000
0000
0100
0010
0001
0000
0101
0000
,
1001
0000
0000
1100
0000
0011
0000
1100
,
0002
0000
0003
0001
2000
0000
3000
1000
,
0010
0000
0100
0000
0010
0000
1000
0001
,
1000
0000
0100
0000
0010
0001
0100
0000
,
0001
0000
0010
0000
0001
0100
1000
0000
,
0010
0000
0010
0000
1000
0001
0100
0000
,
1001
0000
0110
0000
1000
0100
0001
0000
,
0011
0000
1100
0000
0010
1000
0001
0000
,
2000
3020
0230
0302
,
0013
0001
0100
0000
0110
0000
1001
0000
,
0110
0000
1000
0100
0001
0000
0110
0000
,
0001
0000
0000
0001
0000
0000
0001
0000
1000
0000
0000
1000
0000
0000
1000
0000
,
0120
0000
1000
0000
0001
0000
0130
0010
,
0001
0000
1000
0010
0100
0000
1010
0000
,
1001
0000
0000
0011
0000
0110
0000
1100
,
0000
0000
0010
1000
0001
0000
0110
0000
,
1002
0000
0100
0000
0010
0000
1003
0001
,
1000
0000
0010
0100
0001
0000
0011
0000
,
1001
0000
0000
1010
0000
0110
0000
0101
,
0002
0000
0003
0001
2000
0000
3000
1000
,
0010
0000
0001
0100
1000
0000
0110
0000
,
1001
0000
0000
0000
;

//---------------dance-single - ----------------
#NOTES:
     dance-single:
     :
     Hard:
     11:
     :
0000
0000
0000
0000
,
0000
0000
0000
0000
,
0000
0000
0000
0000
,
0010
0000
0001
0100
1000
0100
0001
0000
,
1001
0000
0010
0000
1000
0100
1000
0001
,
0010
0000
0001
0000
0100
0010
1000
0000
,
0001
0000
0010
0000
0001
1000
0100
0010
,
0001
0000
0000
0001
0000
0000
0001
0000
1000
0000
0000
1000
0000
0000
1000
0000
,
0020
2030
3200
0302
,
0103
1000
0100
0001
0100
0010
0000
0001
,
0002
0203
0320
2030
,
3100
0001
0100
1000
0100
0010
0000
0010
,
0200
0302
0023
2030
,
3100
0010
0001
1000
0010
0100
0001
1000
,
1100
0000
0101
0000
0001
0100
0010
1000
,
0001
0000
0000
0001
0000
0000
0001
0000
1000
0000
0000
1000
0000
0000
1000
0000
,
0010
0100
1001
0000
0000
1000
0100
0001
,
0010
0000
0001
0100
0010
1000
0100
0000
,
1000
0001
0110
0000
0000
0001
0100
0010
,
1000
0000
0100
0010
0100
1000
0001
0000
,
0100
0010
1001
0000
0000
0010
1000
0001
,
1000
0000
0100
1000
0010
0100
0001
0000
,
0001
1000
0110
0000
0010
1000
0001
0100
,
0001
0000
0000
0001
0000
0000
0001
0000
1000
0000
0000
1000
0000
0000
1000
0000
,
0010
0000
0000
1000
0000
0000
0100
0000
0000
1000
0000
0000
0001
0000
0000
0000
,
0001
0000
0000
0100
0000
0000
0010
0000
0000
0100
0000
0000
0001
0000
1000
0000
,
0100
0000
0000
0010
0000
0000
0100
0000
0000
1000
0000
0000
0001
0000
0000
0000
,
0010
0000
0000
0001
0000
0000
1000
0000
0100
0000
0001
0000
0100
0000
1000
0000
,
0010
0000
0000
0100
0000
0000
0001
0000
0000
1000
0000
0000
0100
0000
0000
0000
,
1000
0000
0000
0001
0000
0000
0010
0000
0000
0001
0000
0000
1000
0000
0100
0000
,
1100
0000
0000
0001
0000
0000
0100
0000
0000
0010
0000
0000
1000
0000
0001
0000
,
0101
0000
0000
0100
0000
0000
0010
0000
0000
1000
0000
0000
0001
0000
0100
0000
,
0001
0010
0100
1000
0001
0010
0100
1000
,
0020
0230
0302
2003
,
3001
0010
0100
1000
0100
0010
0001
1000
,
0110
0000
0001
0100
1000
0100
0001
0000
,
1001
0000
0000
0010
0000
0000
1000
0000
0000
0000
0001
0000
0001
0000
0100
0000
,
0010
0000
0000
1000
0000
0000
0001
0000
0010
0000
0100
0000
1000
0000
0000
0000
,
1001
0000
0100
1100
0000
0101
0000
1100
,
0010
0000
1000
0100
0001
0100
1000
0000
,
1001
0000
0000
0001
0000
0000
0010
0000
0000
0000
0100
0000
0100
0000
1000
0000
,
0010
0000
0000
1000
0000
0000
0001
0000
1000
0000
0100
0000
0010
0000
0000
0000
,
1001
0000
0010
0011
0000
1010
0000
0011
,
0001
0000
0000
0001
0000
0000
0001
0000
1000
0000
0000
1000
0000
0000
1000
0000
,
0110
0000
0001
0100
0010
1000
0100
0010
,
0001
0000
1000
0001
0100
0010
1000
0000
,
1001
0000
0010
0011
0000
1100
0000
0011
,
0100
0000
0001
0010
1000
0010
0001
0000
,
0110
0000
0010
0001
1000
0010
1000
0001
,
0100
0000
0010
1000
0100
0010
0001
0000
,
1001
0000
1000
1010
0000
0101
0000
1010
,
0001
0000
0000
0001
0000
0000
0001
0000
1000
0000
0000
1000
0000
0000
1000
0000
,
0001
0100
1010
0000
0000
0010
1000
0001
,
0100
0010
0101
0000
0000
0000
0001
1000
,
0001
0000
0010
0100
1000
0000
0110
0000
,
0001
1000
0101
0000
0000
0000
0000
0000
,
0001
0010
1100
0000
0000
0100
1000
0001
,
1000
0010
0101
0000
0000
0000
0010
0001
,
0100
0010
0100
0010
1000
0000
0001
0000
,
1000
0100
1000
0100
0001
0100
0010
0000
,
0110
0000
0001
0100
1000
0100
0001
0000
,
0011
0000
0000
0011
0000
0000
0011
0000
1100
0000
0000
1100
0000
0000
1100
0000
,
0110
0001
0100
0010
1000
0100
1000
0001
,
0100
0000
0001
0010
1000
0100
0010
0000
,
1001
0100
0010
1010
0000
0011
0000
1010
,
0100
0000
1000
0010
0001
0010
1000
0000
,
0110
0001
0100
0010
0100
1000
0100
0001
,
0010
0000
0001
1000
0100
0010
0001
0000
,
1001
0010
1000
1100
0000
0011
0000
1100
,
0001
0000
0000
0001
0000
0000
0001
0000
1000
0000
0000
1000
0000
0000
1000
0000
,
0010
0000
1000
0100
0001
0100
1000
0000
,
1001
0000
0000
0000
;

//---------------dance-single - ----------------
#NOTES:
     dance-single:
     :
     Challenge:
     14:
     :
0000
0000
0000
0000
,
0000
0000
0000
0000
,
0000
0000
0000
0000
,
0010
0000
0000
0100
0001
0000
0100
0000
1000
0000
0100
0000
0001
0000
0000
0000
,
1001
0000
0000
0010
0000
0000
1000
0000
0000
0000
0100
0000
0100
0000
0001
0000
,
0010
0000
0000
0001
0100
0000
0010
0000
1000
0000
0100
0000
0001
0000
0000
0000
,
0010
0000
0000
0001
0000
0000
1000
0000
0000
0000
0100
0000
0100
0000
0010
0000
,
0001
0000
0000
0001
0000
0000
0001
0000
1000
0000
0000
1000
0000
0000
1000
0000
,
0010
0100
0010
0001
0010
0100
0010
0001
,
0010
1000
0100
0001
0110
0110
0000
1000
,
1000
0010
0100
1000
0100
0010
0100
1000
,
0100
0001
0010
1000
0110
0110
0000
0001
,
0001
0100
1000
0100
0001
0010
1000
0010
,
0100
0010
0001
1000
1001
0100
0010
1000
,
1100
0000
0101
0000
0010
0001
0100
1000
,
0001
0000
0000
0001
0000
0000
0001
0000
1000
0000
0000
1000
0010
0000
1000
0000
,
1100
0110
0011
0100
0000
0010
1000
0001
,
0010
1000
0010
0100
0010
1000
0010
0001
,
0101
1001
1100
0001
0000
1000
0010
0100
,
1000
0100
0010
1000
0100
0001
0100
0010
,
0011
0101
1001
0010
0000
1000
0100
0001
,
1000
0010
0001
0010
0100
1000
0100
0001
,
1001
0000
1010
0000
1100
0000
0000
0000
0010
1000
0001
0000
0100
0000
0100
0000
,
0001
0000
0000
0001
0000
0000
0001
0000
1000
0000
0000
1000
0010
0000
1000
0000
,
1001
0100
1000
0002
0000
0010
0013
0001
,
0110
0010
0001
2000
0000
0100
3100
0010
,
0011
0000
0000
0001
0000
0000
0100
0000
0000
0010
1000
0000
0001
0000
1000
0000
,
1100
0000
0000
1000
0010
0000
0100
0000
0001
0000
0001
0000
1000
0000
1000
0000
,
1001
1000
0001
0200
0000
0010
0310
1000
,
0110
1000
0001
0020
0000
0100
0130
1000
,
1100
0000
0000
0010
0100
0000
0101
0000
0000
0001
1000
0000
0100
0000
0010
0000
,
0011
0000
0000
0001
1000
0000
1010
0000
0000
0100
0010
0000
0100
0000
1000
0000
,
0001
0001
1000
1000
0010
0010
0100
0100
,
0002
0023
0230
2300
,
3010
0100
0010
0100
0010
0100
0010
0100
0010
0100
0010
0100
0010
0100
0010
0100
,
0010
0000
1000
0100
0001
0100
1000
0000
,
1001
0000
1000
0010
0100
0000
0001
0000
0010
0001
1000
0000
1000
0000
0100
0000
,
0010
0000
0001
0100
0000
0100
0010
0000
1010
0000
0110
0000
1010
0000
0000
0000
,
1001
0000
0010
0001
0100
0000
0101
0000
0000
0000
1100
0000
1000
0000
0101
0000
,
0010
0001
0000
0001
1000
0000
0100
0000
0001
0000
0100
0000
1000
0000
0000
0000
,
1001
0000
1000
0001
0010
0000
0100
0000
1000
0010
0100
0000
0100
0000
0001
0000
,
0010
0000
0001
1000
0000
1000
0010
0000
0101
0000
0110
0000
0101
0000
0000
0000
,
1001
0000
1000
0100
0010
0000
0011
0000
0000
0000
1010
0000
0001
0000
0011
0000
,
0001
0000
0100
0001
0000
0100
0001
0000
1000
0000
0100
1000
0000
0100
1000
0000
,
0110
0000
0001
0000
0100
0000
0010
0000
1000
0100
1000
0000
0001
0100
0001
0000
,
0010
0000
0001
1000
0100
0000
0100
0000
0100
0000
0010
0001
1000
0000
0000
0000
,
1001
0000
0010
1000
0001
0000
0011
0000
0000
0000
1100
0000
0100
0000
0101
0000
,
0010
1000
0000
1000
0001
0000
0100
0000
1000
0000
0100
0000
0001
0000
0000
0000
,
0110
0000
0001
0000
0100
0000
0010
0000
1000
0100
1000
0000
0001
0100
0001
0000
,
0010
0000
0001
1000
0100
0000
0100
0000
0100
0000
0010
0001
1000
0000
0000
0000
,
1001
0000
0100
0010
1000
0000
1100
0000
0000
0000
0011
0000
0001
0000
0101
0000
,
0001
0000
0100
0001
0000
0100
0001
0000
1000
0000
0100
1000
0000
0100
1000
0000
,
0001
0100
1010
0000
0000
1000
0100
0001
,
0010
0100
0011
0000
0000
0000
1000
0001
,
0100
1000
0100
0001
0200
0000
0320
0000
,
1030
0100
0011
0000
1000
0001
0100
0010
,
1000
0001
1100
0000
0010
0001
0100
1000
,
0010
0100
1010
0000
0001
1000
0100
0010
,
1000
0010
0100
0010
0001
0100
0010
0000
,
0001
0100
1000
0100
0001
0010
1000
0010
,
0110
0000
0001
0100
1000
0100
0001
0000
,
0011
0000
0000
0101
0000
0000
1001
0000
1001
0000
0000
1010
0000
0000
1100
0000
,
0110
0000
0001
0000
0100
0000
0010
0000
1000
0000
0001
0010
0100
0000
1000
0000
,
0010
0000
1000
0001
0100
0000
0100
0000
0100
0000
0010
1000
0001
0000
0000
0000
,
1001
0000
0010
0001
1000
0000
1100
0000
0000
0000
0101
0000
0100
0000
1100
0000
,
0001
0100
0000
0010
1000
0000
0100
0000
0001
0000
0100
0000
1000
0000
0000
0000
,
0110
0000
0001
0000
0100
0000
0010
0000
1000
0000
0001
0010
0100
0000
1000
0000
,
0010
0000
1000
0001
0100
0000
0100
0000
0100
0000
0010
1000
0001
0000
0000
0000
,
1001
0000
0001
1000
0100
0000
0011
0000
0000
0000
1010
0000
0010
0000
0011
0000
,
0001
0000
0100
0001
0000
0100
0001
0000
1000
0000
0100
1000
0000
0100
1000
0000
,
0110
0000
0001
0100
1000
0100
0001
0000
,
1001
0000
0000
0000
;
