#TITLE:GRADIUSIC CYBER;
#SUBTITLE:;
#ARTIST:TAKA;
#TITLETRANSLIT:;
#SUBTITLETRANSLIT:;
#ARTISTTRANSLIT:;
#GENRE:;
#CREDIT:;
#BANNER:GRADIUSIC CYBER.png;
#BACKGROUND:GRADIUSIC CYBER-bg.png;
#LYRICSPATH:;
#CDTITLE:;
#MUSIC:GRADIUSIC CYBER.ogg;
#OFFSET:0.000000;
#SAMPLESTART:26.624001;
#SAMPLELENGTH:20.000000;
#SELECTABLE:YES;
#DISPLAYBPM:157.000000:165.000000;
#BPMS:0.000000=157.000000
,4.000000=160.149994
,72.000000=158.000000
,74.000000=160.149994
,101.000000=158.000000
,103.000000=160.050003
,177.000000=163.000000
,179.000000=160.050003
,210.000000=165.000000
,214.000000=160.050003
,230.000000=158.000000
,232.000000=160.050003
,266.000000=162.000000
,268.000000=160.050003
;
#STOPS:
;
#BGCHANGES:;
#KEYSOUNDS:;
#ATTACKS:;

//---------------dance-single - ----------------
#NOTES:
     dance-single:
     :
     Easy:
     9:
     0.325365,0.450270,0.047648,0.000000,0.009530,239.000000,234.000000,5.000000,0.000000,0.000000,0.000000,0.325365,0.450270,0.047648,0.000000,0.009530,239.000000,234.000000,5.000000,0.000000,0.000000,0.000000:
0000
0000
0000
0000
,
0000
0000
0000
0000
,
0000
0000
0000
0000
,
0000
0000
0000
0000
,
0000
0000
0000
0000
,
0000
0000
0000
0000
,
1000
0000
0001
0100
,
0001
0100
1000
0100
,
0001
0100
1000
0100
,
0010
0000
0010
0000
0100
0000
1000
0100
,
0010
1000
0100
0010
,
0001
0000
0100
0000
1000
0100
0001
0000
,
0100
1000
0010
0001
,
0001
0100
1000
0100
0001
0100
1000
0000
,
0100
0000
0010
1000
0100
0000
1000
0000
,
0100
0010
0001
1100
,
0101
1100
0101
0010
,
0010
0000
0100
0000
1000
0100
0010
0000
,
0000
0100
0000
0000
0001
0000
0000
1000
,
0000
0010
0010
1000
,
0000
0001
0000
0000
0100
0000
0000
1000
,
0000
0001
0001
0100
,
0000
0001
0000
0000
1000
0000
0000
0100
,
0000
1000
1000
0001
,
0000
1000
0000
0000
0100
0000
0000
0010
,
0000
0001
0001
0010
,
0000
0100
0000
0000
1000
0000
0000
0001
,
0000
0010
0010
1000
,
0000
0100
0000
0000
0010
0000
0000
0001
,
0000
0010
0010
0001
,
0000
1000
0000
0000
0001
0000
0000
1000
,
0000
0010
0010
0001
,
0000
0100
0000
0000
1000
0000
0000
0100
,
0000
0010
0010
0000
,
0000
0000
0000
0100
,
0000
0000
0000
0001
,
0000
0000
0000
1000
,
0000
0000
0001
0010
,
1000
0001
0100
0001
,
1000
0001
0100
0001
,
1000
0100
0001
0100
,
1000
0001
1000
0010
,
0000
0000
0000
1000
,
0100
0000
0000
0000
0001
0000
0000
0000
0010
0000
0000
0010
0010
0000
0000
0000
,
0000
0000
0000
0000
0000
0000
0001
0100
,
1000
0000
0100
0000
0001
0000
0100
0000
1000
0000
0000
0100
0100
0000
0000
0000
,
0000
0000
0000
0000
0000
0000
0001
0100
,
1000
0000
1000
0100
0001
0000
1000
0000
,
0001
0000
1000
0000
0010
0000
1000
0100
,
0001
0000
1000
0100
0001
0000
1000
0100
,
0001
0000
0001
0000
1000
0000
0001
0100
,
1000
0000
0001
0000
1000
0000
0001
0100
,
1000
1000
0001
0010
,
0010
0000
0100
0000
1000
0001
1000
0000
,
0001
0100
1000
0000
0001
1000
0001
0000
,
0001
0100
1000
0000
0001
0000
0100
0000
,
1000
0001
0100
1000
,
0100
0100
0000
0000
0000
0000
0000
0000
,
0110
1000
0100
0010
,
0010
0001
0100
1000
,
0010
1000
0001
0000
0100
0000
0010
0000
,
0010
1000
0100
0000
1000
0000
0001
0000
,
0010
0001
1000
0000
0100
0000
0010
0000
,
0010
1000
0001
0000
0100
0000
0001
0000
,
0010
0001
1000
0000
0100
0000
0010
0000
,
0010
1000
0100
0000
1000
0000
0001
0000
,
1000
0000
0000
0000
,
1000
0000
0001
0100
1000
0000
0000
0000
;

//---------------dance-single - ----------------
#NOTES:
     dance-single:
     :
     Medium:
     12:
     0.436997,0.546757,0.219179,0.000000,0.023824,321.000000,298.000000,23.000000,0.000000,0.000000,0.000000,0.436997,0.546757,0.219179,0.000000,0.023824,321.000000,298.000000,23.000000,0.000000,0.000000,0.000000:
0000
0000
0000
0000
,
0000
0000
0000
0000
,
0000
0000
0000
0000
,
0000
0000
0000
0000
,
0000
0000
0000
0000
,
0000
0000
0000
0000
,
1010
0100
0101
1000
,
0011
1000
1100
0001
,
0101
0100
1001
0100
,
0010
0000
0000
0000
0010
0000
0000
0000
0100
0000
0000
0100
0000
0000
0100
0000
,
0010
0000
1000
0000
0100
0000
0010
0010
,
0001
0000
0100
0000
1000
0100
1000
0000
,
0010
0010
1000
1000
0001
0001
0100
0100
,
0001
0001
1000
1000
0100
0100
1001
0000
,
0100
0000
0010
1000
0100
0000
1000
0000
,
0100
0010
0001
1010
,
0101
0110
1001
0010
,
0010
0000
0000
0000
0100
0000
0000
0100
0000
0000
0100
0000
0010
0000
0010
0000
,
0000
0100
0100
0000
0001
0001
0000
1000
,
1000
0000
0010
0000
0010
0000
1000
0100
,
0000
0001
0100
0000
1000
0100
0000
0001
,
0100
0000
1000
0000
1000
0000
0010
0001
,
0000
0010
1000
0000
0010
0001
0000
0010
,
1000
0000
0100
0000
0100
0000
0001
0100
,
0000
0010
1000
0000
0001
0100
0000
0010
,
1000
0000
0001
0000
0001
0000
0010
1001
,
0000
0010
1000
0000
0010
0001
0000
0010
,
1001
0000
0010
0000
0010
0000
1001
0100
,
0000
0001
0010
0000
0001
0100
0000
1000
,
1000
0000
0010
0000
0010
0000
1001
0100
,
0000
1000
0010
0000
1000
0100
0000
0001
,
0100
0000
0010
0000
0010
0000
1001
0100
,
0000
0001
0010
0000
0001
0100
0000
1000
,
1000
0010
0010
0000
,
0000
0000
0000
0110
,
0000
0000
0000
1001
,
0000
0000
0000
0110
,
0000
0000
0000
0000
0001
0000
0010
0001
,
1000
0100
0001
0100
1000
0100
0001
0100
,
1000
0100
0001
1000
0001
1000
0001
0100
,
1000
0100
1000
0100
0001
0100
1000
0100
,
1000
0100
0001
0010
0001
0000
0010
0000
,
0000
0000
0000
0100
,
1000
0000
0000
0000
0100
0000
0000
0000
0010
0000
0000
0010
0010
0000
0000
0000
,
0000
0000
0000
0000
0000
0000
0010
0001
,
1000
0000
0100
0000
0001
0000
0100
0000
1000
0000
0000
0100
0100
0000
0000
0000
,
0000
0000
0000
0000
0000
0000
0001
0100
,
1000
0000
0000
0000
1000
0000
0100
0000
0001
0000
0000
1000
1000
0000
0000
0000
,
1000
0000
1001
0000
0010
0000
1000
0010
,
0001
0000
1000
0010
0001
0000
1000
0010
,
0001
0000
0001
0000
1000
0000
0001
0010
,
1000
0000
0001
0000
1000
0000
0001
0010
,
1000
1000
0001
0010
,
0010
0000
0100
0000
1000
0001
1000
0000
,
0001
0010
1000
0000
0001
0001
1000
0000
,
0001
0010
1000
0000
0001
0000
1000
0000
,
0001
1000
0001
0001
,
0100
0100
0000
0000
0000
0000
0000
0000
,
0110
1000
1000
0000
0100
1000
0010
0000
,
0010
0001
0001
0000
0100
1000
0001
0000
,
0010
1000
1000
0000
0100
0001
0010
0000
,
0010
1000
0100
0000
1000
0100
0001
0000
,
0110
1000
1000
0000
0100
0001
0010
0000
,
0010
0001
0001
0000
0100
1000
0001
0000
,
0010
1000
1000
0000
0100
0001
0010
0000
,
0010
1000
0100
0000
1000
0000
0001
0000
,
1000
0000
0000
0000
,
1000
0100
0001
0100
1001
0000
0000
0000
;

//---------------dance-single - ----------------
#NOTES:
     dance-single:
     :
     Hard:
     13:
     0.528208,0.739730,0.514594,0.000000,0.057177,388.000000,334.000000,54.000000,0.000000,0.000000,0.000000,0.528208,0.739730,0.514594,0.000000,0.057177,388.000000,334.000000,54.000000,0.000000,0.000000,0.000000:
0000
0000
0000
0000
,
0000
0000
0000
0000
,
0000
0000
0000
0000
,
0000
0000
0000
0000
,
0000
0000
0000
0000
,
0000
0000
0000
0000
,
1010
1000
0100
0000
0101
0001
0100
0000
,
0011
0000
0100
0000
1000
1000
0010
0000
,
0011
0100
1000
0000
1000
0000
0100
0000
,
0010
0000
0000
0000
0010
0000
0000
0000
0100
1000
0000
0100
0000
0000
0100
0000
,
0010
0000
0001
0000
0100
0000
0010
0010
,
1000
0000
0100
0000
1000
0100
0001
0000
,
0010
0010
1000
1000
0001
0001
0100
0100
,
0011
0011
0110
0110
1100
1100
1001
0000
,
0100
0000
0001
1000
0001
0000
1000
0100
,
0100
0010
0100
1010
,
0101
0110
1001
1010
,
0011
0000
0000
0000
0100
1000
0000
0100
0000
0000
0100
0000
1000
0000
0100
0000
,
0000
0010
0001
0000
1000
0100
0000
0010
,
0001
0000
0100
0000
0100
0000
1001
0100
,
0000
0001
0100
0000
0010
1000
0000
0010
,
1000
0000
0011
0000
1010
0000
1001
0100
,
0000
0010
0001
0000
1000
0100
0000
0001
,
0100
0000
1100
0000
0101
0000
1001
0100
,
0000
1001
0100
0000
1000
0100
0000
0010
,
0001
0000
1010
0000
1100
0000
1001
0100
,
0000
0100
0010
0000
1000
0100
0000
0001
,
0100
0000
0011
0000
1010
0000
1001
0100
,
0000
0001
0010
0000
0001
0100
0000
1000
,
1000
0000
0011
0000
1010
0000
1001
0100
,
0000
1000
0010
0000
1000
0100
0000
1000
,
1000
0000
1010
0000
0011
0000
1001
0100
,
0000
0001
0010
0000
0001
0100
0000
1000
,
1000
0010
0010
0000
,
0010
0000
0000
0000
0010
0000
0000
0000
0000
0000
0000
0100
0010
0000
0000
0000
,
0010
0000
0000
0000
0010
0000
0000
0000
0000
0000
0000
0100
0010
0000
0000
0000
,
0010
0000
0000
0000
0010
0000
0000
0000
0000
0000
0000
0100
0010
0000
0000
0000
,
0000
0000
0000
0000
0001
0100
1000
0001
,
1000
0100
0001
0100
1000
0100
0001
0100
,
1000
0010
0001
0010
0001
0100
0001
0100
,
1000
0010
0001
0010
0001
0100
0001
0100
,
1000
0100
0001
0010
1000
0001
0010
0000
,
0000
0000
0000
0100
,
1000
0000
0000
0000
1001
0000
0000
0000
0010
0000
0000
1000
0100
0000
0000
0000
,
0000
0000
0000
0000
0000
0000
0010
0100
,
1000
0000
0100
0000
0010
0000
0100
0000
1000
0000
0000
0001
0010
0000
0000
0000
,
0000
0000
0000
0000
0000
0000
0001
0100
,
1000
0000
0000
0000
0010
0000
0100
0000
0001
0000
0000
0010
1000
0000
0000
0000
,
1000
0010
1000
0010
0010
0010
1000
0010
,
1000
0010
1000
0010
0010
0010
1000
0001
,
1000
0100
0001
0010
1000
0010
0001
0001
,
1000
0100
0001
0010
1000
0010
0001
0001
,
1000
0100
0001
0010
1000
0010
0010
0000
,
0010
0000
0100
0000
1000
0001
1000
0100
,
0001
0010
1000
0010
0001
0001
1000
0100
,
0001
0010
1000
0010
0001
0010
1000
0010
,
0001
0010
1000
0010
0010
0000
0001
0000
,
0100
0100
0000
0000
0000
0000
0000
0000
,
0110
0001
1000
0000
0101
0000
1100
0000
,
0010
1000
0001
0000
1100
0000
0101
0000
,
0010
1000
0001
0000
1010
0000
1100
0000
,
0010
1001
0100
0000
1100
0000
0101
0000
,
0110
0001
1000
0000
0100
1000
0010
0000
,
0010
1000
0001
0000
1100
0000
0101
0000
,
0010
0001
1000
0000
0101
0000
1010
0000
,
0100
0001
1000
0000
0100
0000
0001
0000
,
1000
0000
0000
0000
,
1000
0001
0100
0000
0001
1000
0100
0000
1001
0000
0000
0000
0000
0000
0000
0000
;

//---------------dance-double - ----------------
#NOTES:
     dance-double:
     :
     Easy:
     9:
     0.363483,0.482432,0.085766,0.000000,0.014294,267.000000,258.000000,9.000000,0.000000,0.000000,0.000000,0.363483,0.482432,0.085766,0.000000,0.014294,267.000000,258.000000,9.000000,0.000000,0.000000,0.000000:
00000000
00000000
00000000
00000000
,
00000000
00000000
00000000
00000000
,
00000000
00000000
00000000
00000000
,
00000000
00000000
00000000
00000000
,
00000000
00000000
00000000
00000000
,
00000000
00000000
00000000
00000000
,
10000000
01000000
00010000
00001000
,
00000100
00001000
00010000
00001000
,
00010000
01000000
10000000
00100000
,
00010000
00000000
00011000
00000000
00000100
00000000
00001000
00000100
,
00000001
00001000
00000100
00000010
,
00000001
00000000
00000100
00000000
00001000
00000100
00010000
00000000
,
00001000
00010000
00001000
00000100
,
00000010
00000000
00000001
00000100
00001000
00010000
01000000
00000000
,
10000000
00000000
00010000
10000000
00010000
00000000
10000000
00000000
,
01000000
00100000
00010000
00001000
,
00000100
00000110
00001001
00000010
,
00000010
00000000
00000100
00000000
00001000
00000100
00000001
00000000
,
00000000
00000100
00000000
00000000
00010000
00000000
00000000
10000000
,
00000000
00100000
00100000
00001000
,
00000000
00000001
00000000
00000000
00000100
00000000
00000000
00001000
,
00000000
00010000
00010000
01000000
,
00000000
00010000
00000000
00000000
00001000
00000000
00000000
00000001
,
00000000
00000100
00000100
00010000
,
00000000
00001000
00000000
00000000
00000100
00000000
00000000
00000010
,
00000000
00000001
00000001
00000100
,
00000000
00010000
00000000
00000000
01000000
00000000
00000000
00001000
,
00000000
00000000
00000010
00000000
00000010
00000000
00010000
01000000
,
00000000
00001000
00000100
00000000
00010000
01000000
00000000
00001000
,
00000100
00000000
00001000
00000000
00001000
00000000
00010000
01000000
,
00000000
00001000
00000100
00000000
00010000
01000000
00000000
00001000
,
00000100
00000000
00010000
00000000
00010000
00000000
00011000
00000100
,
00000000
00001000
00000100
00000000
00001000
00000100
00000000
00001000
,
00000100
00001000
00001000
00000000
,
00000000
00000000
00000000
01100000
,
00000000
00000000
00000000
00000110
,
00000000
00000000
00000000
00011000
,
00000000
00000000
00010000
00001000
,
00001000
00000100
00001000
00000100
00001000
00000000
00010000
01000000
,
00010000
01000000
00010000
00000000
00001000
00000100
00001000
00000100
,
00001000
00000000
00010000
01000000
00010000
01000000
00010000
00000000
,
00001000
00000100
00001000
00000100
00001000
00000000
00010000
00000000
,
00000000
00000000
00000000
01000000
,
00011000
00000000
00000000
00000000
00001000
00000000
00000000
00000000
00000010
00000000
00000000
00000010
00000010
00000000
00000000
00000000
,
00000000
00000000
00000000
00000000
00000000
00000000
00000001
00000100
,
00001000
00000000
00000100
00000000
00001000
00000000
00000100
00000000
00001000
00000000
00000000
00010000
00010000
00000000
00000000
00000000
,
00000000
00000000
00000000
00000000
00000000
00000000
00010000
01000000
,
10000000
00000000
00000000
00000000
10000000
00000000
01000000
00000000
00010000
00000000
00000000
00001000
00001000
00000000
00000000
00000000
,
00001000
00000000
00010000
00000000
00100000
00000000
00010000
00100000
,
00010000
00000000
00001000
00010000
00001000
00000000
00001000
00010000
,
00001000
00000000
00010000
00000000
00001000
00000000
00001000
00000100
,
00001000
00000000
00010000
00000000
01000000
00000000
00010000
00001000
,
00010000
01000000
00010000
00100000
,
00100000
00000000
00010000
00000000
00100000
00010000
00001000
00000000
,
00001000
00000100
00001000
00000000
00010000
00010000
01000000
00000000
,
00010000
00010000
01000000
00000000
00010000
00000000
00001000
00000000
,
00000001
00001000
00010000
00010000
,
01000000
01000000
00000000
00000000
00000000
00000000
00000000
00000000
,
01100000
10000000
01000000
00010000
,
00001000
00000100
00001000
00000100
,
00001000
00000100
00000001
00000000
00000100
00000000
00000010
00000000
,
00000010
00001000
00000100
00000000
00001000
00000000
00010000
00000000
,
00100000
10000000
01000000
00000000
00010000
00000000
00100000
00000000
,
00100000
00010000
00001000
00000000
00000100
00000000
00000001
00000000
,
00000010
00000001
00000100
00000000
00001000
00000000
00000010
00000000
,
00000010
00001000
00000100
00000000
00001000
00000000
00010000
00000000
,
10000000
00000000
00000000
00000000
,
10000000
01000000
00010000
00000100
00000001
00000000
00000000
00000000
;

//---------------dance-double - ----------------
#NOTES:
     dance-double:
     :
     Medium:
     12:
     0.447888,0.546757,0.171531,0.000000,0.033353,329.000000,311.000000,18.000000,0.000000,0.000000,0.000000,0.447888,0.546757,0.171531,0.000000,0.033353,329.000000,311.000000,18.000000,0.000000,0.000000,0.000000:
00000000
00000000
00000000
00000000
,
00000000
00000000
00000000
00000000
,
00000000
00000000
00000000
00000000
,
00000000
00000000
00000000
00000000
,
00000000
00000000
00000000
00000000
,
00000000
00000000
00000000
00000000
,
00110000
01000000
00010000
00001000
,
00000100
00000000
00000010
00000000
00001000
00010000
00001000
00000000
,
00010000
00001000
00000100
00000000
00001000
00000000
00010000
00000000
,
00100000
00000000
00000000
00000000
00100000
00000000
00000000
00000000
01000000
00000000
00000000
01000000
00000000
00000000
01000000
00000000
,
10000000
01000000
00010000
01000000
,
00010000
00000000
10000000
00000000
01000000
00010000
00001000
00000000
,
00100000
00010000
00001000
00000100
,
00000011
00000000
00000110
00000000
00001100
00001100
00011000
00000000
,
00001000
00000000
00010000
00001000
00010000
00000000
00001000
00000000
,
00000100
00001000
00010000
00001000
,
00010100
00001000
00000100
00000010
,
00000010
00000000
00000000
00000000
00000100
00000000
00000000
00000100
00000000
00000000
00000100
00000000
00001000
00000000
00001000
00000000
,
00000000
00000100
00001000
00000000
00001000
00010000
00000000
01000000
,
00010000
00000000
00001000
00000000
00001000
00000000
00011000
00010000
,
00000000
01000000
00010000
00000000
00010000
10000000
00000000
01000000
,
00100000
00000000
00010000
00000000
01000000
00000000
00011000
00010000
,
00000000
00100000
10000000
00000000
10000000
01000000
00000000
00010000
,
00001000
00000000
00000100
00000000
00000100
00000000
00011000
00010000
,
00000000
00001000
00010000
00000000
00001000
00000100
00000000
00000010
,
00001000
00000000
00000010
00000000
00000010
00000000
00010000
00001000
,
00000000
00000001
00000100
00000000
00000001
00000100
00000000
00010000
,
00010000
00000000
00100000
00000000
00100000
00000000
00011000
00000100
,
00000000
00010000
01000000
00000000
00010000
01000000
00000000
10000000
,
01000000
00000000
00100000
00000000
00100000
00000000
00011000
00000100
,
00000000
00010000
01000000
00000000
00001000
00000100
00000000
00001000
,
00000100
00000000
00001000
00000000
00001000
00000000
00001000
00010000
,
00000000
00010000
00001000
00000000
00010000
00000100
00000000
00001000
,
00010000
00101000
00010100
00000000
,
00000000
00000000
00000000
01100000
,
00000000
00000000
00000000
00000110
,
00000000
00000000
00000000
00011000
,
00000000
00000000
00000000
00000000
00001000
00001000
00010000
00001000
,
00010000
01000000
00010000
00001000
00010000
00001000
00010000
00001000
,
00010000
00001000
00010000
01000000
00010000
00001000
00001000
00010000
,
00001000
00000100
00001000
00010000
00001000
00000100
00001000
00010000
,
00010000
00001000
00001000
00000100
00000001
00000000
00000100
00000000
,
00000000
00000000
00000000
01000000
,
00010000
00000000
00000000
00000000
00001000
00000000
00000000
00000000
00100000
00000000
00000000
00010000
00100000
00000000
00000000
00000000
,
00000000
00000000
00000000
00000000
00000000
00000000
00001000
00000100
,
00010000
00000000
01000000
00000000
00010000
00000000
01000000
00000000
00001000
00000000
00000000
00010000
00001000
00000000
00000000
00000000
,
00000000
00000000
00000000
00000000
00000000
00000000
00010000
01000000
,
10000000
00000000
00000000
00000000
01000000
00000000
00010000
00000000
00001000
00000000
00000000
00001000
00001000
00000000
00000000
00000000
,
00010000
00100000
00010000
00001000
00010000
00100000
00010000
00001000
,
00000010
00000010
00001000
00000010
00001000
00000010
00001000
00010000
,
00001000
00010000
00010000
00100000
00010000
00001000
00010000
00010000
,
00001000
00001000
00010000
00100000
00010000
00001000
00010000
00010000
,
00001000
00001000
00010000
00100000
00010000
00001000
00010000
00000000
,
01000000
00000000
00100000
00000000
00010000
00010000
00001000
00000100
,
00001000
00010000
00001000
00000100
00001000
00010000
00001000
00010000
,
00010000
01000000
00010000
00001000
00010000
00100000
00010000
00001000
,
00010000
01000000
00010000
00001000
00010000
00000000
00001000
00000000
,
00000100
00000100
00000000
00000000
00000000
00000000
00000000
00000000
,
00000010
00000001
00000001
00000000
00000100
00000000
00001000
00000000
,
00010000
00010000
00000100
00000000
00001000
00000000
00000001
00000000
,
00000010
00001000
00001000
00000000
00010000
00000000
00100000
00000000
,
00100000
00010000
00000100
00000000
00001000
00000000
00010000
00000000
,
01100000
10000000
10000000
00000000
01000000
00000000
00100000
00000000
,
00100000
00010000
00001000
00000000
00000100
00000000
00000001
00000000
,
00000010
00001000
00001000
00000000
00010000
00000000
00100000
00000000
,
00100000
10000000
01000000
00000000
10000000
00000000
00010000
00000000
,
00001000
00000000
00000000
00000000
,
10000000
10000000
01000000
00000000
00010000
00001000
00000100
00000000
00000001
00000000
00000000
00000000
00000000
00000000
00000000
00000000
;

//---------------dance-double - ----------------
#NOTES:
     dance-double:
     :
     Hard:
     14:
     0.594915,0.804054,0.324004,0.000000,0.176296,437.000000,403.000000,34.000000,0.000000,0.000000,0.000000,0.594915,0.804054,0.324004,0.000000,0.176296,437.000000,403.000000,34.000000,0.000000,0.000000,0.000000:
00000000
00000000
00000000
00000000
,
00000000
00000000
00000000
00000000
,
00000000
00000000
00000000
00000000
,
00000000
00000000
00000000
00000000
,
00000000
00000000
00000000
00000000
,
00000000
00000000
00000000
00000000
,
00001000
00000010
00000100
00000010
00000000
00010000
00001000
00100000
,
01000000
01000000
00100000
00100000
00010000
00001000
00010000
00000000
,
00001000
00010000
01000000
01000000
00000000
00010000
00001000
00000100
,
00000010
00000000
00000000
00000000
00000010
00000000
00000000
00000000
00001000
00000100
00000000
00001000
00000100
00000000
00000100
00000000
,
00000001
00001000
00000100
00010000
00001000
00010000
00000100
00000000
,
00001000
00010000
00000001
00000010
00000100
00001000
00010000
00000000
,
00000010
00000000
00000010
00000000
00001000
00000000
00001000
00000000
00010000
00000000
00010000
00000000
01000000
00000000
01000000
00010000
,
10100000
01100000
01010000
10010000
11000000
01100000
00011000
00001000
,
00010000
00000000
00011000
00010000
00001000
00000000
00010000
00100000
,
01000000
00100000
00010000
00001000
00001000
00000000
00010000
00001000
,
01001000
01000000
00010000
00010000
01000000
01000000
00100000
00000000
,
00100000
00000000
00000000
00000000
01000000
00010000
00000000
01000000
00010000
00000000
01000000
00000000
00010000
00000000
00010000
00000000
,
00001000
00000000
00010000
00001000
00000000
00010000
00001000
00000000
00010000
00000000
00000000
00000000
00000010
00000000
00000010
00000000
,
00001000
00000000
00000010
00000100
00000000
00000010
00000100
00000000
00000001
00000000
00000000
00000000
00000100
00000000
00000100
00000000
,
00000010
00000000
00000100
00000010
00000000
00000100
00000010
00000000
00000100
00000000
00000000
00000000
00001000
00000000
00001000
00000000
,
00010000
00000000
00001000
00010000
00000000
00001000
00010000
00000000
00001000
00000000
00000000
00000000
00011000
00000000
00001000
00000000
,
00000010
00000000
00000001
00000100
00000001
00000100
00000001
00000000
00000100
00000000
00001000
00000000
00010000
00000000
00010000
00000000
,
00010000
00000000
00100000
01000000
00100000
01000000
00100000
00000000
01100000
00000000
00000000
00000000
11000000
00000000
01000000
00000000
,
10000000
00000000
00010000
10000000
00010000
10000000
00010000
00000000
10000000
00000000
00000000
00000000
00100000
00000000
00000000
00000000
,
00100000
00000000
00000000
00000000
00100000
00001000
00010000
00000000
00001000
00010000
00001000
00000000
00100000
00000000
10000000
00000000
,
10000000
00000000
00000000
00000000
01000000
10000000
01000000
00000000
10010000
00000000
00000000
00000000
00100000
00000000
00010000
00000000
,
00011000
00000000
00000000
00000000
00000010
00001000
00000010
00000000
00001001
00000000
00000000
00000000
00000100
00000000
00000100
00000000
,
00000110
00000000
00000000
00000000
00000100
00000001
00000100
00000000
00001001
00000000
00000000
00000000
00000010
00000000
00001000
00000000
,
00001000
00000000
00010000
00000000
00010000
01000000
00010000
00000000
01100000
00000000
00000000
00000000
10010000
00000000
00000000
00000000
,
01100000
00000000
00000000
00010000
10000000
00010000
10000000
00000000
01010000
00000000
00000000
00000000
00110000
00000000
00000000
00000000
,
00011000
00000000
00000000
00001000
00000100
00001000
00000100
00000000
00000101
00000000
00000000
00000000
00000011
00000000
00000000
00000000
,
00000110
00000000
00000000
00000001
00000100
00000001
00000100
00000000
00000101
00000000
00000000
00000000
00001000
00000000
00000100
00000000
,
00000010
00000000
00001000
00000000
00000001
00001000
00000001
00000000
00011000
00000000
00000000
00000000
00000000
00000000
00000000
00000000
,
00000000
00000000
00000000
00001010
,
00000000
00000000
00000000
01010000
,
00000000
00000000
00000000
00011000
,
00000000
00000000
00000000
00000000
00010000
00010000
00001000
00010000
,
00001000
00000100
00001000
00010000
00001000
00010000
00001000
00010000
,
00001000
00010000
00001000
00000100
00001000
00010000
00010000
00001000
,
00010000
01000000
00010000
00001000
00010000
01000000
00010000
00001000
,
00001000
00010000
00010000
01000000
10000000
00000000
01000000
00000000
,
00000000
00000000
00000000
00000000
00000000
00000000
00000100
00000010
,
00001000
00000000
00000010
00000000
00010000
00000000
00001000
00000000
00000010
00000000
00000000
00001000
00000010
00000000
00000000
00000000
,
00000000
00000000
00000000
00000000
00000000
00000000
00010000
01000000
,
00001000
00000000
00000100
00000000
00001000
00000000
00000100
00000000
00010000
00000000
00000000
00001000
00010000
00000000
00000000
00000000
,
00000000
00000000
00000000
00000000
00000000
00000000
00001000
00000100
,
00000001
00000000
00000010
00000000
00000100
00000000
00001000
00000000
00010000
00000000
00000000
00010000
00010000
00000000
00000000
00000000
,
00001000
00000010
00001000
00010000
00001000
00000010
00001000
00010000
,
00100000
00100000
00010000
00100000
00010000
00100000
00010000
00001000
,
00010000
00001000
00001000
00000010
00001000
00010000
00001000
00001000
,
00010000
00010000
00001000
00000010
00001000
00010000
00001000
00001000
,
00010000
00010000
00001000
00000010
00001000
00010000
00001000
00000000
,
00000100
00000000
00000010
00000000
00001000
00001000
00010000
01000000
,
00010000
00001000
00010000
01000000
00010000
00001000
00010000
00001000
,
00001000
00000100
00001000
00010000
00001000
00000010
00001000
00010000
,
00001000
00000100
00001000
00010000
00001000
00000000
00010000
00000000
,
01000000
01000000
00000000
00000000
10010000
00000000
01000000
00000000
,
00100000
10000000
10000000
00000000
01000000
01000000
00010000
00000000
,
00001000
00001000
01000000
00000000
00010000
10000000
10000000
00000000
,
00100000
00010000
00010000
00000000
00001000
00001000
00000010
00000001
,
00000010
00001000
01000000
00000000
00010000
00001000
00001000
00000000
,
00000110
00000001
00000001
00000000
00000100
00000100
00000010
00000000
,
00000010
00001000
00010000
00000000
01000000
00000000
10000000
10000000
,
00100000
00010000
00010000
00000000
00001000
00000100
00000010
00000001
,
00000010
00000001
00000100
00000000
00000001
00000000
00001000
00000000
,
00010000
00000000
00000000
00000000
,
00000001
00000001
00000100
00000000
00001000
00010000
01000000
00000000
10010000
00000000
00000000
00000000
00000000
00000000
00000000
00000000
;

//---------------dance-single - ----------------
#NOTES:
     dance-single:
     :
     Beginner:
     2:
     0.147027,0.225135,0.028589,0.000000,0.000000,108.000000,105.000000,3.000000,0.000000,0.000000,0.000000,0.147027,0.225135,0.028589,0.000000,0.000000,108.000000,105.000000,3.000000,0.000000,0.000000,0.000000:
0000
0000
0000
0000
,
0000
0000
0000
0000
,
0000
0000
0000
0000
,
0000
0000
0000
0000
,
0000
0000
0000
0000
,
0000
0000
0000
0000
,
1000
0000
0001
0000
,
0001
0000
1000
0000
,
0001
0000
1000
0000
,
0010
0000
0100
0000
,
0010
0000
0100
0000
,
0001
0000
1000
0000
,
0100
0000
0010
0000
,
0001
0000
0001
0000
,
0100
0000
0100
0000
,
0100
0000
0001
0000
,
0110
0000
0110
0000
,
0010
0000
1000
0000
,
0000
0000
0001
0000
,
0000
0010
0000
1000
,
0000
0000
0100
0000
,
0000
0001
0000
0100
,
0000
0000
1000
0000
,
0000
1000
0000
0001
,
0000
0000
0100
0000
,
0000
0001
0000
0010
,
0000
0000
1000
0000
,
0000
0010
0000
1000
,
0000
0000
0010
0000
,
0000
0010
0000
0001
,
0000
0000
0001
0000
,
0000
0010
0000
0001
,
0000
0000
1000
0000
,
0000
0010
0000
0000
,
0000
0000
0000
0100
,
0000
0000
0000
0001
,
0000
0000
0000
1000
,
0000
0000
0001
0000
,
1000
0000
0100
0000
,
1000
0000
0100
0000
,
1000
0000
0001
0000
,
1000
0000
1000
0000
,
0000
0000
0000
1000
,
0000
0001
0000
0010
,
0000
0000
0000
0001
,
0000
0001
0000
0100
,
0000
0000
0000
0001
,
0000
1000
0000
1000
,
0000
1000
0000
1000
,
0000
1000
0000
1000
,
0000
0001
0000
0001
,
0000
0001
0000
0001
,
0000
1000
0000
0010
,
0000
0100
0000
1000
,
0000
1000
0000
0001
,
0000
1000
0000
0100
,
0000
0001
0000
1000
,
0000
0000
0000
0000
,
0110
0000
0100
0000
,
0010
0000
0100
0000
,
0010
0000
0100
0000
,
0010
0000
1000
0000
,
0010
0000
0100
0000
,
0010
0000
0100
0000
,
0010
0000
0100
0000
,
0010
0000
1000
0000
,
1000
0000
0000
0000
,
1000
0000
1000
0000
;

//---------------dance-single - ----------------
#NOTES:
     dance-single:
     :
     Challenge:
     17:
     1.012853,1.077075,0.419299,0.171531,1.386546,744.000000,700.000000,44.000000,18.000000,0.000000,0.000000,1.012853,1.077075,0.419299,0.171531,1.386546,744.000000,700.000000,44.000000,18.000000,0.000000,0.000000:
// measure 0
0000
0000
0000
0000
,  // measure 1
0000
0000
0000
0000
,  // measure 2
0000
0000
0000
0000
,  // measure 3
0000
0000
0000
0000
,  // measure 4
0000
0000
0000
0000
,  // measure 5
0000
0000
0000
0000
,  // measure 6
0110
0110
0001
1001
0000
1000
1100
0010
,  // measure 7
0000
0000
0001
0000
0001
1000
0010
1000
0100
0000
0000
0000
0100
0000
0000
0010
,  // measure 8
1000
1010
0100
0010
0000
0001
0010
0100
,  // measure 9
1100
0000
0000
0000
0011
0000
0000
0000
2000
0001
0000
0100
3100
0000
1001
0000
,  // measure 10
0110
0000
1000
0100
0010
0000
0001
0100
0000
0100
0010
0000
1000
0001
0000
0010
,  // measure 11
0100
0000
1000
0001
0000
1000
0010
0000
0100
0001
0010
0000
0101
0000
0000
1000
,  // measure 12
0001
0000
0010
0100
1000
0000
0010
1000
0000
1000
0001
0000
1010
0000
0010
1000
,  // measure 13
0100
0000
1000
0010
0001
0000
1000
0100
0000
1000
0001
0000
0110
0000
0001
1000
,  // measure 14
0100
0000
0010
0001
0000
1000
0001
0000
0100
0000
0000
0010
1000
0001
0010
0001
,  // measure 15
0100
0000
0010
1000
0000
0001
1000
0000
0100
0000
0000
0010
0001
0000
0100
0001
,  // measure 16
1000
0000
0010
1000
0000
0001
0100
0000
0010
0000
0000
1000
0100
0000
0010
0001
,  // measure 17
1000
0000
0010
0100
0002
0010
0000
1000
1003
0000
0101
0000
1100
0000
0001
0100
,  // measure 18
0010
0000
1000
0001
0100
0001
0010
0000
0100
0000
0000
1000
0010
1000
0100
0010
,  // measure 19
0001
0000
0100
0010
1000
0001
0010
0000
0100
1000
0001
0000
0010
0100
0010
0100
,  // measure 20
0010
0100
0010
0100
0010
0100
0010
0100
0010
0100
0010
0100
1000
0010
1000
0100
,  // measure 21
0001
0000
0010
0001
0000
0100
0010
0000
1000
0000
0001
0010
0011
0000
1000
0100
,  // measure 22
1000
0000
0010
0100
0000
0001
0010
0000
0100
1000
0010
0100
0001
0000
1000
0010
,  // measure 23
0100
0000
0010
1000
0001
0010
0100
0000
0110
0000
1000
0010
0100
1000
0100
0010
,  // measure 24
0100
0001
0100
0010
0100
1000
0100
0000
0001
0000
0010
0100
1000
0001
1000
0000
,  // measure 25
0010
0100
0010
0000
2000
0100
3100
0000
0002
0010
0013
0100
1001
0000
1000
0010
,  // measure 26
0100
0001
0010
0100
1000
0001
0100
0000
0010
0000
0000
0001
0100
0000
0010
1000
,  // measure 27
0100
1000
0010
0100
0001
0010
1000
0000
0001
0000
0110
0000
0010
1000
0100
0001
,  // measure 28
0010
0000
0001
0100
0010
1000
0100
0000
0010
0001
1000
0000
0100
1000
0010
1000
,  // measure 29
0001
0000
0010
0100
0000
0100
0010
0001
1000
0001
0000
0000
1010
0010
0100
0010
,  // measure 30
1000
0000
0100
0001
0000
0001
0010
0100
1000
0000
0100
0010
0001
0000
0100
0001
,  // measure 31
0100
0010
0100
1000
0100
0001
0010
0000
0001
0100
1000
0000
0101
0010
1000
0100
,  // measure 32
0010
0000
0001
0100
0010
1000
0001
0000
1000
0100
0001
0000
0011
0000
1100
0000
,  // measure 33
0011
0000
1100
0000
0001
0100
0110
0000
1001
0000
0000
0010
1000
0000
0001
0000
,  // measure 34
0010
0100
0000
0200
0000
0000
0000
1300
0000
0000
0000
0001
1000
0000
0010
0000
,  // measure 35
1000
0001
0000
0200
0000
0000
0000
0310
0000
0000
0000
0100
0010
0000
1000
0000
,  // measure 36
0100
1000
0000
0002
0000
0000
0000
0013
0000
0000
0000
0001
0010
0000
0100
0000
,  // measure 37
1000
0001
0000
0020
0000
0000
0000
0130
1000
0000
0110
0000
0001
0100
0001
0000
,  // measure 38
0010
0100
0000
2000
0010
0000
0000
3100
0001
0000
0000
1000
0010
0100
0001
0000
,  // measure 39
0010
0001
0000
0200
1000
0000
0000
0310
0001
0000
1100
0000
0010
1000
0100
0000
,  // measure 40
0100
1000
0000
0001
0010
0001
0100
0000
0100
0001
0000
1000
0010
0000
0100
0000
,  // measure 41
0001
1000
0000
0100
0001
0100
0000
0010
1000
0000
0100
1000
0002
0000
0000
0000
,  // measure 42
1003
0000
1100
0000
2100
0000
0001
0000
3100
0000
0000
0000
1000
0010
0001
0010
,  // measure 43
1000
0000
0001
0000
0010
0100
1000
0000
0010
0000
0000
0100
0200
0000
0000
0000
,  // measure 44
0310
0000
1000
0000
0001
0000
1000
0000
0010
0000
0000
0100
0001
0010
0100
1000
,  // measure 45
0001
0100
0000
0010
1000
0000
0001
1000
0010
0000
0000
0100
0200
0000
0000
0000
,  // measure 46
0301
0000
0010
0000
0100
0000
1000
0000
0001
0000
0000
0000
1000
0100
0010
0001
,  // measure 47
0100
0010
1000
0001
0010
0100
1000
0001
1000
0010
0100
0001
0010
0000
0000
0000
,  // measure 48
0010
0001
0010
0001
0100
0001
0100
0001
1000
0001
1000
0001
1000
0010
0001
0100
,  // measure 49
0010
0100
0001
1000
0100
0010
0001
1000
0010
0001
1000
0100
0010
0001
0100
0010
,  // measure 50
1000
0001
1000
0010
0100
0001
0010
0100
1000
0000
0000
0010
1000
0100
1000
0010
,  // measure 51
0100
0001
1000
0001
0010
0100
1000
0010
0100
0000
0000
0001
0010
0100
0010
0001
,  // measure 52
0100
0000
0000
0010
0000
0000
1000
0000
0000
0001
0000
0000
1000
0000
0000
0100
0000
0000
0010
0000
0000
0001
0000
0000
0100
0000
0000
0000
0000
0000
0110
0000
0000
0000
0000
0000
1001
0000
0000
0000
1000
0000
0000
0000
0001
0000
0000
0000
,  // measure 53
0011
0000
0000
0000
0010
0000
0000
0000
0100
0000
0000
0000
1100
0000
0000
0000
0000
0000
0000
0000
0000
0000
0000
0000
0101
0000
0000
1000
0000
0000
0001
0000
0000
0010
0000
0000
0001
0000
0000
0100
0000
0000
0010
0000
0000
1000
0000
0000
,  // measure 54
0100
1000
0010
0100
0001
0000
0010
0100
1000
0010
1000
0100
0001
0010
0100
0010
,  // measure 55
0001
0100
1000
0010
0100
0000
0001
1000
0001
0000
0011
0000
1000
0000
1100
0000
,  // measure 56
0010
0000
0101
0000
0100
0000
1010
0000
1000
0000
1001
0000
0010
0100
0000
0002
,  // measure 57
1000
0000
0000
0200
0303
0000
0000
0000
1000
0001
0010
0100
1000
0001
0000
1000
,  // measure 58
0010
0100
0001
0000
0010
0100
1000
0000
0001
0010
0100
1000
0010
0100
0010
1000
,  // measure 59
0000
1000
0100
0001
1000
0010
0001
0000
0100
0010
1000
0001
0010
0001
0100
0010
,  // measure 60
0000
1000
0100
0010
0001
0100
1000
0000
0010
1000
0100
0010
0001
0100
0010
1000
,  // measure 61
0100
0010
0001
0100
0010
1000
0001
0000
0010
0001
1000
0001
1000
0010
0100
0001
,  // measure 62
0000
0010
0100
0000
1100
0000
0001
0000
0010
0001
0100
0001
0010
0100
1000
0001
,  // measure 63
0000
1000
0010
0000
0001
0100
0010
1000
0100
0010
0100
1000
0010
1000
0100
0001
,  // measure 64
0000
0001
0100
0000
1010
0000
0010
0100
0001
0010
0001
0100
0010
1000
0001
1000
,  // measure 65
0100
0010
0001
0100
0010
1000
0001
0000
0110
0000
0001
1000
0100
0010
0000
0010
,  // measure 66
0001
0000
0001
0100
0000
0100
0010
1000
0100
0000
1000
0001
0010
0100
0000
0000
,  // measure 67
1000
1000
0001
0001
1000
1000
0001
0001
0202
0000
0000
0000
0000
0000
0000
0000
,  // measure 68
0000
0000
0303
0000
;
