#TITLE:GRADIUSIC CYBER (CLUB ANOTHER VER.);
#ARTIST:TAKA;
#BANNER:GRADIUSIC CYBER (CLUB ANOTHER VER.)-bn.png;
#BACKGROUND:GRADIUSIC CYBER (CLUB ANOTHER VER.)-bg.png;
#JACKET:GRADIUSIC CYBER (CLUB ANOTHER VER.)-jacket.png;
#MUSIC:GRADIUSIC CYBER (CLUB ANOTHER VER.).ogg;
#OFFSET:-0.1;
#SAMPLESTART:24.039;
#SAMPLELENGTH:20;
#DISPLAYBPM:156:196;
#BPMS:0=160,28=160.5,36=160,56=161,60=160,67=157,69=160,71=159,73=160,91=162,95=160,99=156,101=160,126=166,128=160,183=162,185=160,196=158,200=160,209=196,210=158,211=160,222=162,224=160,226=159,230=160,260=162,262=160;
#BGCHANGES:;

//---------------dance-single - ----------------
#NOTES:
     dance-single:
     :
     Beginner:
     4:
     :
0000
0000
0000
0000
,
0000
0000
0000
0000
,
0000
0000
0000
0000
,
0000
0000
0000
0000
,
0000
0000
0000
0000
,
0010
0000
0000
0000
,
0001
0000
0000
0000
,
0100
0000
0000
0000
,
1000
0000
0001
0001
,
0001
0000
0020
0000
,
0000
0000
0030
0000
,
0001
0000
0100
0000
,
0001
0000
1000
0000
,
0010
0010
0010
0000
,
2000
0000
3000
0000
,
0001
0000
0010
0000
,
0010
0010
0010
0020
,
0000
0000
0000
0030
,
0000
0000
0000
0002
,
0000
0000
0000
0003
,
0000
0000
0000
2000
,
0000
0000
0000
3000
,
0000
0000
0000
0200
,
0000
0300
0000
1000
,
1000
1000
1000
2000
,
0000
3000
0000
0020
,
0000
0030
0000
0200
,
0000
0300
0000
0002
,
0000
0003
0000
0020
,
0000
0030
0000
0002
,
0000
0003
0000
2000
,
0000
3000
0000
0010
,
0010
0010
0000
1000
,
0000
0001
0000
0010
,
0000
0001
0000
0100
,
0000
0010
0000
1000
,
0000
0100
0000
0010
,
0010
0010
0000
0001
,
0001
0001
0000
1000
,
0000
0001
0000
0100
,
0100
0100
0000
0110
,
0000
0000
0000
0001
,
0000
1000
0000
1001
,
0000
0000
0000
1000
,
1000
1000
0000
0110
,
0000
0000
0000
0001
,
0000
0100
0000
1001
,
0000
1000
0000
0001
,
0001
0001
0000
1000
,
1000
1000
0000
0010
,
0010
0010
0000
0100
,
0100
0100
0000
0001
,
0001
0001
0002
0000
,
0000
0000
0000
0000
,
0003
0000
1000
0000
,
0010
0000
0100
0100
,
0100
0000
0110
0000
,
1000
1000
0000
0001
,
0000
0010
0000
0001
,
0000
0100
0000
0010
,
0000
1000
1000
0000
,
0100
0100
0000
0010
,
0000
0001
0000
1000
,
0000
0001
0001
0000
,
1001
0000
0110
0000
,
0000
0000
0001
0000
,
1000
0000
1001
0000
;

//---------------dance-single - ----------------
#NOTES:
     dance-single:
     :
     Easy:
     9:
     :
0000
0000
0000
0000
,
0000
0000
0000
0000
,
0000
0000
0000
0000
,
0000
0000
0000
0000
,
0000
0000
0000
0000
,
0001
0100
1000
0100
,
1000
0100
0001
0100
,
1000
0100
0001
0100
,
0010
0001
0010
0000
0100
0000
0001
0100
,
0010
0001
0100
0010
,
1000
0000
0100
0000
0001
0100
1000
0000
,
0100
0001
0010
1000
,
1000
0100
0001
0100
1000
0100
0001
0000
,
0100
0000
0010
0001
0100
0000
0001
0000
,
0100
0010
1000
0101
,
1100
0101
1100
0010
,
0010
0000
0100
0000
0001
0100
0010
0000
,
0000
0100
0000
0000
1000
0000
0000
0001
,
0000
0010
0010
0001
,
0000
1000
0000
0000
0100
0000
0000
0001
,
0000
1000
1000
0100
,
0000
1000
0000
0000
0001
0000
0000
0100
,
0000
0001
0001
1000
,
0000
0001
0000
0000
0100
0000
0000
0010
,
0000
1000
1000
0010
,
0000
0100
0000
0000
0001
0000
0000
1000
,
0000
0010
0010
0001
,
0000
0100
0000
0000
0010
0000
0000
1000
,
0000
0010
0010
1000
,
0000
0001
0000
0000
1000
0000
0000
0001
,
0000
0010
0010
1000
,
0000
0100
0000
0000
0001
0000
0000
0100
,
0000
0010
0010
0000
,
0000
0000
0000
0010
,
0000
0000
0000
1000
,
0000
0000
0000
0001
,
0000
0000
1000
0010
,
0001
1000
0100
1000
,
0001
1000
0100
1000
,
0001
0100
1000
0100
,
0001
1000
0001
0010
,
0000
0000
0000
0001
,
0100
0000
0000
0000
1000
0000
0000
0000
0010
0000
0000
0010
0010
0000
0000
0000
,
0000
0000
0000
0000
0000
0000
1000
0100
,
0001
0000
0100
0000
1000
0000
0100
0000
0001
0000
0000
0100
0100
0000
0000
0000
,
0000
0000
0000
0000
0000
0000
1000
0100
,
0001
0000
0001
0100
1000
0000
0001
0000
,
1000
0000
0001
0000
0010
0000
0001
0100
,
1000
0000
0001
0100
1000
0000
0001
0100
,
1000
0000
1000
0000
0001
0000
1000
0100
,
0001
0000
1000
0000
0001
0000
1000
0100
,
0001
0001
1000
0010
,
0010
0000
0100
0000
0001
1000
0001
0000
,
1000
0100
0001
0000
1000
0001
1000
0000
,
1000
0100
0001
0000
1000
0000
0100
0000
,
0001
1000
0100
0001
,
0100
0100
0000
0000
0000
0000
0000
0000
,
0110
0001
0100
0010
,
0010
1000
0100
0001
,
0010
0001
1000
0000
0100
0000
0010
0000
,
0010
0001
0100
0000
0001
0000
1000
0000
,
0010
1000
0001
0000
0100
0000
0010
0000
,
0010
0001
1000
0000
0100
0000
1000
0000
,
0010
1000
0001
0000
0100
0000
0010
0000
,
0010
0001
0100
0000
0001
0000
1000
0000
,
0001
0000
0000
0000
,
0001
0000
1000
0100
0001
0000
0000
0000
;

//---------------dance-single - ----------------
#NOTES:
     dance-single:
     :
     Medium:
     12:
     :
0000
0000
0000
0000
,
0000
0000
0000
0000
,
0000
0000
0000
0000
,
0000
0000
0000
0000
,
0000
0000
0000
0000
,
0011
0100
1100
0001
,
1010
0001
0101
1000
,
1100
0100
1001
0100
,
0010
0000
0001
0000
0010
0000
0000
0000
0100
0000
0000
0100
0000
0000
0100
0000
,
0010
0000
0001
0000
0100
0000
0010
0010
,
1000
0000
0100
0000
0001
0100
0001
0000
,
0010
0010
0001
0001
1000
1000
0100
0100
,
1000
1000
0001
0001
0100
0100
1001
0000
,
0100
0000
0010
0001
0100
0000
0001
0000
,
0100
0010
1000
0011
,
1100
0000
0110
0000
1001
0000
0010
0001
,
0010
0000
0000
0000
0100
0000
0000
0100
0000
0000
0100
0000
0010
0000
0010
0000
,
0000
0100
0100
0000
1000
1000
0000
0001
,
0001
0000
0010
0000
0010
0000
0001
0100
,
0000
1000
0100
0000
0001
0100
0000
1000
,
0100
0000
0001
0000
0001
0000
0010
1000
,
0000
0010
0001
0000
0010
1000
0000
0010
,
0001
0000
0100
0000
0100
0000
1000
0100
,
0000
0010
0001
0000
1000
0100
0000
0010
,
0001
0000
1000
0000
1000
0000
0010
1001
,
0000
0010
0001
0000
0010
1000
0000
0010
,
1001
0000
0010
0000
0010
0000
1001
0100
,
0000
1000
0010
0000
1000
0100
0000
0001
,
0001
0000
0010
0000
0010
0000
1001
0100
,
0000
0001
0010
0000
0001
0100
0000
1000
,
1000
0000
0010
0000
0010
0000
1001
0100
,
0000
1000
0010
0000
1000
0100
0000
0001
,
0001
0010
0010
0000
,
0010
0000
0000
0110
,
0010
0000
0000
1001
,
0010
0000
0000
0110
,
0010
0000
0000
0000
1000
0000
0010
1000
,
0001
0100
1000
0100
0001
0100
1000
0100
,
0001
0100
1000
0001
1000
0001
1000
0100
,
0001
0100
0001
0100
1000
0100
0001
0100
,
0001
0100
1000
0010
1000
0000
0010
0000
,
0000
0000
0000
0100
,
0001
0000
0000
0000
0100
0000
0000
0000
0010
0000
0000
0010
0010
0000
0000
0000
,
0000
0000
0000
0000
0000
0000
0010
1000
,
0001
0000
0100
0000
1000
0000
0100
0000
0001
0000
0000
0100
0100
0000
0000
0000
,
0000
0000
0000
0000
0000
0000
1000
0100
,
0001
0000
0000
0000
0001
0000
0100
0000
1000
0000
0000
0001
0001
0000
0000
0000
,
0001
0000
1001
0000
0010
0000
0001
0010
,
1000
0000
0001
0010
1000
0000
0001
0010
,
1000
0000
1000
0000
0001
0000
1000
0010
,
0001
0000
1000
0000
0001
0000
1000
0010
,
0001
0001
1000
0010
,
0010
0000
0100
0000
0001
1000
0001
0000
,
1000
0010
0001
0000
1000
1000
0001
0000
,
1000
0010
0001
0000
1000
0000
0001
0000
,
1000
0001
1000
1000
,
0100
0100
0000
0000
0000
0000
0000
0000
,
0110
0001
0001
0000
0100
0001
0010
0000
,
0010
1000
1000
0000
0100
0001
1000
0000
,
0010
0001
0001
0000
0100
1000
0010
0000
,
0010
0001
0100
0000
0001
0100
1000
0000
,
0110
0001
0001
0000
0100
1000
0010
0000
,
0010
1000
1000
0000
0100
0001
1000
0000
,
0010
0001
0001
0000
0100
1000
0010
0000
,
0010
0001
0100
0000
0001
0000
1000
0000
,
0001
0000
0000
0000
,
0001
0100
1000
0100
1001
0000
0000
0000
;

//---------------dance-single - ----------------
#NOTES:
     dance-single:
     :
     Hard:
     13:
     :
0000
0000
0000
0000
,
0000
0000
0000
0000
,
0000
0000
0000
0000
,
0000
0000
0000
0000
,
0000
0000
0000
0000
,
0011
0001
0100
0000
1100
1000
0100
0000
,
1010
0000
0100
0000
0001
0001
0010
0000
,
1010
0001
0100
0000
0001
0000
0100
0000
,
0010
0000
0001
0000
0010
0000
0001
0000
0100
0001
0100
0100
0000
0000
0100
0000
,
0010
0000
1000
0000
0100
0000
0010
0010
,
0001
0000
0100
0000
0001
0100
1000
0000
,
0010
0010
0001
0001
1000
1000
0100
0100
,
1010
1010
0110
0110
0101
0101
1001
0000
,
0100
0000
1000
0001
1000
0000
0001
0100
,
0100
0010
0100
0011
,
1100
0000
0110
0000
1001
0000
0010
0001
,
0010
0000
0001
0000
0100
0001
0100
0100
0000
0000
0100
0000
1001
0000
0100
0000
,
0000
0010
1000
0000
0001
0100
0000
0010
,
1000
0000
0100
0000
0100
0000
1001
0100
,
0000
1000
0100
0000
0010
0001
0000
0010
,
0001
0000
1010
0000
0011
0000
1001
0100
,
0000
0010
1000
0000
0001
0100
0000
1000
,
0100
0000
0101
0000
1100
0000
1001
0100
,
0000
1001
0100
0000
0001
0100
0000
0010
,
1000
0000
0011
0000
0101
0000
1001
0100
,
0000
0100
0010
0000
0001
0100
0000
1000
,
0100
0000
1010
0000
0011
0000
1001
0100
,
0000
1000
0010
0000
1000
0100
0000
0001
,
0001
0000
1010
0000
0011
0000
1001
0100
,
0000
0001
0010
0000
0001
0100
0000
0001
,
0001
0000
0011
0000
1010
0000
1001
0100
,
0000
1000
0010
0000
1000
0100
0000
0001
,
0001
0010
1010
0000
,
0010
0000
0000
0000
0011
0000
0000
0000
0000
0000
0000
0100
0010
0000
0000
0000
,
0010
0000
0000
0000
1010
0000
0000
0000
0000
0000
0000
0100
0010
0000
0000
0000
,
0010
0000
0000
0000
0011
0000
0000
0000
0000
0000
0000
0100
0010
0000
0000
0000
,
0000
0000
0000
0000
1000
0100
0001
1000
,
0001
0100
1000
0100
0001
0010
1000
0100
,
0001
0100
1000
0010
1000
0100
1000
0010
,
0001
0100
1000
0010
1000
0100
1000
0010
,
0001
0100
1000
0010
0001
1000
0010
0000
,
0000
0000
0000
0100
,
0001
0000
0100
0000
1001
0000
0000
0000
0010
0000
0000
0001
0010
0000
0000
0000
,
0000
0000
0000
0000
0000
0000
1000
0100
,
0001
0000
0100
0000
0010
0000
0100
0000
0001
0000
0000
1000
0010
0000
0000
0000
,
0000
0000
0000
0000
0000
0000
1000
0100
,
0001
0000
0000
0000
0010
0000
0100
0000
1000
0000
0000
0010
0001
0000
0000
0000
,
0001
0010
0001
0010
0010
0010
1000
0010
,
0001
0010
1000
0010
0010
0010
0001
1000
,
0001
0100
1000
0010
0001
0010
1000
1000
,
0001
0100
1000
0010
0001
0010
1000
1000
,
0001
0100
1000
0010
0001
0010
0010
0000
,
0010
0000
0100
0000
0001
1000
0001
0100
,
1000
0010
0001
0010
1000
1000
0001
0100
,
1000
0010
0001
0100
1000
0010
0001
0010
,
1000
0100
0001
0010
0010
0000
1000
0000
,
0100
0100
0010
0000
1000
0000
0001
0000
,
0110
1000
0001
0000
1100
0000
0101
0000
,
0010
0001
1000
0000
0101
0000
1100
0000
,
0010
0001
1000
0000
0011
0000
0101
0000
,
0010
1001
0100
0000
0101
0000
1100
0000
,
0110
1000
0001
0000
0100
0001
0010
0000
,
0010
0001
1000
0000
0101
0000
1100
0000
,
0010
1000
0001
0000
1100
0000
0011
0000
,
0100
1000
0001
0000
0100
0000
1000
0000
,
0001
1000
0100
0000
,
0001
1000
0100
0000
1000
0001
0100
0000
1001
0000
0000
0000
0000
0000
0000
0000
;

//---------------dance-single - ----------------
#NOTES:
     dance-single:
     :
     Challenge:
     16:
     :
0000
0000
0000
0000
,
0000
0000
0000
0000
,
0000
0000
0000
0000
,
0000
0000
0000
0000
,
0000
0000
0000
0000
,
0010
0001
0000
0011
0000
1000
0100
0000
,
0000
0000
1000
0000
0001
0100
0000
0100
0010
0000
0000
0000
0110
0000
0000
0010
,
1000
0001
0000
0101
0000
0100
0010
0000
,
1000
0000
0011
0000
0001
0000
0100
0000
0010
1000
0010
0000
0010
1000
0010
0100
,
0001
0000
0010
0000
0100
0000
1000
0000
0001
0000
0100
0010
0100
0000
0001
1000
,
0001
0000
0010
0100
1000
0000
0010
0100
0000
0100
0001
0000
0010
0000
0000
0001
,
1000
0000
0010
0100
0010
0000
1000
0001
0000
0001
0010
0000
0100
0000
0000
1000
,
0010
0000
1000
0001
0010
0000
0001
0100
0000
0100
0010
0000
1000
0000
0100
1000
,
0001
0000
0010
0100
0000
0100
1000
0000
1010
0000
0000
0101
0000
0000
1000
0001
,
0010
0000
0001
0000
0100
0000
0010
0000
1001
0000
0000
0110
0000
0000
1000
0000
,
1100
0000
0000
0001
1000
0100
1000
0000
0010
0100
0000
0100
0001
0000
0010
0000
,
0110
0000
0000
0000
1000
0001
1000
0001
1000
0000
1000
0000
0011
0000
0100
0000
,
0010
0000
1000
0001
0000
0001
0010
0000
0100
0000
0000
1000
0001
0000
0100
0010
,
1000
0000
0001
0010
0000
0001
1000
0000
0100
0000
0000
0010
0001
0100
0001
0100
,
0001
0100
0001
0100
0001
0100
0001
0100
0001
0100
0001
0100
0010
0000
0100
1000
,
0010
0000
1000
0001
0000
0001
0100
0000
0010
1000
0000
0001
1000
0000
0100
0000
,
0010
0000
0001
0000
1001
0000
1001
0000
0010
0000
1000
0100
1000
0000
0001
0100
,
0001
0000
0010
0100
0010
0000
0001
0000
1000
0100
0000
1000
0001
0100
0010
0000
,
1000
0001
1000
0010
0000
1000
0100
0000
0100
0010
0000
0010
0001
0000
0000
0000
,
1010
0000
0000
0000
1000
0100
1000
0010
1000
0100
1000
0010
0100
0000
0001
0000
,
0010
0000
0100
0000
1000
0010
1000
0001
0010
0000
0100
0000
1000
0001
0010
0001
,
1000
0000
0010
0100
0000
0100
0001
0000
0010
0001
0000
1000
0100
0000
1000
0000
,
0010
0100
0001
1000
0000
0001
0010
0000
0001
0100
0000
0010
1000
0000
0100
0000
,
0100
0000
0100
0000
1000
0001
0100
0001
0010
0001
0000
0100
0010
0000
1000
0000
,
0110
0000
0001
0000
1000
0100
1000
0000
0001
0100
0000
0010
1000
0000
0001
0010
,
0001
0000
1000
0010
0100
0001
0010
0100
1000
0000
0001
0000
0011
0000
0100
0000
,
1000
0000
0010
1000
0001
0100
0001
0000
0010
0100
0000
0000
1100
0000
1100
0000
,
0101
0000
0101
0000
1000
0100
0001
0000
1001
0000
0000
0010
1000
0000
0100
0000
,
1000
0001
0000
0010
0000
0000
0001
0000
0000
0000
0000
0100
0010
0000
1000
0000
,
0001
0010
0000
0001
0000
0000
1000
0000
0000
0000
0000
0100
1000
0000
0010
0000
,
0100
0001
0000
1000
0000
0000
0010
0000
0000
0000
0000
1000
0001
0000
0010
0000
,
0001
0100
0000
0010
0000
0000
1000
0100
1000
0000
0110
0000
0001
0000
0010
0000
,
0001
1000
0100
1000
0000
1000
0010
0000
0100
0001
0000
0001
0010
0000
0100
0000
,
1000
0010
1000
0001
0000
0100
0010
0000
1010
0000
1010
0000
1010
0000
0101
0000
,
0010
0001
0010
0100
1000
0000
1000
0000
1000
0010
0100
0001
0010
0000
0010
0000
,
0001
1000
0010
1000
0000
0100
0010
0000
0001
0100
0001
0010
0200
0000
0000
0000
,
1300
0000
1100
0000
1100
0000
0000
0000
0000
0000
0000
0000
0001
0010
0001
1000
,
0010
1000
0000
0000
0001
0100
0001
1000
0100
1000
0000
0001
0200
0000
0000
0000
,
0320
0000
0000
0000
0000
0000
0000
0000
0030
0000
0000
0000
1000
0001
1000
0000
,
0010
0100
0010
0100
0000
0001
0010
0000
0001
1000
0010
1000
0200
0000
0000
0000
,
2300
0000
0000
0000
0001
0000
0000
0000
3010
0000
0000
0000
1000
0100
0010
0100
,
0010
0001
0100
0000
0001
0010
0001
0010
0001
1000
0100
1000
0020
0000
0000
0000
,
0130
0001
0100
0000
0001
1000
0010
1000
0010
0100
0001
1000
0010
0100
0001
1000
,
0010
0100
0001
1000
0100
0010
0000
0011
0000
0011
0000
0001
1000
0000
0010
0000
,
1000
0100
1000
0000
0001
0010
0000
0001
0100
0010
0000
0010
1000
0000
0100
0000
,
1000
0001
0010
0000
0001
0100
0010
0000
1000
0000
0000
0100
0010
0000
0001
0000
,
0100
0000
0000
0010
0000
0000
0100
0000
0000
0000
0000
0000
0001
0000
0000
1000
0000
0000
0100
0000
0000
0000
0000
0000
1000
0000
0000
0001
0000
0000
0010
0000
0000
0100
0000
0000
1000
0000
0000
0000
0010
0000
0000
0000
1000
0000
0000
0000
,
0001
0000
0000
0000
0010
0000
0000
0000
0001
0000
0000
0000
0100
0000
0000
0000
0000
0000
0000
0000
0000
0000
0000
0000
0101
0000
0000
0000
0000
0000
0010
0000
0000
0000
0000
0000
1000
0000
0000
0100
0000
0000
1000
0000
0000
0001
0000
0000
,
0000
0010
0100
0000
1000
0010
0000
0010
0100
0001
0100
0000
0001
1000
0010
1000
,
0000
0100
0010
0000
0001
0000
0100
0010
1000
0000
0001
0010
0001
0000
1000
0010
,
1000
0000
0001
0100
0001
0000
1000
0100
1000
0000
0010
0000
0100
0001
1000
0000
,
0010
0100
0010
1000
0000
1000
0000
1000
0001
0000
0000
0000
0010
0001
0010
0100
,
0000
0100
1000
0000
0010
1000
0001
1000
0100
0000
0010
0000
0001
0100
0010
1000
,
0000
0100
1000
0000
0001
0010
0001
1000
0100
0000
1000
0010
0000
1000
0001
0100
,
0010
0000
1000
0100
1000
0000
0001
1000
0000
0010
0100
0001
0010
0100
1000
0000
,
0001
0000
1000
0100
0000
0100
0010
0000
0001
0000
0100
0000
0001
1000
0001
0010
,
0000
0100
1000
0000
0010
1000
0010
0100
0001
0010
0001
1000
0001
0000
0100
0010
,
0000
0010
1000
0000
0001
1000
0100
0000
0010
0001
1000
0010
0100
0010
1000
0001
,
0000
1000
0100
1000
0010
0000
0100
0001
0010
0000
0100
1000
0000
0001
1000
0000
,
0010
0000
0100
0001
0000
1000
0000
0010
0100
0000
0001
0010
0001
0000
1000
0010
,
1000
0000
0001
0100
0001
0000
1000
0100
1000
0010
0100
0001
0010
0100
0000
0100
,
1000
0010
0100
0010
1000
0000
0001
0000
2020
0000
0000
0000
0000
0000
0000
0000
,
0000
0000
0030
0000
,
0000
0000
3000
0000
;

//---------------dance-double - ----------------
#NOTES:
     dance-double:
     :
     Easy:
     9:
     :
00000000
00000000
00000000
00000000
,
00000000
00000000
00000000
00000000
,
00000000
00000000
00000000
00000000
,
00000000
00000000
00000000
00000000
,
00000000
00000000
00000000
00000000
,
00000001
00000100
00001000
00010000
,
01000000
00010000
00001000
00010000
,
00001000
00000100
00000001
00000010
,
00001000
00000000
00011000
00000000
01000000
00000000
00010000
01000000
,
10000000
00010000
01000000
00100000
,
10000000
00000000
01000000
00000000
00010000
01000000
00001000
00000000
,
00010000
00001000
00010000
01000000
,
00100000
00000000
10000000
01000000
00010000
00001000
00000100
00000000
,
00000001
00000000
00001000
00000001
00001000
00000000
00000001
00000000
,
00000100
00000010
00001000
00010000
,
01000000
01100000
10010000
00100000
,
00100000
00000000
01000000
00000000
00010000
01000000
10000000
00000000
,
00000000
01000000
00000000
00000000
00001000
00000000
00000000
00000001
,
00000000
00000010
00000010
00010000
,
00000000
10000000
00000000
00000000
01000000
00000000
00000000
00010000
,
00000000
00001000
00001000
00000100
,
00000000
00001000
00000000
00000000
00010000
00000000
00000000
10000000
,
00000000
01000000
01000000
00001000
,
00000000
00010000
00000000
00000000
01000000
00000000
00000000
00100000
,
00000000
10000000
10000000
01000000
,
00000000
00001000
00000000
00000000
00000100
00000000
00000000
00010000
,
00000000
00000000
00100000
00000000
00100000
00000000
00001000
00000100
,
00000000
00010000
01000000
00000000
00001000
00000100
00000000
00010000
,
01000000
00000000
00010000
00000000
00010000
00000000
00001000
00000100
,
00000000
00010000
01000000
00000000
00001000
00000100
00000000
00010000
,
01000000
00000000
00001000
00000000
00001000
00000000
00011000
01000000
,
00000000
00010000
01000000
00000000
00010000
01000000
00000000
00010000
,
01000000
00010000
00010000
00000000
,
00000000
00000000
00000000
00000110
,
00000000
00000000
00000000
01100000
,
00000000
00000000
00000000
00011000
,
00000000
00000000
00001000
00010000
,
00010000
01000000
00010000
01000000
00010000
00000000
00001000
00000100
,
00001000
00000100
00001000
00000000
00010000
01000000
00010000
01000000
,
00010000
00000000
00001000
00000100
00001000
00000100
00001000
00000000
,
00010000
01000000
00010000
01000000
00010000
00000000
00001000
00000000
,
00000000
00000000
00000000
00000100
,
00011000
00000000
00000000
00000000
00010000
00000000
00000000
00000000
00100000
00000000
00000000
00100000
00100000
00000000
00000000
00000000
,
00000000
00000000
00000000
00000000
00000000
00000000
10000000
01000000
,
00010000
00000000
01000000
00000000
00010000
00000000
01000000
00000000
00010000
00000000
00000000
00001000
00001000
00000000
00000000
00000000
,
00000000
00000000
00000000
00000000
00000000
00000000
00001000
00000100
,
00000001
00000000
00000000
00000000
00000001
00000000
00000100
00000000
00001000
00000000
00000000
00010000
00010000
00000000
00000000
00000000
,
00010000
00000000
00001000
00000000
00000010
00000000
00001000
00000010
,
00001000
00000000
00010000
00001000
00010000
00000000
00010000
00001000
,
00010000
00000000
00001000
00000000
00010000
00000000
00010000
01000000
,
00010000
00000000
00001000
00000000
00000100
00000000
00001000
00010000
,
00001000
00000100
00001000
00000010
,
00000010
00000000
00001000
00000000
00000010
00001000
00010000
00000000
,
00010000
01000000
00010000
00000000
00001000
00001000
00000100
00000000
,
00001000
00001000
00000100
00000000
00001000
00000000
00010000
00000000
,
10000000
00010000
00001000
00001000
,
00000100
00000100
00000000
00000000
00000000
00000000
00000000
00000000
,
00000110
00000001
00000100
00001000
,
00010000
01000000
00010000
01000000
,
00010000
01000000
10000000
00000000
01000000
00000000
00100000
00000000
,
00100000
00010000
01000000
00000000
00010000
00000000
00001000
00000000
,
00000010
00000001
00000100
00000000
00001000
00000000
00000010
00000000
,
00000010
00001000
00010000
00000000
01000000
00000000
10000000
00000000
,
00100000
10000000
01000000
00000000
00010000
00000000
00100000
00000000
,
00100000
00010000
01000000
00000000
00010000
00000000
00001000
00000000
,
00000001
00000000
00000000
00000000
,
00000001
00000100
00001000
01000000
10000000
00000000
00000000
00000000
;

//---------------dance-double - ----------------
#NOTES:
     dance-double:
     :
     Medium:
     13:
     :
00000000
00000000
00000000
00000000
,
00000000
00000000
00000000
00000000
,
00000000
00000000
00000000
00000000
,
00000000
00000000
00000000
00000000
,
00000000
00000000
00000000
00000000
,
00001010
00000100
00001000
00010000
,
01000000
00000000
00100000
00000000
00010000
00001000
00010000
00000000
,
00001000
00010000
01000000
00000000
00010000
00000000
00001000
00000000
,
00000010
00000000
00000001
00000000
00000010
00000000
00000000
00000000
00000100
00000000
00000000
00000100
00000000
00000000
00000100
00000000
,
00000001
00000100
00001000
00000100
,
00001000
00000000
00000001
00000000
00000100
00001000
00010000
00000000
,
00000010
00000010
00001000
00001000
00010000
00010000
01000000
01000000
,
10100000
10100000
01100000
01100000
01010000
01010000
00011000
00000000
,
00010000
00000000
00001000
00010000
00001000
00000000
00010000
00000000
,
01000000
00010000
00001000
00010000
,
01001000
00000000
00010000
00000000
01000000
00000000
00100000
00010000
,
00100000
00000000
00000000
00000000
01000000
00000000
00000000
01000000
00000000
00000000
01000000
00000000
00010000
00000000
00010000
00000000
,
00000000
01000000
00010000
00000000
00010000
00001000
00000000
00000100
,
00001000
00000000
00010000
00000000
00010000
00000000
00011000
00001000
,
00000000
00000100
00001000
00000000
00001000
00000001
00000000
00000100
,
00000010
00000000
00001000
00000000
00000100
00000000
00011000
00001000
,
00000000
00000010
00000001
00000000
00000001
00000100
00000000
00001000
,
00010000
00000000
01000000
00000000
01000000
00000000
00011000
00001000
,
00000000
00010000
00001000
00000000
00010000
01000000
00000000
00100000
,
00010000
00000000
00100000
00000000
00100000
00000000
00001000
00010000
,
00000000
10000000
01000000
00000000
10000000
01000000
00000000
00001000
,
00001000
00000000
00000010
00000000
00000010
00000000
00011000
01000000
,
00000000
00001000
00000100
00000000
00001000
00000100
00000000
00000001
,
00000100
00000000
00000010
00000000
00000010
00000000
00011000
01000000
,
00000000
00001000
00000100
00000000
00010000
01000000
00000000
00010000
,
01000000
00000000
00010000
00000000
00010000
00000000
00010000
00001000
,
00000000
00001000
00010000
00000000
00001000
01000000
00000000
00010000
,
00001000
00010010
01001000
00000000
,
00000000
00000000
00000000
00000110
,
00000000
00000000
00000000
01100000
,
00000000
00000000
00000000
00011000
,
00000000
00000000
00000000
00000000
00010000
00010000
00001000
00010000
,
00001000
00000100
00001000
00010000
00001000
00010000
00001000
00010000
,
00001000
00010000
00001000
00000100
00001000
00010000
00010000
00001000
,
00010000
01000000
00010000
00001000
00010000
01000000
00010000
00001000
,
00001000
00010000
00010000
01000000
10000000
00000000
01000000
00000000
,
00000000
00000000
00000000
00000100
,
00001000
00000000
00000000
00000000
00010000
00000000
00000000
00000000
00000010
00000000
00000000
00001000
00000010
00000000
00000000
00000000
,
00000000
00000000
00000000
00000000
00000000
00000000
00010000
01000000
,
00001000
00000000
00000100
00000000
00001000
00000000
00000100
00000000
00010000
00000000
00000000
00001000
00010000
00000000
00000000
00000000
,
00000000
00000000
00000000
00000000
00000000
00000000
00001000
00000100
,
00000001
00000000
00000000
00000000
00000100
00000000
00001000
00000000
00010000
00000000
00000000
00010000
00010000
00000000
00000000
00000000
,
00001000
00000010
00001000
00010000
00001000
00000010
00001000
00010000
,
00100000
00100000
00010000
00100000
00010000
00100000
00010000
00001000
,
00010000
00001000
00001000
00000010
00001000
00010000
00001000
00001000
,
00010000
00010000
00001000
00000010
00001000
00010000
00001000
00001000
,
00010000
00010000
00001000
00000010
00001000
00010000
00001000
00000000
,
00000100
00000000
00000010
00000000
00001000
00001000
00010000
01000000
,
00010000
00001000
00010000
01000000
00010000
00001000
00010000
00001000
,
00001000
00000100
00001000
00010000
00001000
00000010
00001000
00010000
,
00001000
00000100
00001000
00010000
00001000
00000000
00010000
00000000
,
01000000
01000000
00000000
00000000
00000000
00000000
00000000
00000000
,
00100000
10000000
10000000
00000000
01000000
00000000
00010000
00000000
,
00001000
00001000
01000000
00000000
00010000
00000000
10000000
00000000
,
00100000
00010000
00010000
00000000
00001000
00000000
00000010
00000000
,
00000010
00001000
01000000
00000000
00010000
00000000
00001000
00000000
,
00000110
00000001
00000001
00000000
00000100
00000000
00000010
00000000
,
00000010
00001000
00010000
00000000
01000000
00000000
10000000
00000000
,
00100000
00010000
00010000
00000000
00001000
00000000
00000010
00000000
,
00000010
00000001
00000100
00000000
00000001
00000000
00001000
00000000
,
00010000
00000000
00000000
00000000
,
00000001
00000001
00000100
00000000
00001000
00010000
01000000
00000000
10000000
00000000
00000000
00000000
00000000
00000000
00000000
00000000
;

//---------------dance-double - ----------------
#NOTES:
     dance-double:
     :
     Hard:
     15:
     :
00000000
00000000
00000000
00000000
,
00000000
00000000
00000000
00000000
,
00000000
00000000
00000000
00000000
,
00000000
00000000
00000000
00000000
,
00000000
00000000
00000000
00000000
,
00100000
01000000
00100000
10000000
00000000
00010000
00010000
00000000
,
00000000
00000000
01000000
00000000
00001000
00010000
00000000
00001000
00010000
00000000
00000000
00000000
00001010
00000000
00000000
00000100
,
00000001
00000010
00000000
00000110
00000000
00000001
00001000
00000000
,
00000100
00000000
00020000
00000000
00031000
00000000
01000000
00000000
00100000
10000000
00100000
00000000
00100000
10000000
00100000
00000000
,
01000000
00000000
00010000
00201000
00000000
00001000
00001000
00010000
,
00300100
00000000
00000010
00000000
00000001
00000000
00000100
00000010
00000000
00000010
00001000
00000000
00000100
00000000
00000000
00000000
,
00010000
00000000
00000010
00000000
00001000
00000000
00000100
00001000
00000000
00001000
00100000
00000000
01000000
00000000
00000000
00000000
,
00010000
00000000
00100000
01000000
00100000
00000000
00010000
10000000
00000000
10000000
00100000
00000000
01000000
00000000
00000000
00010000
,
00100000
00000000
00001000
01000000
00000000
01000000
00100000
00000000
10100000
00000000
00000000
01010000
00000000
00000000
10000000
00010000
,
20000000
00000000
00000000
30100000
01000000
00000000
01000000
00000000
00002000
00000000
00000000
00013000
00000100
00000000
00000100
00000000
,
00000010
00000000
00000001
00001000
00000000
00001000
00000001
00000000
00000100
00000010
00000000
00000010
00001000
00000000
00000001
00000000
,
00000011
00000000
00000000
00000000
00000001
00001000
00000001
00001000
00000001
00000000
00000001
00000000
00001020
00000000
00000100
00000000
,
00000130
00000000
00000010
00001000
00000000
00001000
00100000
00000000
01100000
00000000
00000000
00010000
10000000
00000000
01000000
00000000
,
00100000
00000000
00010000
01000000
00010000
01000000
00010000
00000000
00100000
00000000
00000000
00010000
10000000
01000000
10000000
00000000
,
10000000
01000000
10000000
00000000
10000000
01000000
10000000
00000000
10000000
01000000
10000000
01000000
10000000
00000000
00100000
00000000
,
01000000
00000000
00010000
00000000
00100000
00001000
00100000
00000000
00001000
00000100
00000000
00000100
00000001
00000000
00000010
00000000
,
00000100
00000000
00000010
00000000
00001001
00000000
00001001
00000000
00000000
00000000
00000010
00001000
00000010
00000000
00001000
00000100
,
00001000
00000000
00000001
00000010
00000001
00001000
00000100
00000000
00001000
00000001
00000000
00010000
00002000
00000000
01000000
00000000
,
01003000
00100000
10000000
00010000
10000000
01000000
11000000
00000000
,
10001000
00000000
00000000
00000000
00100000
00010000
00100000
00000000
00100000
00010000
00100000
00010000
00200000
00000000
01000000
00000000
,
01000000
00000000
00310000
00000000
10000000
01000000
00100000
01000000
10000000
00000000
00000000
00000000
00010000
00000000
01000000
00001000
,
01000000
00000000
00000000
00100000
10000000
00010000
10000000
00000000
01000000
00100000
00000000
00100000
00002000
00000000
00010000
00000000
,
00013000
00000000
00000010
00000001
00001000
00000001
00000100
00000000
00000010
00001000
00000000
00000100
00000010
00000000
00000010
00000000
,
00000011
00000000
00001001
00000000
00000010
00000100
00000010
00000100
00000010
00001000
00000000
00000001
00020000
00000000
00000100
00000000
,
00000100
00000000
00000000
00000000
10030000
00000000
01000000
00000000
00010000
00100000
00010000
00100000
01000000
10000000
00010000
10000000
,
01000000
00000000
00000000
00100000
00010000
10000000
00010000
00000000
10100000
00000000
00000000
00000000
01001000
00000000
00100000
01000000
,
00100000
00000000
10000000
00010000
00000000
00001000
00000001
00000000
00000100
00000010
00000000
00000000
00000110
00000000
00000110
00000000
,
00001001
00000000
00000110
00000000
00001000
00000001
00001000
00000000
00000101
00000000
00000000
00000000
00000010
00000000
00001000
00000000
,
00000100
00000000
00000001
00000000
00000100
00000000
00001000
00000000
00000010
00000000
00000000
00000100
00100000
00000000
10000000
00000000
,
01000000
00000000
00010000
00000000
01000000
00000000
10000000
00000000
00100000
00000000
00000000
01000000
00000010
00000000
00001000
00000000
,
00000100
00000000
00000001
00000000
00000100
00000000
00001000
00000000
00000010
00000000
00000000
00000100
00100000
00000000
10000000
00000000
,
00010000
00000000
10000000
00000000
00100000
00000000
00000000
01000000
00010000
00000000
10010000
00000000
10000000
00000000
01000000
00000000
,
00100000
00000000
00010000
00000000
01000000
00000000
00100000
00000000
10000000
00010000
00000000
00100000
00001000
00000000
00000100
00000000
,
00000001
00000010
00000100
00001000
00001100
00001100
00001100
00000101
,
00001100
00000000
00110000
01010000
00110000
00000000
10000000
00010000
,
00100000
00000000
01000000
00000000
10000000
00100000
10000000
00000000
00010000
00100000
00000000
00010000
00000200
00000000
00000000
00000000
,
00000310
00000000
00000110
00000000
00000110
00000000
00000000
00000000
00000000
00000000
00000000
00000000
00000001
00000010
00000001
00000000
,
00001001
00000000
00000000
00000000
00010000
00000100
00010000
00000000
00001000
01000000
00000000
00100000
20000000
00000000
00000000
00000000
,
30020000
00000000
00000000
00000000
00030000
00000000
00100000
10000000
,
01000000
00100000
01000000
00000000
10000000
00010000
01000000
00010000
10000000
00000000
00100000
01000000
00002000
00000000
00000000
00000000
,
00023000
00000000
00000000
00000000
00000010
00000000
00000000
00000000
00030100
00000000
00000000
00000000
00010000
00001000
00000100
00000001
,
00001000
00000000
00000000
00000000
00000010
00001000
00000010
00000100
00000001
00000010
00000001
00001000
00000200
00000000
00000000
00000000
,
00001300
00000000
00001000
00000000
00000001
00000000
00000001
00000000
00001000
00000001
00001000
00000001
00000010
00000001
00001000
00000000
,
00000100
00010000
00100000
00000000
10000000
01000000
00000000
10000000
00000000
00010000
00000000
01000000
00001000
00000000
00100000
00000000
,
01000000
00000000
10000000
00000000
00100000
01000000
00100000
01000000
00100000
00000000
00000000
10000000
00010000
00000000
00100000
00000000
,
10000000
00000000
00100000
00000000
00001000
01000000
00001000
01000000
00001000
00000000
00000000
00000010
00000001
00000000
00000100
00000000
,
00000010
00000000
00000001
00000000
00000010
00001000
00000010
00001000
00000010
00000000
00000000
00010000
00001000
00000000
00000000
00000000
,
00011000
00000000
00000000
00001000
00010000
00000000
00000000
00000000
10100000
00000000
00100000
00000000
01000000
00010000
01000000
00010000
,
00000000
00100000
01000000
00000000
10000000
00010000
00000000
01000000
00100000
00000000
10000000
00000000
01000000
00100000
00010000
00000000
,
01000000
00100000
10000000
00000000
01000000
00010000
00000000
00001000
00000100
00000000
00000001
00000000
00000010
00000000
00000100
00000000
,
00001000
00000000
00000010
00000000
00001000
00000000
00010000
00000000
00100000
00000000
10000000
00000000
01000000
00100000
00000000
00000000
,
10000000
00010000
10000000
00010000
00000000
00100000
00000000
00010000
00000100
00000000
00000000
00000000
00000110
00000000
00000010
00001000
,
00000000
00001000
00000001
00000000
00000010
00000000
00000000
00000000
00000100
00000000
00000000
00000000
00010100
00000000
00010000
00000010
,
00000000
00000010
00000100
00000000
00000001
00001000
00000001
00000000
00000100
00000000
00000010
00001000
00000000
00001000
00010000
00000000
,
01000000
00000000
10000000
00100000
01000000
00000000
00010000
10000000
00000000
00100000
01000000
00000000
00010000
00100000
00010000
10000000
,
00100000
00000000
01000000
00001000
00010000
00000000
01000000
00000000
21000000
00000000
00000000
00000000
30100000
00000000
01000000
00010000
,
10000000
00010000
01000000
00000000
00000100
00000000
00000010
00000001
00000000
00000001
00001000
00000000
00000010
00000000
00000000
00000000
,
00000100
00000001
00001000
00000000
00000100
00000010
00000001
00001000
00100000
00000000
00000000
00000000
10100000
00000000
01000000
10000000
,
00000000
00010000
01000000
00000000
00100000
00000000
00000000
00000000
10000000
00000000
01000000
00100000
00010000
00100000
01000000
00000000
,
10000000
00000000
00100000
01000000
00000000
00010000
00000000
10000000
00200000
00000000
00000000
00000000
02300000
00000000
00000000
00000000
,
03002000
00000000
00000000
00000000
00023000
00000000
00000000
00000000
00030010
00001000
00000010
00000000
00000100
00000001
00000000
00000001
,
00000010
00000100
00001000
00000001
00001000
00000000
00010000
00000000
02020000
00000000
00000000
00000000
00000000
00000000
00000000
00000000
,
00000000
00000000
00030000
00000000
,
00000000
00000000
03000000
00000000
;

//---------------dance-double - ----------------
#NOTES:
     dance-double:
     :
     Challenge:
     18:
     :
00000000
00000000
00000000
00000000
,
00000000
00000000
00000000
00000000
,
00000000
00000000
00000000
00000000
,
00000000
00000000
00000000
00000000
,
00000000
00000000
00000000
00000000
,
00000110
00000000
00000110
00000000
00001000
00000000
00000001
00000000
00000010
00000000
00000100
00000000
00001000
00000000
00000000
00100000
,
10000000
00000000
01000000
00000000
10000000
00010000
00000000
00010000
00100000
00000000
00000000
00000000
10010000
00000000
00010000
01000000
,
00010000
00100000
01000000
10000000
00000000
01000000
01010000
00000000
,
00100000
00000000
00012000
00000000
10003000
00000000
00000000
00000000
01000000
00100000
00010000
00000000
00001000
00010000
00001000
00000100
,
00000001
00000000
00000010
00000000
00000100
00000000
00001000
00000000
00000010
00000100
00000010
00000000
00001000
00000001
00000010
00000001
,
00000100
00000000
00000010
00001000
00000001
00000000
00000010
00000100
00000000
00001000
00100000
00000000
01000000
00010000
00000000
10000000
,
01000000
00000000
00100000
01000000
10000000
00000000
00100000
01000000
00000000
00001000
00100000
00000000
00010000
01000000
00010000
10000000
,
01000000
00000000
00100000
00010000
01000000
00000000
10100000
00000000
10000000
00010000
00000010
00000000
00000001
00000100
00000000
00000010
,
00001000
00000000
00000100
00000010
00000000
00000001
00000100
00000000
00000110
00000000
00000000
00001000
00000001
00000000
00000010
00000100
,
00010000
00001000
00010000
10000000
01000000
00000000
01001000
00000000
00100000
01000000
00000000
10000000
00100000
00000000
00010000
00000000
,
10100000
00000000
00000000
00100000
01000000
00000000
00010000
00100000
00000000
00001000
00010000
00000000
00001000
00100000
00000000
00001000
,
00010000
00000000
00000000
00000000
00000010
00000100
00000010
00000100
00000010
00000000
00001001
00000000
00010010
00000000
00000100
00001000
,
00000001
00000000
00000010
00000100
00000000
00000100
00001000
00000000
00100000
01000000
00000000
00010000
10000000
00000000
01000000
00100000
,
00010000
00000000
10000000
00100000
00000000
01000000
00100000
00000000
01010000
00000000
00000000
00100000
00001000
00010000
00001000
00010000
,
00001000
00010000
00001000
00010000
00001000
00010000
00001000
00010000
00001000
00010000
00001000
00010000
00000010
00000000
00000100
00000001
,
00000010
00000000
00000001
00001000
00000100
00001000
00000001
00000000
00010000
00000010
00000000
00000100
00000010
00001000
00000001
00000000
,
00000010
00000100
00001000
00000010
00000100
00000000
00000010
00001000
00000001
00000000
00000010
00000100
00001000
00000000
00000010
00010000
,
00001000
00000000
00010000
01000000
10000000
00100000
01000000
00000000
00010000
10000000
00000000
00100000
01000000
00010000
00100000
00000000
,
00010000
10000000
00010000
01000000
00000000
00100000
10000000
00000000
01000000
10000000
00000000
00010000
00000010
00000000
00000000
00000000
,
00000110
00000000
00000000
00000000
00000001
00000100
00001000
00010000
01000000
00010000
00001000
00000100
00000001
00000000
00000010
00000000
,
00000100
00000000
00001000
00000010
00001000
00000100
00001000
00010000
00100000
00000000
10000000
00100000
01000000
00000000
00100000
00010000
,
10000000
00000000
00100000
01000000
00000000
00001000
00100000
00000000
01000000
10000000
00000000
00010000
00100000
00000000
01000000
10000000
,
00010000
00000000
00100000
00000100
00000000
00000100
00000000
00000010
00000001
00001000
00000000
00001000
00000010
00000000
00001010
00000000
,
00010100
00000000
00000011
00000000
00000100
00000001
00000010
00000001
00001000
00010000
00000000
00000100
00000010
00000000
00001000
00000001
,
00001000
00000000
00000000
00000010
00001000
00000100
00000010
00000000
00000001
00000100
00000000
00000010
00001000
00000100
00000001
00000100
,
00000010
00000000
00000000
00000001
00000100
00000010
00000001
00000010
00010000
00001000
00000000
00001000
01000000
00010000
00100000
01000000
,
00100000
00000000
00000000
00010000
10000000
01000000
00100000
00000000
01000000
10000000
00000000
00000000
11000000
00000000
01100000
00000000
,
00110000
00000000
00011000
00000000
00001000
01000000
00100000
00000000
10010000
00000000
00000000
01000000
00100000
00000000
10000000
00000000
,
01000000
00000000
00010000
00000000
01000000
00000000
10000000
00000000
00100000
00000000
00000000
00000100
00000010
00000000
00001000
00000000
,
00000100
00000000
00000001
00000000
00000100
00000000
00001000
00000000
00000010
00000000
00000000
01000000
00100000
00000000
10000000
00000000
,
01000000
00000000
00010000
00000000
01000000
00000000
10000000
00000000
00100000
00000000
00000000
00000100
00000010
00000000
00001000
00000000
,
00000100
00000000
00000001
00000000
00000100
00000000
00001000
00000010
00000100
00000000
00001010
00000000
00000001
00000100
00000010
00000000
,
00001000
00000001
00000010
00000100
00001000
00000010
00000100
00000000
00000001
00001000
00000000
00000100
01000000
00100000
10000000
00000000
,
01000000
00100000
00010000
01000000
00100000
10000000
00010000
00000000
00110000
00000000
11000000
00000000
00110000
00000000
01000000
00000000
,
00100000
10000000
00010000
10000000
00100000
00000000
01000000
00000000
00001000
00010000
00000010
00000100
00000001
00000000
00000010
00000000
,
00000001
00001000
00000000
00000010
00000100
00000001
00000010
00000000
00000001
00000010
00000001
00001000
00000200
00000000
00000000
00000000
,
00010300
00000000
00010100
00000000
00010100
00000000
00000000
00000000
00000000
00000000
00000000
00000000
00001000
01000000
00100000
00010000
,
00100000
10000000
01000000
00100000
10000000
00100000
00001000
00010000
00000010
00000100
00000001
00001000
00200000
00000000
00000000
00000000
,
10300000
00010000
02000000
00000000
00000000
00000000
00000000
00000000
03000000
00000000
00000000
00000000
00100000
10000000
00010000
00100000
,
10000000
00100000
00001000
00010000
00000010
00000001
00000010
00001000
00000100
00000010
00010000
00000010
00000002
00000000
00000000
00000000
,
00002003
00000000
00000010
00000000
00000010
00000000
00000000
00000000
00003100
00000000
00000000
00000000
00010000
00000010
00000001
00000010
,
00001000
00000100
00010000
01000000
10000000
00100000
00001000
00000100
00000001
00000010
00001000
00010000
02000000
00000000
00000000
00000000
,
13000000
00010000
10000000
00000000
00100000
01000000
00010000
10000000
01000000
00100000
00010000
01000000
00100000
10000000
00010000
00100000
,
01000000
00010000
01000000
00100000
00001000
00010000
00000010
00000100
00000010
00001000
00000001
00000010
00001000
00000000
00000010
00000000
,
00000001
00000100
00000010
00000000
00001000
00000001
00000010
00000000
00000100
00001000
00000000
00000010
00000100
00000000
00000001
00000000
,
00000010
00000100
00001000
00100000
10000000
01000000
10000000
00000000
00010000
00100000
00000000
00010000
01000000
00000000
00100000
00000000
,
10000000
00000000
00000000
00010000
00000000
00000000
00100000
00000000
00000000
00000000
00000000
00000000
01000000
00000000
00000000
10000000
00000000
00000000
00010000
00000000
00000000
00100000
00000000
00000000
01000000
00000000
00000000
00010000
00000000
00000000
01000000
00000000
00000000
10000000
00000000
00000000
00100000
00000000
00000000
00000000
01000000
00000000
00000000
00000000
00010000
00000000
00000000
00000000
,
00000010
00000000
00000000
00000000
00000100
00000000
00000000
00000000
00001000
00000000
00000000
00000000
00000001
00000000
00000000
00000000
00000000
00000000
00000000
00000000
00000000
00000000
00000000
00000000
00010001
00000000
00000000
00000000
00000000
00000000
00000010
00000000
00000000
00000000
00000000
00000000
00000100
00000000
00000000
00000001
00000000
00000000
00001000
00000000
00000000
00000000
00000000
00000000
,
00000100
00000010
00000001
00000000
00001000
00000010
00001000
00010000
01000000
10000000
00100000
00000000
01000000
00010000
10000000
00000000
,
00100000
01000000
00010000
00000000
10000000
00100000
00000000
01000000
00001000
00000000
00010000
00001000
00000100
00000000
00000001
00000100
,
00000010
00000000
00001000
00000001
00000010
00000000
00000100
00001000
01000000
00000000
10000000
00000000
00100000
00000000
01000000
00000000
,
00010000
00100000
00010000
10000000
00000000
00100000
00000000
01000000
00020000
00000000
00000000
00000000
00130000
00010000
00100000
01000000
,
00000000
01000000
10000000
00000000
00100000
10000000
00010000
00001000
00000010
00000000
00000100
00000010
00000001
00001000
00000001
00000100
,
00000000
00000010
00001000
00000001
00000010
00000001
00000100
00000010
00001000
00000000
00000100
00001000
00000000
00000010
00000100
00000001
,
00000010
00000100
00001000
00000000
00100000
10000000
00010000
00100000
00000000
00010000
01000000
00000000
00100000
10000000
01000000
00100000
,
00001000
00000000
00000010
00000001
00000100
00000010
00001000
00010000
01000000
00000000
10000000
00100000
10000000
00010000
00100000
01000000
,
00000000
10000000
00100000
10000000
01000000
00100000
00010000
00000100
00000010
00000100
00000010
00001000
00000001
00000000
00000010
00000100
,
00001000
00000010
00000100
00000001
00000010
00000001
00010000
00000100
00001000
00000000
01000000
00100000
10000000
00010000
00100000
00001000
,
00000000
10000000
01000000
00100000
10000000
00100000
00001000
01000000
00100000
10000000
01000000
10000000
00100000
01000000
00010000
01000000
,
00100000
10000000
01000000
00100000
00010000
01000000
00100000
00000000
01100000
00000000
01000000
00100000
10000000
00010000
00000000
00010000
,
00000100
00000000
00000001
00000010
00000001
00000000
00000000
00000100
00000010
00001000
00000100
00000001
00000100
00010000
01000000
00100000
,
10000000
01000000
00010000
00000100
00000010
00000000
00000001
00000000
00200200
00000000
00000000
00000000
00000000
00000000
00000000
00000000
,
00000000
00000000
00300000
00000000
,
00000000
00000000
00000300
00000000
;
