#TITLE:GIGANT;
#ARTIST:seiya-murai;
#BANNER:GIGANT-bn.png;
#BACKGROUND:GIGANT-bg.png;
#JACKET:GIGANT-jacket.png;
#MUSIC:GIGANT.ogg;
#OFFSET:0.25;
#SAMPLESTART:16.75;
#SAMPLELENGTH:20;
#DISPLAYBPM:70:210;
#BPMS:0=140,22=210,25=140,27=210,30=140,51=70,51.5=140,52.5=70,53=140,66=70,66.5=140,67.5=70,68=140,106=210,109=140,111=210,114=140,124=210,127=140,129=210,132=140,172=210,241=140,243=210,264=140;
#BGCHANGES:;

//---------------dance-single - ----------------
#NOTES:
     dance-single:
     :
     Beginner:
     4:
     :
0000
0000
0000
0000
,
0000
0000
0000
0000
,
0000
0000
0000
0000
,
1000
0000
0001
0000
,
1001
0000
0110
0000
,
0010
0010
0010
0000
,
0000
0100
0100
0100
,
0000
0000
0001
0000
,
1000
0000
1001
0000
,
0110
0000
0010
0000
,
0000
0000
1000
0000
,
1000
0000
0001
0000
,
1000
0000
0000
0000
1001
0000
0000
0110
,
0000
1000
1000
1000
,
0000
0010
0000
1000
,
0000
0001
0000
0100
,
0000
0000
1001
0000
0000
0110
0000
0000
,
0010
0010
0010
0000
,
1000
0000
0001
0000
,
1000
0000
0100
0000
,
0010
0010
0010
0000
,
0100
0100
0100
0000
,
0010
0000
0001
0000
,
0100
0000
0010
0000
,
1000
1000
1000
0000
,
0001
0001
0001
0000
,
1000
1000
1000
0000
,
0000
0010
0010
0010
,
0000
0000
0100
0000
,
0010
0000
1001
0000
,
0110
0000
0001
0001
,
0001
0000
0000
0100
,
0100
0100
0000
0000
,
0010
0000
0100
0000
,
1001
0000
0110
0000
,
0001
0000
1000
0000
,
0010
0010
0010
0000
,
1000
0000
0100
0000
,
1000
0000
0001
0000
,
0100
0000
0100
0000
,
0010
0010
0010
0000
,
1000
0000
0001
0000
,
0010
0000
0100
0000
,
1000
0000
0000
0010
,
0000
0000
0100
0000
,
0000
0001
0000
0000
,
0010
0000
0000
0001
,
0000
0000
1001
0000
,
0000
0110
0000
0000
,
1000
0000
0000
0100
,
0000
0000
1000
0000
,
0000
0001
0000
0000
,
0100
0000
0000
0010
,
0000
0000
1001
0000
,
0000
0110
0000
0000
,
2000
0000
0000
3000
,
0000
0000
0002
0000
,
0000
0003
0000
0000
,
0200
0000
0000
0300
,
0000
0000
1001
0000
,
0000
0010
0010
0020
,
0000
0000
0030
0000
,
0000
2000
0000
0000
,
3000
0000
0000
0200
,
0000
0000
0300
0000
,
0000
0110
0000
0000
,
1000
1000
1000
0000
;

//---------------dance-single - ----------------
#NOTES:
     dance-single:
     :
     Easy:
     8:
     :
0000
0000
0000
0000
,
0000
0000
0000
0000
,
0000
0000
0000
0000
,
1000
0001
0100
0010
,
1001
1001
0110
1001
,
1000
0000
0010
0000
1000
0000
0000
0101
,
0000
0001
0010
0001
,
0000
1100
0000
0000
0010
0000
1000
0000
,
0001
0100
1001
1001
,
0110
1001
0020
0030
,
1100
0101
0020
0130
,
0002
1003
0200
0310
,
0012
0000
1003
0000
1100
0000
1100
0101
,
0000
0101
1001
0000
0001
0000
0100
0000
,
0100
0002
0013
0200
,
1300
0020
1030
2100
,
3001
0000
0011
0000
0011
1010
0000
1010
,
1001
1000
0020
0030
,
1000
1000
0001
0001
,
0020
0000
0200
0330
,
1000
1100
0001
0011
,
1000
1010
0001
0101
,
0010
0010
0100
0100
,
0002
0000
2000
3003
,
0010
0110
0100
1001
,
0010
1001
0100
0110
,
0001
0000
0010
0000
0100
0000
0000
1100
,
0000
1000
0010
0100
,
0000
0101
0000
0000
0010
0000
1000
0000
,
0100
0001
1001
1001
,
0110
1001
0010
1000
,
0001
0000
0000
0011
0000
0000
0001
0000
,
1000
0000
0100
0000
0000
1100
0000
0000
,
0010
0100
0001
1000
,
1001
1001
0110
1001
,
1000
0010
0002
0003
,
0010
0100
2000
3000
,
0010
0010
1000
0001
,
0200
0300
0002
1003
,
0100
1000
0002
0003
,
0100
0010
0200
0300
,
0010
0010
1000
0001
,
2000
3000
0200
0300
,
1000
0010
1000
0100
,
0010
0001
0100
0010
,
1000
0100
0010
0001
,
1000
0001
1000
0010
,
0100
0000
0001
0000
1001
0000
0000
1001
,
0000
0000
0110
0000
0000
1001
0000
0000
,
1000
0010
0100
0001
,
0010
0100
0010
0001
,
0100
0010
1000
0001
,
1000
0100
0010
0001
,
0100
0010
1000
0100
,
1000
0002
2000
3003
,
2020
0000
0000
0000
0000
3030
0000
0001
,
0000
0001
0000
0001
0200
0000
0000
0000
,
0000
0300
0000
0010
0000
0010
0000
0010
,
2000
0000
0000
0000
0000
3000
0000
0100
,
0000
0100
0000
0100
0020
0000
0000
0000
,
0030
0011
1100
0202
,
0000
0000
0000
0303
0000
1000
0000
1000
,
0000
1000
0200
0000
0000
0000
0000
0300
,
0000
0010
0000
0010
0000
0010
0002
0000
,
0000
0000
0000
0003
0000
0100
0000
0100
,
0000
0100
0020
0000
0000
0000
0030
0000
,
1001
1100
0202
0000
,
0000
0000
0303
0000
;

//---------------dance-single - ----------------
#NOTES:
     dance-single:
     :
     Medium:
     13:
     :
0000
0000
0000
0000
,
0000
0000
0000
0000
,
0000
0000
0000
0000
,
1000
0001
1000
0001
0000
0000
0100
0010
0100
0010
0000
0000
,
2010
0000
0000
3001
0000
0000
0011
0000
0100
0020
0000
0000
,
1030
0000
0000
0000
1000
0000
0001
0000
0000
0000
0001
0000
0200
0000
0000
0010
0000
0000
0000
0000
0000
0010
0000
0000
,
0000
0000
0000
0310
0000
0000
1000
0000
0000
0000
1000
0000
0100
0000
0000
0000
0100
0000
0020
0000
0000
0001
0000
0000
,
0000
0000
0000
0001
0000
0000
0000
0000
0000
0031
0000
0000
0100
0000
0010
0000
0100
0000
0010
0000
0000
0000
0000
0000
,
1000
0001
1000
0001
0000
0000
0012
0000
0000
1003
0000
0000
,
1100
0000
0010
0200
0000
0000
0302
0000
0000
0000
0000
0000
,
1003
0001
1000
0001
0000
1000
0200
0000
0000
0000
1300
0001
,
2000
0000
0000
0000
3010
0100
0020
0000
0000
0000
1030
0100
,
2000
0000
0000
0000
0000
0000
3002
0000
0000
0000
0000
0000
0013
0000
0000
0000
0010
0000
0200
0000
0000
0310
0000
0000
,
0000
0010
0000
0200
0000
0000
1300
0000
0000
0000
0000
0000
1000
0000
0000
0000
0001
0000
0200
0000
0000
0000
0000
0000
,
0320
0000
0000
2030
0000
0000
0000
3001
0100
0002
0000
0000
,
0000
0013
0100
0020
0000
0000
0000
0031
1000
0002
0000
0000
,
0203
0000
0000
0000
0000
0000
0301
0000
0000
0000
0001
0000
2000
0000
0000
3001
0000
0000
0000
0001
0000
2000
0000
0000
,
3010
0000
0000
0010
1000
0001
0200
0000
0000
0300
0000
0000
,
0001
0000
1000
0000
0001
0000
0010
0000
0100
0000
1000
0000
,
0020
0000
0000
0000
1030
0001
0200
0000
0000
0300
0000
0000
,
0001
1000
0001
1000
0000
0000
0010
0100
0010
0100
0000
0000
,
0100
0010
0100
0010
0000
0000
1000
0001
1000
0001
0000
0000
,
0010
0000
0001
0000
1000
0000
0010
0000
1000
0000
0100
0000
,
2000
0000
0000
0000
3010
0100
0002
0000
0000
0003
0000
0000
,
1000
0001
1000
0001
0000
0000
0100
0010
0100
0010
0000
0000
,
0010
0100
0010
0100
0000
0000
0001
1000
0001
1000
0000
0000
,
0010
0000
0000
0000
0010
0000
1000
0000
0000
0000
1000
0000
0200
0000
0000
0010
0000
0000
0000
0000
0000
0010
0000
0000
,
0000
0000
0000
0310
0000
0000
0001
0000
0000
0000
0001
0000
0100
0000
0000
0000
0100
0000
0020
0000
0000
1000
0000
0000
,
0000
0000
0000
1000
0000
0000
0000
0000
0000
1030
0000
0000
0010
0000
0100
0000
0001
0000
1000
0000
0000
0000
0000
0000
,
0001
0010
0100
1000
0000
0000
2100
0000
0000
3001
0000
0000
,
0101
0000
0010
2000
0000
0000
3100
0000
0100
0010
0000
0010
,
0002
0000
0000
1000
0000
0000
0000
0000
0000
1000
0000
0000
0000
0000
0000
1003
0000
0000
0010
0000
0000
0000
0010
0000
,
1000
0000
0000
0000
1000
0000
0002
0000
0000
0100
0000
0000
0000
0000
0000
0100
0000
0000
0000
0000
0000
0103
0000
0000
,
0010
1000
0001
0100
0000
0000
0001
0010
0100
1000
0000
0000
,
2001
0000
0000
3010
0000
0000
0110
0000
0001
2000
0000
0000
,
3020
0000
0000
0000
1030
0100
2000
0000
0000
0000
0000
3001
,
0100
0000
0000
0100
0000
0010
2000
0000
0000
3000
0000
0000
,
1100
0000
0000
0101
0000
0000
1100
0000
0000
0101
0000
1000
,
0002
0000
0000
0000
0013
0100
2000
0000
0000
3002
0000
0000
,
0023
0000
0000
0000
0031
1000
0002
0000
0000
0000
0000
1003
,
0200
0000
0000
1300
0000
1000
0002
0000
0000
0003
0000
0000
,
0011
0000
0000
1010
0000
0000
0011
0000
0000
1010
0000
0001
,
2000
0000
0000
0000
3010
1000
0002
0000
0000
0003
0000
0000
,
1000
0010
0000
0100
0000
0001
0000
0010
,
0000
0100
0000
1000
0001
1000
0000
0010
,
0000
1000
0000
0100
0000
0010
0000
0001
,
1000
0010
0000
1000
0000
0100
0000
0010
,
0000
0001
0000
0100
0001
0010
0100
2000
,
0000
0000
3010
1000
0001
0200
0000
0000
,
0301
0010
0000
0001
0000
1000
0020
0100
,
0000
0100
0000
0130
0001
0010
0000
0001
,
0000
0100
0020
1000
0000
1000
0000
1030
,
0100
1000
0000
0001
0000
0100
0001
0010
,
0000
0100
0000
1000
0010
1000
0010
1000
,
0100
0010
0002
0000
2000
0000
3003
0000
,
2100
0000
0001
0000
0001
0000
3001
1000
,
0000
0010
0000
0100
0002
0000
0010
0000
,
0010
0000
0013
0100
0000
1000
0000
0001
,
2000
0000
0010
0000
0010
0000
3010
0100
,
0000
0010
0000
1000
0001
0000
0000
0101
,
0000
0000
0000
1100
0000
0001
0100
0000
0010
2000
0000
0000
,
0100
0000
0100
0000
3100
0010
0000
0001
,
0000
1000
0020
0000
0100
0000
0100
0000
,
0130
0001
0000
1000
0000
0100
0020
0000
,
0001
0000
0001
0000
0031
1000
0000
0010
,
0000
1000
0100
0000
0000
1001
0000
0000
,
1000
0010
0100
0001
0010
0100
2000
0000
0000
0000
0000
0000
,
0000
0000
3000
0000
;

//---------------dance-single - ----------------
#NOTES:
     dance-single:
     :
     Hard:
     16:
     :
0000
0000
0000
0000
,
0000
0000
0000
0000
,
0000
0000
0000
0000
,
1000
0100
0010
0001
0010
0100
1000
0010
0100
0001
0010
0100
,
2000
0000
0000
3001
0000
0000
0011
0000
0001
0200
0000
0000
,
0310
0000
1000
0000
0001
0000
0010
0000
0001
0000
1000
0000
0200
0000
0000
0010
0000
0000
0000
0000
0000
0010
0000
0000
,
0000
0000
0000
0310
0000
0000
0001
0000
0100
0000
0010
0000
1000
0000
0100
0000
0010
0000
0002
0000
0000
1000
0000
0000
,
0000
0000
0000
1000
0000
0000
0000
0000
0000
1003
0000
0000
0010
0000
1000
0000
0100
0000
0010
0000
0001
0000
0100
0000
,
0010
1000
0001
0010
0100
1000
0020
0000
0000
0130
0000
0000
,
0101
0000
0001
2000
0000
0000
3020
0000
0000
0000
0000
0000
,
1030
0001
1000
0001
1000
0001
0020
0000
0000
0031
0010
0100
,
2000
0000
0000
3010
0100
0001
2000
0000
0000
3100
0010
0001
,
2000
0000
0000
0000
0000
0000
3002
0000
0000
0000
0000
0000
0013
0000
0000
0000
0001
0000
0200
0000
0000
0310
0000
0000
,
0000
1000
0000
0200
0000
0000
0320
0000
0000
0000
0000
0000
0031
0000
1000
0000
0010
0000
2000
0000
0000
0000
0000
0000
,
3200
0000
0000
2300
0000
0000
3010
1000
0100
0020
0000
0000
,
0031
1000
0010
0200
0000
0000
0301
0010
0001
2000
0000
0000
,
3020
0000
0000
0000
0000
0000
0130
0000
0000
0000
0001
0000
2000
0000
0000
3100
0000
0000
0000
1000
0000
0002
0000
0000
,
0023
0000
0000
0031
1000
0100
0020
0000
0000
0031
0000
0000
,
0200
0000
0320
0000
2030
0000
3200
0000
0320
0000
0032
0000
,
2003
0000
0000
3010
1000
0001
0200
0000
0000
0310
0000
0000
,
1000
0100
1000
0001
0100
0001
1000
0100
1000
0001
0100
0001
,
1000
0010
1000
0001
0010
0001
1000
0010
1000
0001
0010
0001
,
0200
0000
0302
0000
0023
0000
0032
0000
2003
0000
3200
0000
,
0320
0000
0000
0031
0100
0010
2000
0000
0000
3001
0000
0000
,
1000
0100
1000
0001
0100
0001
1000
0100
1000
0001
0100
0001
,
1000
0100
0010
0001
0010
0100
1000
0001
0100
0010
1000
0001
,
0010
0000
0001
0000
0100
0000
0010
0000
1000
0000
0001
0000
2000
0000
0000
0100
0000
0000
0000
0000
0000
0100
0000
0000
,
0000
0000
0000
3100
0000
0000
0010
0000
0001
0000
1000
0000
0001
0000
0100
0000
0010
0000
2000
0000
0000
0001
0000
0000
,
0000
0000
0000
0001
0000
0000
0000
0000
0000
3001
0000
0000
1000
0000
0100
0000
0010
0000
0100
0000
0010
0000
0100
0000
,
1000
0001
0100
0010
0100
0001
0020
0000
0000
0130
0000
0000
,
1100
0000
1000
0002
0000
0000
0013
0001
1000
0100
1000
0010
,
0200
0000
0000
0001
0000
0000
0000
0000
0000
0001
0000
0000
0000
0000
0000
0301
0000
0000
1000
0000
0001
0000
0010
0000
,
0100
0000
1000
0000
0001
0000
2000
0000
0000
0010
0000
0000
0000
0000
0000
0010
0000
0000
0000
0000
0000
3010
0000
0000
,
0100
0010
0100
0001
0010
0100
1000
0001
1000
0010
0100
0001
,
2000
0000
0000
3001
0000
0000
1010
0000
0010
0200
0000
0000
,
0302
0000
0000
0000
1003
0100
2000
0000
0000
0000
0000
3001
,
2000
0000
0000
3010
0000
0100
0002
0000
0000
0003
0000
0000
,
2001
0000
0000
3010
1000
0010
1000
0000
1000
0100
0000
0100
,
0020
0000
0000
0000
0031
0100
0002
0000
0000
2003
0000
0000
,
3200
0000
0000
1300
0001
1000
0002
0000
0000
0000
0000
0103
,
0020
0000
0000
1030
0000
0001
2000
0000
0000
3000
0000
0000
,
0120
0000
0000
1030
0100
0010
0001
0000
0100
0001
0010
0100
,
2000
0000
0000
0000
3001
1000
0200
0000
0000
0300
0000
0000
,
1000
0010
0001
0010
2000
0100
0000
0010
,
0000
0100
0000
3010
0000
1000
0001
0010
,
0100
1000
0001
1000
0010
1000
0100
0010
,
0001
0100
0010
0100
0001
0010
0100
1000
,
0001
1000
0010
0100
0001
1000
0000
0010
,
1000
0000
0100
0010
0001
0100
0010
1000
,
0001
1000
0010
1000
0100
0010
0002
0100
,
0000
0010
0000
0103
0001
0010
0100
1000
,
0010
1000
0200
0001
0000
1000
0000
0310
,
0100
1000
0010
0100
0001
1000
0020
0001
,
0000
0100
0000
1030
0010
1000
0100
0010
,
0001
0100
0010
0000
1002
0000
0103
0000
,
1000
0010
1000
0100
0010
0001
0100
0110
,
0000
0110
0000
0110
0010
1000
0001
0100
,
0001
0010
0100
1100
0000
1100
0000
1100
,
0001
1000
0010
1000
0100
0010
0001
0011
,
0000
0011
0000
0011
1000
0010
0100
0001
,
0010
0000
0000
0100
0000
0000
1000
0000
0100
0000
0001
0000
1000
0000
0010
0000
0001
0000
1000
0000
0000
0010
0000
0000
,
0100
1000
0100
0001
0010
0011
0000
1100
,
0000
0011
0100
0001
0010
1000
0010
0001
,
0100
0110
0000
1001
0000
0110
0010
1000
,
0001
1000
0100
0010
0001
0011
0000
0110
,
0000
1100
1000
0010
0100
0010
1000
0001
,
0100
0010
1000
0100
0010
0001
0202
0000
0000
0000
0000
0000
,
0000
0000
0303
0000
;
