#TITLE:GIGA THRASH;
#SUBTITLE:;
#ARTIST:Blacklolita;
#TITLETRANSLIT:;
#SUBTITLETRANSLIT:;
#ARTISTTRANSLIT:;
#GENRE:;
#CREDIT:;
#BANNER:GIGA THRASH-bn.png;
#BACKGROUND:GIGA THRASH-bg.png;
#LYRICSPATH:;
#CDTITLE:;
#MUSIC:GIGA THRASH.ogg;
#OFFSET:0.000000;
#SAMPLESTART:76.800003;
#SAMPLELENGTH:20.000000;
#SELECTABLE:YES;
#DISPLAYBPM:150.000000;
#BPMS:0.000000=150.000000
;
#STOPS:
;
#BGCHANGES:;
#KEYSOUNDS:;
#ATTACKS:;

//---------------dance-single - ----------------
#NOTES:
     dance-single:
     :
     Challenge:
     17:
     0.925505,1.030893,0.473009,0.489902,1.241648,767.000000,711.000000,56.000000,58.000000,0.000000,0.000000,0.925505,1.030893,0.473009,0.489902,1.241648,767.000000,711.000000,56.000000,58.000000,0.000000,0.000000:
0000
0000
0000
0000
,
0000
0000
0000
0000
,
1000
0010
0000
0010
0000
0000
1000
0001
0000
1000
0001
0000
0100
0010
0100
0010
,
1000
0100
0020
0000
0031
1000
0000
0001
1000
0001
0200
0000
0310
0100
0001
1000
,
0100
1000
0001
0000
0010
0001
0000
0001
0100
0000
0010
0000
1000
0000
0100
1000
,
0000
0010
0000
0010
0000
0100
0001
0000
1001
0000
0000
1010
0000
0000
1100
0000
,
0001
0100
0010
0000
1000
0100
0000
1000
0001
0000
0001
0000
0001
0000
0010
0100
,
1000
0000
0000
0000
0010
0000
0000
0000
0001
0000
0000
0000
1000
0000
0000
0000
0100
0000
0000
0000
0001
0000
0000
0000
1000
0000
0000
0000
0000
0000
0010
0000
0000
0100
0000
0000
0000
0000
0000
0010
0000
0000
0100
0000
0000
0001
0000
0000
,
1000
1100
0001
0101
0101
0010
0110
0110
,
1000
1010
1010
0001
0011
0010
0100
1000
,
1001
0000
1001
0000
0100
0000
0101
0000
0101
0000
0010
0000
1000
0001
1000
0001
,
1000
0100
1000
0001
0100
0001
1000
0000
0020
0000
0130
0000
0120
0000
0000
0000
,
1030
0000
0000
1100
0000
0000
0101
0000
0000
1100
0000
0000
0101
0000
0010
1000
,
0100
0000
0000
0011
0000
0000
1010
0000
0000
0011
0000
0000
1010
0000
0001
1000
,
0100
0001
0100
0001
0100
0010
0100
0010
0001
1000
0001
1000
0010
1000
0010
1000
,
0100
0000
0000
1000
0000
0000
0001
0000
0000
0100
0000
0000
0001
0000
0000
1000
0000
0000
0100
0000
0000
1000
0000
0000
0001
0000
0000
0000
0010
0000
0000
0000
0001
0000
0000
0000
1000
0000
0000
0010
0000
0000
1000
0000
0000
0010
0000
0000
,
0200
0000
0310
0200
0000
0301
1000
0001
0020
0000
0230
0000
1300
0001
1000
0001
,
1000
0010
1000
0010
1000
0100
1000
0100
2000
0000
3010
1000
0010
0100
0010
0001
,
0020
0130
0101
2000
3001
1010
0200
0000
,
0301
0010
0001
0010
0001
0100
0001
0100
0001
0000
1000
0100
1000
0010
1000
0001
,
2000
0000
3010
2000
0000
0000
3001
0100
0010
0000
0100
0001
1000
0100
1000
0100
,
1000
0010
1000
0010
1000
0001
1000
0001
2000
0000
3010
0001
0010
0100
0010
1000
,
0020
0000
0130
0001
0000
0001
1000
0000
1100
0000
0001
0000
2001
0000
3100
0010
,
1000
0010
1000
0010
0001
0100
0001
0100
0010
1000
0001
0000
0020
0000
0000
0000
,
0031
0100
1000
0001
0010
1000
0200
0000
0000
0300
0000
0000
,
0020
0000
0000
0000
0030
0000
0000
0000
0002
1000
0000
0000
0203
0000
0000
0000
,
0320
0030
0000
1010
0000
0000
0011
0000
0200
0300
0000
0101
0000
0000
1100
0000
,
0002
0003
0000
1001
0000
0000
0110
0000
1001
0000
1000
0100
0010
0001
0010
0100
,
1000
0000
0000
0000
0010
0000
0000
0000
0001
0000
0000
0000
1000
0000
0000
0000
0100
0000
0000
0000
0001
0000
0000
0000
0020
0000
0000
0001
0000
0000
0000
0000
0000
0000
0000
0000
0230
0000
0000
0000
0000
0000
0000
0000
0000
0000
0000
0000
,
1300
0100
0010
0001
0010
0100
1000
0010
0100
0001
0100
0010
,
1000
0000
0000
0000
0001
0000
0000
0000
0010
0000
0000
0000
0200
0000
0000
0000
0000
0000
0000
0000
0000
0000
0000
0000
1300
0000
0000
0001
0000
0000
0200
0000
0000
0000
0000
0000
0320
0000
0000
0000
0000
0000
0000
0000
0000
0000
0000
0000
,
1030
0000
0000
0000
0000
0000
0001
0000
0000
0000
0000
0000
0011
0000
0000
0000
0000
0000
0100
0000
0000
0000
0000
0000
1000
0000
0000
0001
0000
0000
1000
0000
0000
0000
0000
0000
0010
0000
0000
0000
0100
0000
0000
0000
0001
0000
0000
0000
,
1000
0001
0000
0000
0020
0000
0000
0230
0000
0000
2300
0000
0000
0000
3001
0000
,
0100
0002
0000
0000
2003
0000
0000
0000
3020
0000
0000
0230
0000
0000
0000
0302
,
0000
0000
0000
2003
0000
0000
0000
3002
0000
0000
0000
0000
0000
0000
0000
0000
,
0103
0010
0100
0010
0100
0010
0100
0010
,
1000
0001
0001
0010
0100
0100
1000
0010
,
0001
1000
0100
0100
0001
0010
0010
1000
,
0100
0010
1000
0010
0001
0100
1000
0001
,
0100
0000
0000
0010
0000
0000
0100
0000
0000
0010
0000
1000
0001
0000
0000
0000
0101
0000
0000
0000
0101
0000
0000
0000
,
2001
0000
0000
0000
0000
0000
3010
0000
0000
0110
0000
0000
0001
0000
0100
0000
0001
0000
1000
0000
0100
0000
1000
0000
,
0010
0000
0000
0000
0000
0000
0000
0000
0000
1010
0000
0000
0000
0000
0000
0000
0000
0000
1100
0000
0000
0000
0000
0000
1000
0000
0000
0000
0100
0000
0000
0000
0010
0000
0000
0000
0001
0000
0000
0000
0010
0000
0000
0000
0100
0000
0000
0000
,
2000
0000
0000
0000
0000
0000
3010
0000
0000
0100
0000
0000
0001
0000
0010
0000
0001
0000
1000
0000
0100
0000
1000
0000
,
0002
0000
0000
0013
0001
1000
0010
0100
0001
0010
0100
1000
,
0010
0100
0001
1000
0010
0100
0001
1000
0010
0100
0001
1000
,
0010
0010
0100
0100
0001
0001
1000
1000
,
0001
0010
0001
0010
0100
0001
0100
0001
0100
1000
0100
1000
0010
1000
0010
1000
,
0002
0000
0000
0100
0000
0000
1003
0010
0001
1000
0100
0001
,
1000
0000
0000
0000
1100
0000
0000
0000
0011
0000
0001
0100
0000
0001
0010
0000
,
0100
0000
0000
0000
0110
0000
0000
0000
1001
0000
1000
0010
0000
0100
0001
0000
,
0020
0031
2000
3010
0200
1300
0002
0103
,
0001
0010
0100
1000
0100
0010
0001
0000
1000
0001
0100
0010
1000
0100
0010
0001
,
0100
0000
0000
0000
0010
0000
0000
0000
1000
0000
0000
0000
0001
0000
0000
0000
0000
0000
0000
0000
0000
0000
0000
0000
0110
0000
0000
0000
0000
0000
0001
0000
0000
0100
0000
0000
0000
0000
0000
1000
0000
0000
0010
0000
0000
0000
0000
0000
,
1000
0000
0000
0000
0100
0000
0000
0000
0010
0000
0000
0000
0001
0000
0000
0000
0000
0000
1000
0000
0000
0000
0000
0000
0101
0000
0000
0000
0000
0000
0100
0000
0000
1000
0000
0000
0000
0000
0000
0010
0000
0000
0001
0000
0000
0000
0000
0000
,
1000
0000
0000
0000
1100
0000
0000
0000
0101
0000
0001
0000
0100
0010
0000
0000
,
1000
0000
0000
0100
0000
0000
0010
0000
0000
0100
0000
0000
1000
0000
0000
0000
0000
0000
1000
0000
0000
0000
0000
0000
1000
0000
0000
0000
0001
0000
0000
0000
0010
0000
0000
0000
0001
0000
0000
0000
0100
0000
0000
0000
0001
0000
0000
0000
,
1000
0000
0010
0000
0100
0000
1000
0000
0100
0000
0001
0010
0000
0010
0100
0000
,
0001
0000
0100
0000
0010
0000
0100
0000
1000
0000
0010
1000
0000
1000
0001
0000
,
0200
0000
0000
0000
0000
0000
0320
0000
0000
0000
0000
0000
2030
0000
0000
0000
0000
0000
3002
0000
0000
0000
0000
0000
1003
0000
0000
0000
0010
0000
0000
0000
0001
0000
0000
0000
1000
0000
0000
0100
0000
0000
0010
0000
0000
0001
0000
0000
,
1000
0100
0010
0001
0010
0100
1000
0100
0010
0001
0010
0100
1000
0001
1000
0000
,
2010
0010
3001
0000
0012
0010
1003
0000
,
0201
0001
0310
0000
1200
1000
0310
0000
,
0110
0000
0010
0000
1001
0000
0010
0000
0100
0000
0001
1000
0000
0001
0100
0000
,
0010
0000
1000
0000
0001
0000
0010
0000
0100
0000
1000
0000
0001
0000
0000
0100
0010
0000
0000
0100
0010
0000
0000
0000
,
1000
0001
0000
0010
0000
0001
0100
0010
1000
0100
0000
0010
0000
0001
1000
0100
,
1000
0001
0000
0010
0000
0001
1000
0100
1000
0010
0001
0010
1000
0100
0001
0100
,
1000
0010
0000
0100
0000
0001
0010
0001
1000
0100
0000
0010
0000
0001
1000
0100
,
0010
0000
0000
0100
0000
0000
1000
0000
0000
0001
0000
0000
0000
0000
0000
0001
0000
0000
0100
0000
0000
0000
0000
0000
0010
0000
0000
0000
1000
0000
0000
0000
0001
0000
0000
0000
1000
0000
0000
0000
0010
0000
0000
0000
0100
0000
0000
0000
,
0001
0010
0001
0010
0001
0010
0001
0010
0001
0010
0001
0010
0001
0010
0001
0010
,
0100
1000
0100
1000
0100
1000
0100
1000
0100
1000
0100
1000
0100
1000
0100
1000
,
0001
0010
0001
0010
0001
0010
0001
0010
0100
1000
0100
1000
0100
1000
0100
1000
,
0001
0010
0001
0010
0100
1000
0100
1000
0001
0010
0100
1000
0001
0010
0100
1000
,
0020
0000
0000
0000
,
0000
0200
0000
0000
0000
0000
0000
0000
0000
0000
0000
0000
0000
0000
0000
0000
0000
0000
0000
0000
0000
0000
0000
0000
0000
0000
0000
0000
0000
0000
0000
0330
;

//---------------dance-single - ----------------
#NOTES:
     dance-single:
     :
     Hard:
     14:
     0.738473,0.843458,0.439223,0.456116,0.743300,612.000000,560.000000,52.000000,54.000000,0.000000,0.000000,0.738473,0.843458,0.439223,0.456116,0.743300,612.000000,560.000000,52.000000,54.000000,0.000000,0.000000:
0000
0000
0000
0000
,
0000
0000
0000
0000
,
1000
0000
0000
0010
0000
0000
0100
0001
0000
0100
0001
0000
1000
0010
1000
0010
,
1000
0000
0001
0000
1000
0100
0000
0000
0010
0001
0010
0000
0001
0100
0001
0100
,
0001
0000
0010
0000
0100
1000
0000
1000
0010
0000
0100
0000
0001
0000
1000
0000
,
0010
0100
0000
0001
0000
1000
0100
0000
0010
0000
0000
0110
0000
0000
1001
0000
,
0000
1000
0010
0000
1000
0100
0000
0010
0001
0000
0100
0000
0001
0000
1000
0010
,
1000
0000
0000
0000
0001
0000
0000
0000
1000
0000
0000
0000
0001
0000
0000
0000
1000
0000
0000
0000
0001
0000
0000
0000
1000
0000
0000
0000
0000
0000
0010
0000
0000
0100
0000
0000
0000
0000
0000
0010
0000
0000
0100
0000
0000
0000
0000
0000
,
0002
0203
0310
2000
3002
0013
0200
2300
,
3010
0100
1000
0100
0001
0010
0100
1000
,
0020
0000
2030
0000
3001
0000
0020
0000
0230
0000
1300
0000
0001
0100
0001
0100
,
0001
0000
0010
0100
0000
0010
0100
0000
1000
0000
0001
0000
2100
0000
0000
0000
,
3010
0000
0000
1010
0000
0000
0101
0000
0000
1010
0000
0000
0101
0000
0000
0000
,
0011
0000
0000
0110
0000
0000
1100
0000
0000
0110
0000
0000
0011
0000
1000
0001
,
1000
0010
0100
0001
0001
0100
0010
1000
,
0001
0000
1000
0010
0000
1000
0010
0000
0100
0000
0100
0000
0001
1000
0001
1000
,
0001
0000
0000
1001
0000
1000
0100
1000
0100
0000
0010
0000
0001
0000
1000
0001
,
1000
0000
0010
0100
0010
0000
1000
0001
1000
0000
0100
0010
0001
1000
0001
1000
,
0200
0320
0031
0200
0320
1030
0210
0000
,
0301
0010
0001
0000
1000
0010
1000
0000
0100
0000
0010
1000
0010
0100
0010
0001
,
0010
0000
0000
1100
0000
0000
0001
1000
0010
0000
0100
0000
0001
0000
0010
0001
,
0010
0000
0100
1000
0100
0000
1000
0001
1000
0000
0010
0100
0001
1000
0001
1000
,
0200
0000
0310
0001
0000
1000
0001
0000
0011
0000
0000
0000
2100
0000
0000
3001
,
1000
0000
0000
0100
0000
0000
1000
0000
0000
0000
0000
0000
0001
0000
0000
0100
0000
0000
0001
0000
0000
0000
0000
0000
0010
0000
0000
0000
0000
0000
0100
0000
0000
0000
0000
0000
2002
0000
0000
0000
0000
0000
0000
0000
0003
0000
0000
0000
,
3001
1000
0001
1000
0001
1000
0020
0000
0000
0030
0000
0000
,
0200
0300
1010
1010
,
2000
0000
0000
3020
0000
0000
0130
0000
0002
0000
0000
2003
0000
0000
3100
0000
,
0020
0000
0000
0032
0000
0000
1003
0000
0010
0000
0100
1000
0100
0010
0100
0001
,
0100
0000
0010
1000
0100
1000
0002
0000
0000
2003
0000
0000
,
3010
0100
0010
0100
0010
0100
0000
0010
0100
0010
0100
0010
,
2000
0001
3002
0000
0013
2000
3200
0000
,
0310
0000
0000
0002
0000
0000
0203
0000
0000
0000
0000
0000
0301
0000
0000
1000
0000
0000
0010
0000
0100
0000
0010
0000
,
0100
0000
0000
0000
0001
0000
0000
0000
1000
0000
0000
0010
0000
0000
0100
0000
,
0001
0000
0000
0000
1000
0000
0000
0000
0010
0000
0000
0200
0000
0000
0000
0302
,
0000
0000
0000
2003
0000
0000
0000
3002
0000
0000
0000
0000
0000
0000
0000
0000
,
0013
0001
0100
1000
,
0001
1000
0001
1000
0001
1000
0001
1000
,
0010
0100
0010
0100
0010
0100
0010
0100
,
0001
1000
0001
1000
0010
0100
0010
0100
,
0001
0000
0000
1000
0000
0000
0010
0000
0000
0100
0000
0000
0110
0000
0000
0000
0110
0000
0000
0000
0110
0000
0000
0000
,
2002
0000
0000
0000
0000
0000
0003
0000
0000
0001
0000
0000
3001
0000
1000
0000
0010
0000
1000
0000
0010
0000
0100
0000
,
0001
0000
0000
0000
0000
0000
0000
0000
0000
0001
0000
0000
0000
0000
0000
0000
0000
0000
0001
0000
0000
0000
0000
0000
1000
0000
0000
0000
0010
0000
0000
0000
1000
0000
0000
0000
0100
0000
0000
0000
0010
0000
0000
0000
0100
0000
0000
0000
,
2000
0000
0000
3020
0000
0000
1030
0001
1000
0001
0010
0100
,
1000
0000
0000
0010
1000
0001
0100
0000
0000
0001
0010
0100
,
1000
1100
0101
1100
,
0001
0010
0100
1000
0001
0100
0010
1000
,
0100
0010
0001
1000
0010
0100
0001
1000
,
2010
0000
0000
0001
0000
0000
3010
0001
0100
0010
1000
0100
,
0010
0000
0000
0000
0011
0000
0000
0000
0011
0000
0000
0001
1000
0000
0010
0000
,
0100
0000
0000
0000
0101
0000
0000
0000
0101
0000
0000
0001
0010
0000
1000
0000
,
0100
0001
0100
1000
0010
1000
0010
0001
,
0010
0000
0000
1000
0000
0000
0100
0000
0000
0010
0000
0000
0001
0000
1000
0000
0001
0000
1000
0000
0001
0000
1000
0000
,
0001
0000
0000
0000
1100
0000
0000
0000
1100
0000
0000
1000
0010
0000
0100
0000
,
0001
0000
0000
0011
0000
0000
1000
0001
0100
0001
1000
0100
,
0010
0000
0000
0000
0110
0000
0000
0000
1001
0000
0000
0000
0100
0010
0000
0000
,
1000
0000
0000
0100
0000
0000
1000
0000
0000
0100
0000
0000
1000
0000
0000
0000
0000
0000
0001
0000
0000
0000
0000
0000
0010
0000
0000
0000
0001
0000
0000
0000
0100
0000
0000
0000
0010
0000
0000
0000
1000
0000
0000
0000
0100
0000
0000
0000
,
0010
0000
0100
0000
1100
0000
0000
0000
0011
0000
0000
0001
1000
0000
0010
0000
,
0100
0000
0000
0000
0101
0000
0000
0000
1010
0000
0000
1000
0001
0000
0010
0000
,
0100
0000
0001
0000
0100
0000
1000
0000
0010
0100
0010
0000
1000
0001
1000
0001
,
1000
0010
0100
0001
0010
0100
1000
0001
,
0200
0310
2010
3010
,
1002
0013
0201
0310
,
1010
0000
0000
0000
1010
0000
0000
0000
0001
0000
1000
0010
0000
1000
0010
0000
,
0100
0000
0000
0100
0000
0000
0002
0000
2003
0000
3002
0000
,
0013
0000
0000
0011
0000
0000
1000
0000
0001
0000
0000
0101
0000
0000
0100
0000
,
0001
0000
0000
1001
0000
0000
1000
0000
0100
0000
0000
1100
0000
0000
0010
0000
,
1000
0000
0000
1010
0000
0000
0100
0000
0001
0000
0000
0110
0000
0000
0010
0000
,
1000
0000
0000
0000
0000
0000
0001
0000
0000
0100
0000
0000
0000
0000
0000
0001
0000
0000
0100
0000
0000
0000
0000
0000
0010
0000
0000
0000
1000
0000
0000
0000
0010
0000
0000
0000
1000
0000
0000
0000
0001
0000
0000
0000
0100
0000
0000
0000
,
0010
0000
1000
0100
0000
0000
0010
0001
0000
0000
0100
0010
0000
0000
1000
0001
,
0100
0000
1000
0010
0000
0000
0100
0001
0000
0000
1000
0001
0000
0000
0100
0010
,
1000
0000
0001
0100
0001
0000
1000
0100
1000
0000
0001
0010
0001
0000
1000
0010
,
1000
0000
0001
1000
0001
0000
0100
0010
1000
0100
0010
0001
1000
0010
0100
0001
,
0020
0000
0000
0000
,
0000
0200
0000
0000
0000
0000
0000
0000
0000
0000
0000
0000
0000
0000
0000
0000
0000
0000
0000
0000
0000
0000
0000
0000
0000
0000
0000
0000
0000
0000
0000
0330
;

//---------------dance-single - ----------------
#NOTES:
     dance-single:
     :
     Medium:
     12:
     0.561095,0.593544,0.304077,0.253398,0.304077,465.000000,429.000000,36.000000,30.000000,0.000000,0.000000,0.561095,0.593544,0.304077,0.253398,0.304077,465.000000,429.000000,36.000000,30.000000,0.000000,0.000000:
0000
0000
0000
0000
,
0000
0000
0000
0000
,
1000
0001
0000
0000
0000
0000
0000
0000
0000
0000
1010
0000
0000
0000
0010
0100
,
0010
0000
1000
0000
0100
0000
0000
0000
1000
0001
1000
0000
0001
1000
0001
0000
,
0100
0010
1000
0001
0010
1000
0010
0100
,
1000
0010
0001
0010
1000
0001
1000
0100
,
0010
0001
0101
0000
0010
1000
1100
0000
,
0001
0000
0001
1000
0000
1000
0100
0000
0000
1001
0000
0000
,
0010
1000
0001
0010
1000
0100
0010
1000
,
0001
0010
1000
0100
0010
1000
0001
0100
,
0010
1000
0100
0010
1000
0001
0010
1000
,
0001
0000
0000
1000
0000
0000
0010
0000
0100
0000
0000
0000
1020
0000
0000
0000
,
0130
0000
0000
0100
0000
0000
0100
0000
0000
0100
0000
0000
0100
0000
0000
0000
,
0010
0000
0000
0010
0000
0000
0010
0000
0000
0010
0000
0000
0010
0000
0000
0000
,
1000
0001
0000
0000
1000
0001
0000
0000
1000
0001
0000
0000
1000
0001
0000
0000
,
0200
0000
0000
0000
0301
0000
1000
0000
0001
0000
0100
0000
0010
1000
0010
1000
,
0010
0000
0000
0100
0000
0000
0001
1000
0001
0000
0100
0000
0020
0000
0000
0000
,
1030
0000
0100
0000
1000
0000
0100
0000
0010
0000
0001
0100
0001
0000
1000
0000
,
0010
0000
1100
1000
0000
0101
0002
0000
,
0013
0000
0100
0000
0010
0000
0100
0000
1000
0000
0001
0100
0001
0000
1000
0000
,
0100
0000
0000
0010
0000
0000
0001
0100
0001
0000
1000
0000
0020
0000
0000
0000
,
1030
0000
0001
0000
1000
0000
0001
0000
0100
0000
0010
1000
0010
0000
0100
0000
,
0002
0000
0000
1000
0000
1003
0000
0000
0010
0000
0000
0000
0102
0000
0000
0000
,
1003
0100
0010
0001
0010
0100
2000
0000
,
3010
0100
0000
0010
0100
0000
0002
0000
0000
0003
0000
0000
,
2000
3000
0020
0230
,
0301
0000
0000
0001
0000
0000
0001
0000
1000
0000
0000
1000
0000
0000
1000
0000
,
0001
0000
0000
1000
0000
0000
0001
0000
1000
0000
0010
0100
0010
0000
0100
0000
,
0001
1000
0000
0001
1000
0000
0200
0000
0000
0320
0000
0000
,
0130
1000
0000
0001
0000
0100
0000
0010
0000
1000
0000
0100
,
0020
0000
0032
0000
2003
0010
3020
0000
,
0130
0001
1000
0001
0010
0100
1000
0000
,
1001
0010
0010
0010
,
0100
0100
0100
0100
,
0001
0001
0001
0001
,
1000
1000
1000
1000
,
1010
0000
0001
0100
1000
0000
0010
0100
,
0001
0000
0010
0100
1000
0000
0001
1000
,
0010
0000
1000
0001
1000
0000
0010
0100
,
0010
0000
0000
0000
0000
0000
0000
0000
0000
0000
0000
0000
0000
0000
0000
0000
0000
0000
0000
0000
0000
1000
0000
0000
0001
0000
0000
0000
0000
0000
0000
0000
0001
0000
0000
0000
0000
0000
0000
0000
0001
0000
0000
0000
0000
0000
0000
0000
,
0022
0000
0000
0000
0000
0000
0030
0000
0000
0100
0000
0000
0103
0000
0000
0000
0010
0000
0001
0000
0000
0000
1000
0000
,
0010
0000
0000
0000
0000
0000
0000
0000
0000
0010
0000
0000
0000
0000
0000
0000
0000
0000
0010
0000
0000
0000
0000
0000
1000
0000
0000
0000
0000
0000
0000
0000
0001
0000
0000
0000
1000
0000
0000
0000
0000
0000
0000
0000
0100
0000
0000
0000
,
2000
0000
0000
0000
0000
0000
3001
0000
0100
0010
0000
1000
,
0200
0000
0000
1300
0000
1000
0001
0000
0001
0100
0000
0100
,
0010
1010
0101
1010
,
0001
1000
0100
0000
1000
0001
0100
0000
,
0001
0010
0100
1000
0001
0010
0100
1000
,
0010
0100
0101
1100
,
1001
0000
0000
0000
1001
0000
0000
0000
0010
0000
0000
0100
0000
0000
0001
0000
,
0011
0000
0000
0000
0011
0000
0000
0000
1000
0000
0000
0001
0000
0000
0100
0000
,
0010
1000
0010
0000
1000
0001
0100
0000
,
0001
0010
1000
0010
0001
0100
1000
0100
,
0001
0000
0000
0000
0001
0000
0000
0000
1000
0000
0000
0100
0000
0000
0010
0000
,
0001
0000
0000
0000
0001
0000
0000
0000
0100
0000
0000
0010
0000
0000
1000
0000
,
0100
0010
0100
0010
0001
0100
1000
0000
,
0010
0000
0000
0100
0000
0000
0001
0000
0000
0000
0000
0000
1000
0000
0001
0000
1000
0000
0001
0000
0000
0000
0000
0000
,
1010
0000
0000
0000
1010
0000
0000
0000
0100
0000
0000
1000
0000
0000
0001
0000
,
0101
0000
0000
0000
0101
0000
0000
0000
0010
0000
0000
1000
0000
0000
0100
0000
,
1000
0010
0100
1000
0100
0001
0010
0000
,
1000
0000
0000
0000
0000
0000
0000
0000
1000
0000
0000
0000
0100
0000
0000
0000
0000
0000
0000
0000
0100
0000
0000
0000
0001
0000
0000
0000
0000
0000
0000
0000
0000
0001
0000
0000
0000
0000
0000
0000
0000
0000
0001
0000
0000
0000
0000
0000
,
0022
0030
0200
0303
,
2200
0300
0002
3003
,
1100
0000
0000
0000
1100
0000
0000
0000
0010
0000
0000
1000
0000
0000
0001
0000
,
0110
0000
0000
0000
0110
0000
0000
0000
0100
0000
0000
0001
0000
0000
0010
0000
,
1000
0000
0000
1100
0000
0000
0000
0000
0001
0000
0000
0011
0000
0000
0000
0000
,
0100
0000
0000
0101
0000
0000
0000
0000
0010
0000
1000
0000
0001
0000
0100
0000
,
0010
0000
0000
1010
0000
0000
0000
0000
1000
0000
0000
1001
0000
0000
0000
0000
,
0100
0000
0000
0110
0000
0000
0000
0000
0001
0000
0010
0000
0100
0000
1000
0000
,
0010
0100
0010
0100
0010
0100
0010
0100
,
0001
1000
0001
1000
0001
1000
0001
1000
,
0010
0100
0010
0100
0001
1000
0001
1000
,
0010
0100
0001
1000
0010
0100
0001
1000
,
0020
0000
0000
0000
,
0000
0200
0000
0000
0000
0000
0000
0000
0000
0000
0000
0000
0000
0000
0000
0000
0000
0000
0000
0000
0000
0000
0000
0000
0000
0000
0000
0000
0000
0000
0000
0330
;

//---------------dance-single - ----------------
#NOTES:
     dance-single:
     :
     Easy:
     7:
     0.340277,0.437349,0.219611,0.202718,0.008447,282.000000,256.000000,26.000000,24.000000,0.000000,0.000000,0.340277,0.437349,0.219611,0.202718,0.008447,282.000000,256.000000,26.000000,24.000000,0.000000,0.000000:
0000
0000
0000
0000
,
0000
0000
0000
0000
,
1000
0010
0001
0100
,
0010
1000
0100
0001
,
0010
1000
0100
0010
,
0001
0100
0001
0010
,
1000
0001
1000
0010
,
0100
0100
0100
0000
,
0001
0010
1000
0010
,
0001
0010
1000
0010
,
0001
0100
1000
0100
,
0001
0100
1000
0100
,
0010
0010
0010
0010
,
0100
0100
0100
0100
,
1000
0001
1000
0001
,
0010
0001
0100
1000
,
1001
0001
1000
0210
,
0010
1000
0010
0301
,
0100
0000
0000
0100
0000
0000
0100
0000
,
1000
0001
0010
0001
,
1001
0010
1000
0120
,
0100
0001
0100
1030
,
0001
0101
1000
1100
,
0010
0100
0001
1000
,
0001
0100
0020
0030
,
2000
3000
0001
0001
,
0010
0011
1000
1010
,
0100
1100
0001
0101
,
1000
0100
0001
0001
,
0010
1001
0100
0110
,
0002
0003
1000
0100
,
1000
0010
0100
0001
,
0020
0000
0000
0030
,
0002
0000
0000
0003
,
0200
0000
0000
0300
,
0020
0030
2000
3000
,
0001
0001
0001
0001
,
1000
1000
1000
1000
,
0010
0010
0100
0100
,
0001
1000
1001
0110
,
2200
0300
0001
3100
,
0010
0010
0001
1000
,
0202
0300
1000
0103
,
0011
1000
0001
1000
,
1010
1000
0100
0001
,
0010
0100
0010
0001
,
0100
0010
0100
0001
,
2000
0000
0002
3003
,
0010
1000
0100
0010
,
0001
0100
0001
0010
,
1000
0100
0010
0100
,
1000
0001
0100
0010
,
1000
0001
0010
0100
,
0010
0001
0100
0010
,
0100
0001
0010
1000
,
0200
0000
0010
0310
,
0001
0100
1000
0010
,
1000
0001
0010
0001
,
0100
0010
1000
0100
,
0001
1000
0100
0010
,
0002
0003
2000
3000
,
0020
0030
0200
0300
,
0001
0010
1000
0100
,
1000
1000
0002
0003
,
0011
0010
1100
0100
,
0011
0010
1001
0100
,
1010
0100
0101
0010
,
1010
0001
0110
1000
,
0001
0010
1000
0100
,
0010
1000
0001
0100
,
1000
0010
0100
0001
,
0100
1000
0010
0001
,
0020
0000
0000
0000
,
0000
0200
0000
0000
0000
0000
0000
0000
0000
0000
0000
0000
0000
0000
0000
0000
0000
0000
0000
0000
0000
0000
0000
0000
0000
0000
0000
0000
0000
0000
0000
0330
;

//---------------dance-single - ----------------
#NOTES:
     dance-single:
     :
     Beginner:
     5:
     0.203925,0.281153,0.135145,0.016893,0.008447,169.000000,153.000000,16.000000,2.000000,0.000000,0.000000,0.203925,0.281153,0.135145,0.016893,0.008447,169.000000,153.000000,16.000000,2.000000,0.000000,0.000000:
// measure 0
0000
0000
0000
0000
,  // measure 1
0000
0000
0000
0000
,  // measure 2
1000
0000
0000
0000
,  // measure 3
0001
0000
0010
0000
,  // measure 4
0001
0000
1000
0000
,  // measure 5
0010
0000
0100
0000
,  // measure 6
0010
0000
0100
0000
,  // measure 7
0001
0001
0001
0000
,  // measure 8
1000
0000
0001
0000
,  // measure 9
1000
0000
0010
0000
,  // measure 10
0100
0000
0001
0000
,  // measure 11
0010
0000
0100
0000
,  // measure 12
1000
1000
1000
0000
,  // measure 13
0001
0001
0001
0000
,  // measure 14
0100
0000
0010
0000
,  // measure 15
0110
0000
0000
0000
,  // measure 16
1001
0000
0000
1000
,  // measure 17
1000
1000
1000
0000
,  // measure 18
0010
0000
1000
0000
,  // measure 19
0100
0000
0010
0000
,  // measure 20
1001
0000
0000
0001
,  // measure 21
0001
0001
0001
0000
,  // measure 22
0110
0000
0000
0100
,  // measure 23
0000
0000
0010
0010
,  // measure 24
0010
0000
1000
0000
,  // measure 25
1000
0000
0100
0100
,  // measure 26
0100
0000
0001
0000
,  // measure 27
1000
0000
0001
0000
,  // measure 28
0010
0010
0010
0000
,  // measure 29
0001
0001
0000
0100
,  // measure 30
0100
0000
0010
0000
,  // measure 31
1000
0000
0100
0000
,  // measure 32
0010
0000
0000
0000
,  // measure 33
0001
0000
0000
0000
,  // measure 34
0100
0000
0000
0000
,  // measure 35
1000
0000
0000
0000
,  // measure 36
0100
0000
1000
0000
,  // measure 37
0001
0000
1000
0000
,  // measure 38
0010
0000
0100
0000
,  // measure 39
0001
0000
0010
0000
,  // measure 40
1001
0000
0000
0000
,  // measure 41
1000
1000
1000
0000
,  // measure 42
0110
0000
0000
0000
,  // measure 43
0001
0000
0100
0000
,  // measure 44
1000
1000
1000
0000
,  // measure 45
0001
0001
0001
0000
,  // measure 46
0100
0100
0100
0000
,  // measure 47
0110
0000
1001
0000
,  // measure 48
0010
0010
0010
0000
,  // measure 49
0001
0001
0001
0000
,  // measure 50
1000
0000
0001
0000
,  // measure 51
1000
0000
0100
0000
,  // measure 52
0010
0010
0010
0000
,  // measure 53
0100
0100
0100
0000
,  // measure 54
1000
0000
0001
0000
,  // measure 55
0100
0000
0010
0000
,  // measure 56
1000
1000
1000
0000
,  // measure 57
0001
0001
0001
0000
,  // measure 58
0010
0000
0001
0000
,  // measure 59
0100
0000
0010
0000
,  // measure 60
1001
0000
0000
0000
,  // measure 61
0110
0000
0000
0000
,  // measure 62
1000
1000
1000
0000
,  // measure 63
0100
0000
0110
0000
,  // measure 64
1001
0000
1001
0000
,  // measure 65
1001
0000
0010
0010
,  // measure 66
0010
0000
0110
0000
,  // measure 67
0110
0000
0001
0000
,  // measure 68
0001
0001
0000
1000
,  // measure 69
0000
0001
0000
0100
,  // measure 70
0000
0010
0000
1000
,  // measure 71
0000
0100
0000
0010
,  // measure 72
0020
0000
0030
0000
,  // measure 73
0000
0200
0000
0000
0000
0000
0000
0000
0000
0000
0000
0000
0000
0000
0000
0000
0000
0000
0000
0000
0000
0000
0000
0000
0000
0000
0000
0000
0000
0000
0000
0300
;
