#TITLE:GHOST KINGDOM;
#SUBTITLE:;
#ARTIST:BEMANI Sound Team "劇団レコード";
#TITLETRANSLIT:;
#SUBTITLETRANSLIT:;
#ARTISTTRANSLIT:BEMANI Sound Team "Gekidan Record";
#GENRE:;
#CREDIT:;
#BANNER:GHOST KINGDOM.png;
#BACKGROUND:GHOST KINGDOM-bg.png;
#LYRICSPATH:;
#CDTITLE:;
#MUSIC:GHOST KINGDOM.ogg;
#OFFSET:0.000000;
#SAMPLESTART:77.290009;
#SAMPLELENGTH:20.000000;
#SELECTABLE:YES;
#BPMS:0.000000=118.000000
;
#STOPS:
;
#BGCHANGES:;
#KEYSOUNDS:;
#ATTACKS:;

//---------------dance-single - ----------------
#NOTES:
     dance-single:
     :
     Beginner:
     2:
     0.126159,0.159324,0.027313,0.091042,0.000000,97.000000,94.000000,3.000000,10.000000,0.000000,0.000000,0.126159,0.159324,0.027313,0.091042,0.000000,97.000000,94.000000,3.000000,10.000000,0.000000,0.000000:
0000
0000
0000
0000
,
0000
0000
0000
0000
,
0000
0000
0000
0000
,
0000
0000
0000
0000
,
0000
0000
0000
0000
,
0001
0000
0001
0000
,
1000
0000
1000
0000
,
0010
0000
0100
0000
,
0020
0000
0030
0000
,
0001
0000
1000
0000
,
0001
0001
0001
0000
,
1000
0000
0001
0000
,
1000
1000
1000
0000
,
0001
0000
1000
0000
,
0010
0010
0010
0000
,
1000
0000
0001
0000
,
0100
0100
0100
0000
,
0001
0000
0001
0000
,
0010
0000
0010
0000
,
1000
0000
1000
0000
,
0100
0000
0100
0000
,
0002
0000
0003
0000
,
2000
0000
3000
0000
,
0010
0000
0001
0000
,
0010
0000
1000
0000
,
0020
0000
0030
0000
,
0200
0000
0300
0000
,
0001
0000
1000
0000
,
1001
0000
0000
0000
,
0001
0001
0001
0000
,
0020
0000
0030
0000
,
1000
1000
1000
0000
,
0020
0000
0030
0000
,
0010
0000
0001
0000
,
0100
0100
0100
0000
,
0010
0000
1000
0000
,
0100
0100
0100
0000
,
0001
0000
1000
0000
,
0010
0010
0010
0000
,
0100
0100
0100
0000
,
0001
0000
1000
0000
,
0001
1000
0001
0000
,
0010
0010
0010
0000
,
0100
0100
0100
0000
,
1000
0000
0001
0000
,
2002
0000
3003
0000
,
0001
0000
0001
0000
,
1000
0000
1000
0000
,
0010
0000
0100
0000
,
0020
0000
0030
0000
,
1001
0000
0000
0000
,
0000
0000
0000
0000
;

//---------------dance-single - ----------------
#NOTES:
     dance-single:
     :
     Easy:
     6:
     0.240612,0.313641,0.163876,0.245814,0.000000,185.000000,167.000000,18.000000,27.000000,0.000000,0.000000,0.240612,0.313641,0.163876,0.245814,0.000000,185.000000,167.000000,18.000000,27.000000,0.000000,0.000000:
0000
0000
0000
0000
,
0000
0000
0000
0000
,
0000
0000
0000
0000
,
0000
0000
0000
0000
,
0000
0000
0000
0000
,
0010
0010
0001
0001
,
0100
0000
0010
0100
0010
0000
0100
0000
,
0010
0010
1000
1000
,
0200
0000
0300
1001
,
0001
0000
1000
0000
0001
0100
0001
0000
,
1000
0001
1000
0010
,
1000
0000
0001
0000
1000
0100
1000
0000
,
0001
1000
0100
1001
,
0010
0000
0100
0000
0010
0100
0010
0000
,
1000
0100
0010
0001
,
0100
0000
0010
0000
0100
0010
0100
0000
,
0001
1000
0100
1001
,
0001
0100
0001
0010
,
0001
0001
1001
0000
,
1000
0100
1000
0010
,
1000
1000
1001
0000
,
0220
0330
2002
3003
,
0220
0330
2002
3003
,
0010
0010
0100
0100
,
0001
1000
2002
3003
,
0010
0010
2002
3003
,
0100
0100
2002
3003
,
0001
0100
1000
0010
,
0001
0000
2002
3003
,
0001
0010
0001
0100
,
0002
0000
1003
0000
,
1000
0010
1000
0100
,
2000
0000
3001
0000
,
1000
0100
0010
0001
,
1000
1000
0100
0000
,
0001
0100
0010
1000
,
0001
1000
0001
0000
,
0010
0010
0110
1001
,
1000
0100
0010
0001
,
0100
0010
0100
0000
2002
0000
3003
0000
,
0001
0001
1000
1000
,
0010
0100
0010
0100
0010
0000
0100
0000
,
0001
0100
0010
1000
,
0100
0010
0100
0000
2002
0000
3003
0000
,
0010
0000
0010
0000
0001
1000
0001
1000
,
0002
0000
0000
0003
,
0100
0100
0001
0001
,
0010
0000
0100
0010
0100
0000
0010
0000
,
0100
0100
1000
1000
,
0020
0000
0000
0130
,
2002
0000
0000
0000
,
0000
0000
0000
0000
,
0000
0000
0000
0000
,
3003
0000
0000
0000
,
0000
0000
0000
0000
;

//---------------dance-single - ----------------
#NOTES:
     dance-single:
     :
     Medium:
     10:
     0.386280,0.434272,0.400586,0.182085,0.000000,297.000000,253.000000,44.000000,20.000000,0.000000,0.000000,0.386280,0.434272,0.400586,0.182085,0.000000,297.000000,253.000000,44.000000,20.000000,0.000000,0.000000:
0000
0000
0000
0000
,
0000
0000
0000
0000
,
0000
0000
0000
0000
,
0000
0000
0000
0000
,
0000
0000
0000
0000
,
1010
1010
0011
0011
,
1001
0000
0001
1000
0001
0000
1001
0000
,
0011
0011
1010
1010
,
0220
0000
0330
1001
,
0010
0010
0001
1000
0010
0010
0010
0000
,
0001
0100
1000
0100
0001
0000
1001
0000
,
0010
0010
1000
0001
0010
0010
0010
0000
,
1000
0100
1000
0010
0100
0000
1001
0000
,
0010
1000
0010
0001
0010
0010
0010
0000
,
0010
1000
0100
1000
0010
0000
1001
0000
,
0010
0001
0010
1000
0010
0010
0010
0000
,
0010
0001
0100
0100
0010
0000
1001
0000
,
0100
0010
1000
0001
0010
0100
1000
0010
,
0100
0001
0010
0100
1100
0000
0101
0000
,
0001
0010
0001
1000
0010
0100
0001
0010
,
0100
1000
0010
0100
0101
0000
1100
0000
,
1000
0010
0100
0001
0110
0000
1001
0000
,
0001
0010
0100
1000
0010
0100
0020
0000
,
0130
0100
0001
1000
0100
0010
0100
0100
,
0010
0001
0100
0010
2000
0000
0000
0000
,
3001
0010
0100
1000
0110
0000
1001
0000
,
1000
0010
0100
0001
0010
0100
0020
0000
,
0130
0100
1000
0001
0100
0010
0100
0100
,
0010
0000
2002
3003
,
0010
0100
0010
0100
0001
1000
0001
1000
,
0002
0000
1003
0000
,
0100
0010
0100
0010
1000
0001
1000
0001
,
2000
0000
3001
0000
,
0020
0000
0031
0100
1000
0000
1000
0000
,
0100
0010
0100
0001
2000
0000
3000
0000
,
0020
0000
1030
0100
0001
0000
0001
0000
,
0100
0010
0100
1000
0002
0000
0003
0000
,
0110
1001
0110
1001
,
1000
0100
0010
0010
0001
0100
0010
0010
,
1000
0100
0001
0100
2000
0000
3000
0000
,
0001
0010
0001
0100
0010
1000
0010
0100
,
0010
1000
0100
0010
0011
0000
1010
0000
,
0001
0100
0010
0010
1000
0100
0010
0010
,
0001
0100
1000
0100
0002
0000
0003
0000
,
1000
0010
0010
0001
0100
0100
1000
0010
,
0200
0000
0000
0300
,
0101
0101
1100
1100
,
1001
0000
0010
0100
0010
0000
1001
0000
,
1100
1100
0101
0101
,
0220
0000
0330
1001
,
0220
0000
0000
0000
,
0000
0000
0000
0000
,
0000
0000
0000
0000
,
0330
0000
0000
0000
,
0000
0000
0000
0000
;

//---------------dance-single - ----------------
#NOTES:
     dance-single:
     :
     Hard:
     14:
     0.511138,0.603155,0.336857,0.154772,0.427899,393.000000,356.000000,37.000000,17.000000,0.000000,0.000000,0.511138,0.603155,0.336857,0.154772,0.427899,393.000000,356.000000,37.000000,17.000000,0.000000,0.000000:
0000
0000
0000
0000
,
0000
0000
0000
0000
,
0000
0000
0000
0000
,
0000
0000
0000
0000
,
0000
0000
0000
0000
,
1010
0011
0101
1100
,
1001
0000
0010
0100
0010
0000
1001
0000
,
0011
1010
1100
0101
,
0010
0100
0010
0100
0010
0000
1001
0000
,
1000
0000
0000
0010
0000
0000
1000
0000
0010
1000
0000
0000
0001
0000
0010
0001
0000
0010
0001
0000
0000
0000
0000
0000
,
1000
0000
0100
1000
0000
0100
1000
0000
0100
1000
0000
0000
0020
0000
0000
0000
0000
0000
0130
0000
0000
0000
0000
0000
,
0001
0000
0000
0010
0000
0000
0001
0000
0010
0001
0000
0000
1000
0000
0010
1000
0000
0010
1000
0000
0000
0000
0000
0000
,
0100
0000
0000
0010
0000
0001
0010
0000
0100
0010
0000
0000
0001
0000
0000
0000
0000
0000
1001
0000
0000
0000
0000
0000
,
0010
0000
0000
1000
0000
0000
0010
0000
1000
0001
0000
0000
0010
0000
0001
0010
0000
0001
0010
0000
0000
0000
0000
0000
,
0100
0000
0010
0100
0000
1000
0100
0000
0010
0100
0000
0000
0020
0000
0000
0000
0000
0000
0130
0000
0000
0000
0000
0000
,
0010
0000
0000
0001
0000
0000
0010
0000
0001
1000
0000
0000
0010
0000
1000
0010
0000
1000
0010
0000
0000
0000
0000
0000
,
0100
0000
0000
0010
0000
1000
0010
0000
0100
0010
0000
0000
1000
0000
0000
0000
0000
0000
1001
0000
0000
0000
0000
0000
,
0010
0000
0000
1000
0000
0100
0001
0000
0000
0100
0000
0000
1000
0000
0000
0010
0000
0001
0000
0000
0000
0010
0000
0000
,
1000
0000
0000
0100
0000
0010
0100
0000
0000
0010
0000
0000
0101
0000
0000
0000
0000
0000
1100
0000
0000
0010
0100
0010
,
0100
0000
0000
1000
0000
0100
0001
0000
0000
0100
0000
0000
1000
0000
0001
1000
0000
0001
0000
0000
0000
0010
0000
0000
,
0001
0000
0000
0010
0000
0100
0010
0000
0000
0100
0000
0000
1100
0000
0000
0000
0000
0000
1001
0000
0000
1000
0100
0010
,
0001
0000
0000
0010
0000
0000
0001
0000
1000
0010
0000
0000
0011
0000
0000
0000
0000
2020
0000
0000
0000
3030
0000
0000
,
0001
0000
0000
0010
0000
0000
0001
0000
1000
0010
0000
0000
1000
0000
0100
0010
0000
0200
0000
0000
0000
0300
0000
0000
,
0010
0000
0000
0001
0000
0000
1000
0000
0010
1000
0000
0000
0100
0000
0000
0001
0000
0100
0000
0000
0000
1000
0000
0000
,
0010
0000
0000
0010
0000
0000
1000
0000
0001
1000
0000
0002
0000
0000
0000
0000
0000
0000
0003
0000
0000
0001
0100
0010
,
1000
0000
0000
0010
0000
0000
1000
0000
0001
0010
0000
0000
1010
0000
0000
0000
0000
0022
0000
0000
0000
0033
0000
0000
,
0010
0000
0000
1000
0000
0000
0001
0000
0010
0001
0000
0000
0100
0000
1000
0100
0000
2000
0000
0000
0000
3000
0000
0000
,
0100
0000
0000
1000
0000
0000
0100
0000
0001
0010
0000
0000
0100
0000
0000
0100
0000
0000
1000
0000
0001
0000
1000
0000
,
0001
0000
0000
0000
0000
0000
0000
0000
0000
0000
0000
0000
1000
0000
0001
1000
0000
0000
1001
0000
0000
0000
0000
0000
,
0100
0000
0001
0010
0000
0000
0100
0000
1000
0010
0000
0000
0100
0000
0001
0010
0000
0000
0100
0000
1000
0010
0000
0000
,
0200
0000
0301
0000
,
0010
0000
0001
0100
0000
0000
0010
0000
1000
0100
0000
0000
0010
0000
0001
0100
0000
0000
0010
0000
1000
0100
0000
0000
,
0020
0000
0130
0000
,
1000
0010
0100
0001
0020
0000
1030
0000
,
0010
0001
0100
1000
0200
0000
0300
0000
,
0001
0010
0100
1000
0020
0000
0031
0000
,
0010
0010
1000
0001
0100
0000
0000
0000
,
0110
1001
1100
0101
,
1000
0000
0010
1000
0000
0100
0000
0000
0000
1000
0000
0000
0001
0000
0100
0001
0000
0000
1000
0000
0100
1000
0000
0000
,
1100
0000
0000
0110
0000
0000
0011
0000
0000
1000
0000
0001
0000
0000
0000
0000
0000
0000
1000
0001
1000
0001
0000
0000
,
1000
0000
0000
0000
0000
0100
0000
0000
0000
0001
0000
0000
0000
0000
0001
0000
0000
0000
0100
0000
0000
1000
0000
0000
,
0010
0000
0100
0001
0000
0000
0010
0000
0100
1000
0000
0000
0010
0000
0000
0000
0000
0000
0100
0000
0000
0000
0000
0000
,
0001
0000
0000
0000
0000
0001
0000
0000
0000
0100
0000
0000
1000
0000
0100
0001
0000
0000
0001
0000
0100
1000
0000
0000
,
0100
0000
0000
0001
0000
0000
0010
0000
0000
0001
0000
1000
0000
0000
0000
0000
0000
0000
0110
0000
0000
1001
0000
0000
,
0010
0000
0001
0100
0000
0010
1000
0000
0100
0010
0000
0001
0100
0000
1000
0100
0000
0010
1000
0000
0100
0010
0000
0000
,
0200
0000
0000
0300
,
0010
0000
0001
1000
0000
0000
0010
0000
1000
0001
0000
0000
0010
0000
0001
1000
0000
0000
0010
0000
1000
0001
0000
0000
,
1001
0000
1010
0110
0101
0000
1001
0000
,
0001
0000
1000
0100
0000
0000
1000
0000
0001
0100
0000
0000
0001
0000
1000
0100
0000
0000
1000
0000
0001
0100
0000
0000
,
0001
0000
0100
0010
0000
0100
1000
0000
0100
0010
0000
0000
0100
0000
0000
0000
0000
0000
0010
0000
0000
0000
0000
0000
,
2002
0000
0000
0000
,
0000
0000
0000
0000
,
0000
0000
0000
0000
,
3003
0000
0000
0000
,
0000
0000
0000
0000
;

//---------------dance-double - ----------------
#NOTES:
     dance-double:
     :
     Easy:
     5:
     0.219802,0.241262,0.109251,0.200293,0.000000,169.000000,157.000000,12.000000,22.000000,0.000000,0.000000,0.219802,0.241262,0.109251,0.200293,0.000000,169.000000,157.000000,12.000000,22.000000,0.000000,0.000000:
00000000
00000000
00000000
00000000
,
00000000
00000000
00000000
00000000
,
00000000
00000000
00000000
00000000
,
00000000
00000000
00000000
00000000
,
00000000
00000000
00000000
00000000
,
00000001
00000001
00000100
00000100
,
00000010
00000000
00010000
00001000
00010000
00000000
00001000
00000000
,
00010000
00010000
00100000
00100000
,
02000000
00000000
03000000
10010000
,
00010000
00100000
00010000
10000000
,
01000000
00010000
00001000
00010000
,
00001000
00100000
00001000
00010000
,
00001000
00000010
00000001
00001001
,
00001000
00000010
00001000
00000001
,
00000100
00001000
00010000
00001000
,
00010000
00000010
00010000
00001000
,
00010000
00100000
10000000
10010000
,
00010000
00000000
10000000
00000000
,
00010000
01000000
00100000
10010000
,
00010000
00000000
00001000
00000000
,
00010000
00000100
00001000
00000000
,
00000220
00000330
00001000
00001000
,
00022000
00033000
00010000
00010000
,
00100000
00100000
00010000
00100000
,
00001000
00010000
00022000
00033000
,
02200000
03300000
00010000
00010000
,
00022000
00033000
00001000
00001000
,
00000100
00001000
00000100
00010000
,
00001000
00000000
00022000
00033000
,
00001000
00100000
00001000
01000000
,
00002000
00000000
00013000
00000000
,
00010000
00000010
00010000
00000100
,
00020000
00000000
00031000
00000000
,
00010000
00100000
10000000
00100000
,
00010000
00001000
00010000
00000000
,
00001000
00000010
00000001
00000010
,
00001000
00010000
00001000
00000000
,
00010000
00010000
00001000
00011000
,
00010000
00010000
00100000
10000000
,
01000000
00010000
00002000
00003000
,
00000010
00000010
00000001
00000100
,
00001000
00010000
00002000
00013000
,
00001000
00001000
00000010
00000001
,
00000100
00001000
00020000
00030000
,
00001000
00000000
01000000
00000000
00001000
00010000
00001000
00010000
,
00002000
00000000
00000000
00003000
,
00000010
00000010
00000001
00000001
,
00000010
00000000
00001000
00010000
00001000
00000000
00000000
00000000
,
00010000
00010000
00100000
00100000
,
20000000
00000000
30000000
01000000
,
02200000
00000000
00000000
00000000
,
00000000
00000000
00000000
00000000
,
00000000
00000000
00000000
00000000
,
03300000
00000000
00000000
00000000
,
00000000
00000000
00000000
00000000
;

//---------------dance-double - ----------------
#NOTES:
     dance-double:
     :
     Medium:
     10:
     0.355065,0.410146,0.227606,0.127459,0.000000,273.000000,248.000000,25.000000,14.000000,0.000000,0.000000,0.355065,0.410146,0.227606,0.127459,0.000000,273.000000,248.000000,25.000000,14.000000,0.000000,0.000000:
00000000
00000000
00000000
00000000
,
00000000
00000000
00000000
00000000
,
00000000
00000000
00000000
00000000
,
00000000
00000000
00000000
00000000
,
00000000
00000000
00000000
00000000
,
10000000
01000000
00100000
00010000
,
00011000
00000000
00000100
00001000
00000100
00000000
00001001
00000000
,
00000001
00000100
00000010
00001000
,
00000010
00010000
00001000
00010000
00001000
00000000
00011000
00000000
,
00001000
00000000
00010000
00000000
00001000
00100000
01000000
00000000
,
10000000
01000000
00100000
00010000
01000000
00000000
00100000
00000000
,
00010000
00000000
00001000
00000000
00010000
00000010
00000100
00000000
,
00000001
00000100
00000010
00001000
00000100
00000000
00011000
00000000
,
00010000
00000000
00001000
00000000
00010000
01000000
10000000
00000000
,
01000000
00100000
01000000
00010000
00001000
00000000
00011000
00000000
,
00001000
00000000
00010000
00000000
00001000
00000100
00000001
00000000
,
00000100
00000010
00000100
00001000
00010000
00000000
00011000
00000000
,
00000010
00001000
00000001
00000000
00000100
00000010
00001000
00000000
,
00000010
00000100
00001000
00010000
01000000
00000000
11000000
00000000
,
00100000
00010000
10000000
00000000
01000000
00100000
00010000
00000000
,
00100000
01000000
00010000
00001000
00000100
00000000
00000101
00000000
,
00000001
00001000
00000100
00000000
00001100
00000000
00011000
00000000
,
00001000
00010000
01000000
10000000
00100000
01000000
00100000
00000000
,
10000000
00010000
01000000
00010000
00100000
00001000
00010000
00000100
,
00000010
00000001
00000100
00000010
00002000
00000000
00000000
00000000
,
00003010
00000100
00001000
00010000
00100000
00000000
10010000
00000000
,
10000000
01000000
00010000
00001000
00000010
00000100
00000010
00000000
,
00000001
00000001
00000100
00000010
00000100
00000100
00001000
00010000
,
00001000
00000000
00022000
00033000
,
00001000
00010000
00001000
00010000
00100000
10000000
01000000
00100000
,
00002000
00000000
00013000
00000000
,
00010000
00001000
00010000
00001000
00000010
00000001
00000100
00000010
,
00002000
00000000
00003100
00000000
,
00002000
00000000
00003001
00000010
00000100
00000000
00001000
00000000
,
00000010
00000100
00001000
00010000
00002000
00000000
00003000
00000000
,
00200000
00000000
00310000
10000000
00100000
00000000
10000000
00000000
,
01000000
01000000
10000000
01000000
00020000
00000000
00030000
00000000
,
00011000
00001010
00011000
00110000
,
01000000
00010000
00100000
00001000
00010000
00000100
00000010
00000001
,
00000100
00001000
00000100
00000001
00000020
00000000
00000030
00000000
,
00000100
00000010
00000100
00001000
00000010
00000100
00001000
00010000
,
00100000
00010000
00100000
10000000
11000000
00000000
00110000
00000000
,
00100000
00010000
01000000
00001000
00010000
00000010
00000100
00000001
,
00000010
00001000
00000010
00000001
00000200
00000000
00000300
00000000
,
00000010
00000010
00000100
00000100
00001000
00001000
00010000
00010000
,
00200000
00000000
00000000
00300000
,
10000000
01100000
00100000
00110000
,
00011000
00000000
00001000
00000100
00000001
00000000
00001001
00000000
,
00000001
00000110
00000010
00001010
,
00000010
00010000
00001000
00010000
00001000
00000000
00010000
00000000
,
00022000
00000000
00000000
00000000
,
00000000
00000000
00000000
00000000
,
00000000
00000000
00000000
00000000
,
00033000
00000000
00000000
00000000
,
00000000
00000000
00000000
00000000
;

//---------------dance-double - ----------------
#NOTES:
     dance-double:
     :
     Hard:
     14:
     0.473420,0.603155,0.300440,0.154772,0.327752,364.000000,331.000000,33.000000,17.000000,0.000000,0.000000,0.473420,0.603155,0.300440,0.154772,0.327752,364.000000,331.000000,33.000000,17.000000,0.000000,0.000000:
00000000
00000000
00000000
00000000
,
00000000
00000000
00000000
00000000
,
00000000
00000000
00000000
00000000
,
00000000
00000000
00000000
00000000
,
00000000
00000000
00000000
00000000
,
10100000
00110000
00011000
00001010
,
00000101
00000000
00000001
00000100
00000001
00000000
00001001
00000000
,
00001100
00011000
00110000
10100000
,
00100000
10000000
00100000
00010000
00100000
00000000
01100000
00000000
,
00100000
00000000
00000000
01000000
00000000
00000000
00001000
00000000
00010000
00001000
00000000
00000000
00000100
00000000
00000000
00000010
00000000
00001000
00000010
00000000
00000000
00000000
00000000
00000000
,
00000100
00001000
00000100
00000001
00000020
00000000
00000130
00000000
,
00010000
00000000
00000000
00001000
00000000
00000000
00100000
00000000
00010000
01000000
00000000
00000000
00100000
00000000
00000000
10000000
00000000
01000000
00100000
00000000
00000000
00000000
00000000
00000000
,
00010000
00000000
00000000
00001000
00000000
00000100
00000010
00000000
00000100
00001000
00000000
00000000
00000010
00000000
00000000
00000000
00000000
00000000
00011000
00000000
00000000
00000000
00000000
00000000
,
00000100
00000000
00000000
00000010
00000000
00000000
00010000
00000000
00001000
00010000
00000000
00000000
01000000
00000000
00000000
00100000
00000000
00010000
00100000
00000000
00000000
00000000
00000000
00000000
,
00010000
10000000
01000000
00010000
00002000
00000000
00003100
00000000
,
00000010
00000000
00000000
00000100
00000000
00000000
00000010
00000000
00000100
00001000
00000000
00000000
00010000
00000000
00000000
00001000
00000000
00010000
01000000
00000000
00000000
00000000
00000000
00000000
,
10000000
00000000
00000000
00100000
00000000
10000000
00100000
00000000
01000000
00100000
00000000
00000000
00010000
00000000
00000000
00000000
00000000
00000000
00011000
00000000
00000000
00000000
00000000
00000000
,
00001000
00000000
00000000
00000100
00000000
00000001
00000010
00000000
00000000
00000010
00000000
00000000
00000100
00000000
00000000
00000100
00000000
00010000
00000000
00000000
00000000
00001000
00000000
00000000
,
00100000
00000000
00000000
00010000
00000000
00100000
01000000
00000000
00000000
01000000
00000000
00000000
11000000
00000000
00000000
00000000
00000000
00000000
01010000
00000000
00000000
00000000
00000000
00000000
,
00001000
00000000
00000000
00010000
00000000
00000010
00010000
00000000
00000000
00001000
00000000
00000000
00010000
00000000
00001000
00010000
00000000
00001000
00000000
00000000
00000000
00100000
00000000
00000000
,
01000000
00000000
00000000
00100000
00000000
01000000
00100000
00000000
00000000
00010000
00000000
00000000
00011000
00000000
00000000
00000000
00000000
00000000
00001100
00000000
00000000
00000000
00000000
00000000
,
00000010
00000000
00000000
00000001
00000000
00000000
00001000
00000000
00000010
00001000
00000000
00000000
00001100
00000000
00000000
00000000
00000000
00022000
00000000
00000000
00000000
00033000
00000000
00000000
,
00100000
00000000
00000000
00010000
00000000
00000000
10000000
00000000
00100000
10000000
00000000
00000000
00010000
00000000
01000000
00010000
00000000
02000000
00000000
00000000
00000000
03000000
00000000
00000000
,
00100000
00000000
00000000
00010000
00000000
00000000
00001000
00000000
00000100
00000001
00000000
00000000
00000010
00000000
00000000
00000100
00000000
00010000
00000000
00000000
00000000
00001000
00000000
00000000
,
00010000
00000000
00000000
00010000
00000000
00000000
00001000
00000000
00010000
00001000
00000000
00020000
00000000
00000000
00000000
00000000
00000000
00000000
00030000
00000000
00000000
00000000
00000000
00000000
,
00001000
00000000
00000000
00010000
00000000
00000000
00001000
00000000
00000100
00000001
00000000
00000000
00000011
00000000
00000000
00000000
00000000
00002020
00000000
00000000
00000000
00003030
00000000
00000000
,
00010000
00000000
00000000
00001000
00000000
00000000
00010000
00000000
01000000
10000000
00000000
00000000
00100000
00000000
01000000
00100000
00000000
02000000
00000000
00000000
00000000
03000000
00000000
00000000
,
00100000
00000000
00000000
00010000
00000000
00000000
00001000
00000000
00010000
00001000
00000000
00000000
00000100
00000000
00000000
00000001
00000000
00000000
00000010
00000000
00001000
00000000
00010000
00000000
,
00001000
00000000
00000000
00000000
00000000
00000000
00000000
00000000
00000000
00000000
00000000
00000000
00100000
00000000
01000000
00100000
00000000
00000000
10010000
00000000
00000000
00000000
00000000
00000000
,
10000000
00000000
00100000
00010000
00000000
00000000
00100000
00000000
00010000
00001000
00000000
00000000
00010000
00000000
00001000
00000100
00000000
00000000
00001000
00000000
00000100
00000001
00000000
00000000
,
00000020
00000000
00000130
00000000
,
00000001
00000000
00000010
00001000
00000000
00000000
00000010
00000000
00001000
00010000
00000000
00000000
00001000
00000000
00010000
01000000
00000000
00000000
00010000
00000000
01000000
10000000
00000000
00000000
,
00200000
00000000
01300000
00000000
,
00100000
10000000
01000000
00010000
00002000
00000000
00013000
00000000
,
00001000
00000010
00000001
00000010
00002000
00000000
00003000
00000000
,
00010000
00100000
10000000
00100000
00020000
00000000
00031000
00000000
,
00010000
00000100
00000001
00000100
00010000
00000000
00000000
00000000
,
00001100
00011000
00110000
10010000
,
00100000
00000000
01000000
00100000
00000000
00010000
00000000
00000000
00000000
00001000
00000000
00000000
00000100
00000000
00000000
00000001
00000000
00000000
00000010
00000000
00000000
00001000
00000000
00000000
,
00000010
00000000
00000000
00001000
00000000
00000000
00010000
00000000
00000000
01000000
00000000
10000000
00000000
00000000
00000000
00000000
00000000
00000000
00100000
00000000
00000000
01000000
00000000
00000000
,
00001000
00000000
00000000
00000000
00000000
00010000
00000000
00000000
00000000
00001000
00000000
00000000
00000000
00000000
00000100
00000000
00000000
00000000
00000001
00000000
00000000
00000010
00000000
00000000
,
00000100
00010000
00001000
00010000
00000010
00000000
00011000
00000000
,
00001000
00000000
00000000
00000000
00000000
00010000
00000000
00000000
00000000
00000010
00000000
00000000
00000001
00000000
00000000
00000010
00000000
00000000
00001000
00000000
00000000
00000001
00000000
00000000
,
00000010
00000000
00000000
00001000
00000000
00000000
00010000
00000000
00000000
01000000
00000000
10000000
00000000
00000000
00000000
00000000
00000000
00000000
00100000
00000000
00000000
01000000
00000000
00000000
,
00100000
00000000
10000000
01000000
00000000
00100000
00010000
00000000
01000000
00001000
00000000
00010000
00000010
00000000
00001000
00000100
00000000
00000010
00000001
00000000
00000100
00000010
00000000
00001000
,
00000200
00000000
00000000
00000300
,
00000010
00000000
00000001
00000010
00000000
00000000
00000100
00000000
00001000
00000100
00000000
00000000
00010000
00000000
00001000
00010000
00000000
00000000
00100000
00000000
01000000
00100000
00000000
00000000
,
10010000
00000000
11000000
01010000
01100000
00000000
10010000
00000000
,
00100000
00000000
10000000
00100000
00000000
00000000
01000000
00000000
00010000
01000000
00000000
00000000
00001000
00000000
00010000
00001000
00000000
00000000
00000010
00000000
00000100
00000010
00000000
00000000
,
00000001
00000000
00000100
00000010
00000000
00001000
00000100
00000000
00010000
00001000
00000000
00010000
01000000
00000000
00000000
00000000
00000000
00000000
00100000
00000000
00000000
00000000
00000000
00000000
,
20020000
00000000
00000000
00000000
,
00000000
00000000
00000000
00000000
,
00000000
00000000
00000000
00000000
,
30030000
00000000
00000000
00000000
,
00000000
00000000
00000000
00000000
;

//---------------dance-single - ----------------
#NOTES:
     dance-single:
     :
     Challenge:
     16:
     0.788167,1.061554,1.183550,1.028779,0.887663,606.000000,476.000000,130.000000,113.000000,0.000000,0.000000,0.788167,1.061554,1.183550,1.028779,0.887663,606.000000,476.000000,130.000000,113.000000,0.000000,0.000000:
// measure 0
0000
0000
0000
0000
,  // measure 1
0000
0000
0000
0000
,  // measure 2
0000
0000
0000
0000
,  // measure 3
0000
0000
0000
0000
,  // measure 4
0000
0000
0000
0000
,  // measure 5
1010
1100
0011
0101
,  // measure 6
1010
0001
0011
0100
0110
0010
1001
0100
,  // measure 7
1010
0000
0000
0001
0000
0001
1000
0000
0000
0100
0000
0100
0010
0000
0000
0001
0000
0000
0100
0000
0000
0010
0000
0000
,  // measure 8
2000
3002
0023
0230
1300
0000
0011
0000
,  // measure 9
1100
0000
0000
1100
0000
0000
1000
0000
0001
0100
0000
0000
0110
0000
0000
0010
0000
1000
0001
0000
0000
0100
0000
0000
,  // measure 10
0101
0000
0000
1100
0000
0000
0101
0000
0000
0001
0000
1000
0100
0000
0100
0010
0000
0000
0001
0000
0001
1000
0000
0000
,  // measure 11
1001
0000
0000
1001
0000
0000
0010
0000
1000
0100
0000
0000
0110
0000
0000
0001
0000
1000
0001
0000
0000
0100
0000
0000
,  // measure 12
1010
0000
0000
0001
0000
0001
0100
0000
0010
1000
0000
0100
1000
0000
1000
0001
0000
0000
0022
0000
0000
0000
0033
0000
,  // measure 13
1001
0000
0000
0110
0000
0000
0010
0000
1000
0010
0000
0100
0001
0000
0000
0010
0000
0100
2000
0000
0000
3001
0000
0000
,  // measure 14
0101
0000
0000
1010
0000
0000
0001
0000
1000
0100
0000
1000
0010
0000
0010
1000
0000
0001
0200
0000
0000
0310
0000
0100
,  // measure 15
0001
0000
0000
1010
0000
0000
1000
0000
1000
0100
0000
0100
0010
0000
0000
0001
0000
0100
0002
0000
0000
1003
0000
0000
,  // measure 16
1001
0000
0000
1100
0000
0100
0010
0000
0001
0100
0000
0001
2000
0000
0001
3001
0000
0000
0102
0000
0000
1000
0000
0000
,  // measure 17
0013
0000
0000
0001
0000
1000
0100
0000
0000
0010
0000
0000
0110
0000
0000
0001
0000
2000
0000
0000
0100
3100
0000
0000
,  // measure 18
1010
0000
0000
0010
0000
0010
1000
0000
0001
1000
0000
0000
1100
0000
0000
0001
0000
0000
0011
0000
0000
0100
0010
1000
,  // measure 19
0001
0000
0000
0010
0000
0001
1000
0000
0100
1000
0000
0000
0011
0000
0000
0100
0000
0002
0000
0000
1000
1003
0000
0000
,  // measure 20
1100
0000
0000
0010
0000
0010
0100
0000
0100
0001
0000
0001
1000
0000
0000
0110
0000
0000
1001
0000
0100
0010
1000
0001
,  // measure 21
0010
0000
0000
0001
0000
0000
1000
0000
0001
0100
0000
0010
2010
0000
3001
1000
0000
2100
0000
0000
0001
3002
0000
0000
,  // measure 22
0103
0000
0000
0110
0000
0000
0010
0000
1000
0001
0000
0010
0011
0000
0001
0100
0000
1020
0000
0000
1000
1030
0000
0001
,  // measure 23
1001
0000
0000
0101
0000
0000
1100
0000
0100
1000
0000
0001
0100
0000
0010
1000
0000
1200
0000
0000
1300
0002
0000
0100
,  // measure 24
0103
0000
0000
0010
0000
0000
1000
0000
0001
1000
0000
0201
0000
0000
0310
0110
0000
0000
1001
0000
0000
1000
0100
0010
,  // measure 25
0001
0000
0000
0101
0000
0001
1000
0000
0010
1000
0000
0100
0020
0000
0001
0031
0000
2100
0000
0000
0100
3100
0000
1000
,  // measure 26
0001
0000
0000
1010
0000
0000
1001
0000
1000
0100
0000
0100
0010
0000
0001
1000
0000
0021
0000
0000
0100
0130
0000
0010
,  // measure 27
1001
0000
0000
0110
0000
0000
1000
0000
0001
0100
0000
0010
0101
0000
0000
1100
0000
0000
0001
0000
1000
0001
0010
0100
,  // measure 28
1000
0000
0000
0110
0000
0000
0000
0000
0000
0110
0000
0000
0100
0000
0001
1000
0000
0000
1010
0000
0000
0000
0000
0000
,  // measure 29
0022
0003
0000
0200
0030
0000
2000
0300
0000
0002
3000
0000
0020
0003
0000
2000
0030
0000
0020
3000
0000
0002
0030
0000
,  // measure 30
0203
1000
0301
0000
1020
0001
1030
0000
,  // measure 31
2200
3000
0000
0002
0300
0000
0200
0003
0000
0020
0300
0000
0002
0030
0000
2000
0003
0000
0020
3000
0000
0002
0030
0000
,  // measure 32
0020
0003
0000
1000
0000
0000
0130
0000
0000
0000
0000
0000
1002
0000
0000
0010
0000
0000
1000
0000
0000
0103
0000
0000
,  // measure 33
0202
0300
0000
0000
0000
0000
2000
0003
0000
0002
3000
0000
0200
0003
0000
1000
0000
0000
0020
0300
0000
0000
0030
0000
,  // measure 34
2002
0003
0000
0100
0000
0000
0020
3000
0000
2000
0030
0000
0002
3000
0000
0100
0000
0000
0010
0000
0000
1003
0000
0000
,  // measure 35
2200
0000
0000
0000
3300
0000
2002
3003
0000
0022
0033
0000
0202
0003
0000
1000
0300
0000
0220
0000
0000
0000
0330
0000
,  // measure 36
2020
3030
0000
2200
3300
0000
0022
0033
0000
0202
0303
0000
2002
0003
0000
0100
0000
0000
0200
0000
0000
0000
3300
0000
,  // measure 37
1100
0101
0011
1010
,  // measure 38
1001
0000
1000
0010
0000
1000
0001
0000
1000
0100
0000
0010
0002
0000
1000
2003
0000
0000
3020
0000
0100
0230
0000
0300
,  // measure 39
1010
0000
0001
0011
0000
0100
0110
0000
0010
1000
0000
2100
0000
0000
3001
0100
0000
0000
0110
0000
1000
1001
0000
0000
,  // measure 40
0011
0000
0001
1000
0000
0100
1000
0000
0010
0100
0000
0010
1000
0000
0102
0100
0000
0003
0022
0033
0000
2200
3300
0000
,  // measure 41
1001
0000
1000
1100
0000
0100
0110
0000
0010
0011
0000
0001
0102
0000
0100
1003
0000
0000
2100
0000
0100
3001
0000
0000
,  // measure 42
0110
0000
0010
1000
0000
0001
1000
0000
1000
0100
0000
0010
0011
0000
1000
1100
0000
0000
0101
0000
0010
1010
0000
0001
,  // measure 43
1001
0000
1000
0110
0000
0010
1010
0000
1000
0001
0000
0012
1000
0000
1003
0001
0000
0000
0200
0000
0310
2000
0000
3000
,  // measure 44
1100
0000
0001
0011
0000
0100
0110
0000
0010
1001
0000
1000
1100
0000
0100
0110
0000
0001
0101
0000
1000
1010
0000
0010
,  // measure 45
0210
0000
0001
0001
0000
1000
1000
0000
0001
0301
0000
0100
0020
0000
1000
2030
0000
0000
3002
0000
0100
0203
0000
0300
,  // measure 46
2020
0000
3030
0202
0000
0303
0022
0000
0033
2200
0000
3300
,  // measure 47
1001
0100
0110
1010
1100
0001
0011
0100
,  // measure 48
1001
0000
0000
0001
0000
0010
0110
0000
0000
1000
0000
0010
0101
0000
0000
0100
0000
0001
0011
0000
0001
1000
0000
0001
,  // measure 49
2000
0000
0000
3200
0000
0000
0320
0000
0000
0032
0000
0000
0203
0000
0000
0000
0000
0000
0320
0000
0000
0000
0000
0030
,  // measure 50
2200
0000
0000
0000
3000
0000
0001
0000
0000
0001
0000
0000
0001
0000
0000
0000
0001
0000
0000
0000
0001
0000
0000
0000
,  // measure 51
0001
0001
0001
0001
0001
0000
0000
0000
,  // measure 52
0000
0000
0000
0000
,  // measure 53
0300
0000
0000
0000
;
