#TITLE:GET UP'N MOVE;
#SUBTITLE:(Speedy Mix);
#ARTIST:S&K;
#TITLETRANSLIT:;
#SUBTITLETRANSLIT:;
#ARTISTTRANSLIT:;
#GENRE:;
#CREDIT:;
#BANNER:GET UP'N MOVE (Speedy Mix)-bn.png;
#BACKGROUND:GET UP'N MOVE (Speedy Mix)-bg.png;
#LYRICSPATH:;
#CDTITLE:;
#MUSIC:GET UP'N MOVE (Speedy Mix).ogg;
#OFFSET:0.000000;
#SAMPLESTART:103.484001;
#SAMPLELENGTH:20.000000;
#SELECTABLE:YES;
#DISPLAYBPM:175.000000;
#BPMS:0.000000=175.100006
;
#STOPS:
;
#BGCHANGES:;
#KEYSOUNDS:;
#ATTACKS:;

//---------------dance-single - ----------------
#NOTES:
     dance-single:
     :
     Challenge:
     16:
     0.890484,0.898120,0.416073,0.431483,1.040182,809.000000,755.000000,54.000000,56.000000,0.000000,0.000000,0.890484,0.898120,0.416073,0.431483,1.040182,809.000000,755.000000,54.000000,56.000000,0.000000,0.000000:
0000
0000
0000
0000
,
0000
0000
0000
0000
,
0000
0000
0000
0000
,
0000
0000
0000
0000
,
0000
0000
0000
0000
,
0000
0000
0000
0000
,
0010
1000
0001
1000
0100
0010
0001
0000
,
1000
0010
0000
1000
0000
0001
0100
0000
0010
0000
1000
0000
0001
0000
0000
0000
,
1000
0010
0100
0001
0000
0000
0001
0010
0100
1000
0000
0000
,
1001
0000
0000
0000
0000
0000
0000
0000
0000
0000
0000
0000
1001
0000
0000
0000
0000
0000
1000
0000
0000
0001
0000
0000
1000
0000
0000
0000
0010
0000
0000
0000
0100
0000
0000
0000
0001
0000
0000
0010
0000
0000
0001
0000
0000
0010
0000
0000
,
0002
0000
0000
0000
1003
0000
0010
2000
0100
0000
0000
0100
3000
0000
0100
0000
,
0120
0000
0000
0000
0000
0000
0000
0000
0000
0000
0000
0000
0031
0000
0000
0000
0000
0000
0100
0000
0000
0001
0000
0000
1000
0000
0000
0000
0010
0000
0000
0000
1000
0000
0000
0000
0001
0000
0000
0000
0000
0000
0000
0000
0000
0000
0000
0000
,
1020
0000
0000
0000
0130
0000
0001
2000
0010
0000
0000
0010
3000
0000
0010
0000
,
0201
0000
0000
0000
0000
0000
0000
0000
0000
0000
0000
0000
1300
0000
0000
0000
0000
0000
0100
0000
0000
0001
0000
0000
0100
0000
0000
0000
0010
0000
0000
0000
1000
0000
0000
0000
0001
0000
0000
0000
0000
0000
0000
0000
0000
0000
0000
0000
,
0012
0000
0000
0000
1003
0000
0010
2000
0001
0000
0000
0001
3000
0000
0001
0000
,
1200
0000
0000
0000
0310
0000
0001
0100
0000
0001
1000
0000
0020
0000
0130
0000
,
1020
0000
0000
0000
1030
0000
0100
0020
0001
0000
0000
0001
0030
0000
0001
0000
,
1002
0000
0000
0000
0000
0000
0000
0000
0000
0000
0000
0000
1003
0000
0000
0000
0000
0000
0001
0000
0000
0010
0000
0000
0001
0000
0000
0000
0010
0000
0000
0000
0100
0000
0000
0000
1000
0000
0000
0000
0000
0000
0000
0000
0000
0000
0000
0000
,
0010
1000
0000
0100
0000
0010
0001
0000
1000
0000
0000
0010
0000
0000
0100
0000
,
0102
0000
0000
0000
0013
0000
0001
2000
0001
0000
0000
0100
3000
0000
0100
0000
,
1000
0001
0000
1000
0000
0100
0010
0000
0001
0000
0100
0000
0010
0000
2000
0000
,
3010
0000
0000
1000
0000
0000
0001
0000
0000
1000
0000
0000
0001
0000
0010
0000
0100
0000
1000
0000
0000
0000
0000
0000
,
0010
0000
1000
0100
0000
0010
0000
0000
0001
0000
1000
0001
0000
0100
0000
0000
,
0010
0000
1000
0000
0100
0000
0000
0000
1000
0001
0000
0010
0000
0001
0000
0000
,
0100
0000
0010
1000
0000
0001
1000
0001
0010
0100
0000
1000
0000
0000
0000
0010
,
0100
0001
0100
0010
1000
0000
0001
1000
0100
0010
0000
0001
0000
1000
0000
0000
,
0100
0010
0000
0001
0000
1000
0001
0000
0100
0000
0010
0000
1001
0000
0000
0000
,
0010
1000
0000
0100
0000
1000
0001
0010
0001
0000
0100
0000
0110
0000
0110
0000
,
0010
0000
1000
0000
0101
0000
0000
0000
0001
0100
0001
0100
0001
0000
0000
1000
,
0010
0000
0000
0100
0000
0000
0010
0000
0000
1000
0000
0000
0001
0000
0000
0000
0000
0000
1000
0000
0000
0100
0000
0000
1000
0000
0000
0000
0001
0000
0000
0000
0100
0000
0000
0000
0010
0000
0000
0000
0000
0000
0000
0000
0000
0000
0000
0000
,
1000
0000
0000
0000
0100
0000
0000
0000
0010
0000
0000
0000
0001
0000
0000
0000
0000
0000
0100
0000
0000
0010
0000
0000
1000
0000
0000
0000
0100
0000
0000
0000
0010
0000
0000
0000
0001
0000
0000
0000
0000
0000
0100
0000
0000
0010
0000
0000
,
2000
0000
0000
0000
3100
0000
0010
0002
1000
0000
0000
0010
0003
0000
0100
0000
,
0120
0000
0000
0000
0000
0000
0000
0000
0000
0000
0000
0000
1030
0000
0000
0000
0000
0000
0100
0000
0000
0010
0000
0000
0001
0000
0000
0000
0010
0000
0000
0000
0100
0000
0000
0000
1000
0000
0000
0000
0000
0000
0000
0000
0000
0000
0000
0000
,
1200
0000
0000
0000
0301
0000
0100
2000
0010
0000
0000
0001
3000
0000
0100
0000
,
0021
0000
0000
0000
0000
0000
0000
0000
0000
0000
0000
0000
1030
0000
0000
0000
0000
0000
0010
0000
0000
0100
0000
0000
1000
0000
0000
0000
0010
0000
0000
0000
0100
0000
0000
0000
0001
0000
0000
0000
0000
0000
0000
0000
0000
0000
0000
0000
,
0102
0000
0000
0000
0013
0000
0001
2000
0001
0000
0000
0010
3000
0000
0100
0000
,
2001
0000
0000
0000
3001
0000
1000
0010
0000
0010
0100
0000
0002
0000
1003
0000
,
1020
0000
0000
0000
0130
0000
0001
0020
1000
0000
0000
0100
0030
0000
0001
0000
,
0201
0000
0000
0000
0000
0000
0000
0000
0000
0000
0000
0000
0301
0000
0000
0000
0000
0000
1000
0000
0000
0001
0000
0000
0100
0000
0000
0000
0010
0000
0000
0000
1000
0000
0000
0000
0100
0000
0000
0000
0000
0000
0000
0000
0000
0000
0000
0000
,
0001
1000
0000
0100
0000
1000
0010
0000
0100
0000
0000
0001
0000
0000
1000
0000
,
0210
0000
0000
0000
0301
0000
1000
0002
0100
0000
0000
0103
0010
0000
0000
0000
,
1000
0010
0000
1000
0000
0100
0010
0000
0001
0000
0100
0000
0001
0000
2000
0000
,
3100
0000
0000
1000
0000
0000
0001
0000
0000
0100
0000
0000
0001
0000
0010
0000
0100
0000
1000
0000
0000
0000
0000
0000
,
1100
1100
1001
0000
0101
0101
1001
0000
,
0010
0000
1000
0000
0100
0000
1000
0001
0000
0001
0100
0000
0110
0000
0110
0000
,
1000
0000
0001
0000
1010
0000
0000
0000
0100
0010
1000
0010
0100
0000
0000
0001
,
1000
0000
0000
0100
0000
0000
1000
0000
0000
0001
0000
0000
0100
0000
0000
0000
0000
0000
0010
0000
0000
1000
0000
0000
0010
0000
0000
0000
0100
0000
0000
0000
0001
0000
0000
0000
1000
0000
0000
0000
0000
0000
0000
0000
0000
0000
0000
0000
,
0001
0000
0000
0000
0100
0000
0000
0000
0010
0000
0000
0000
1000
0000
0000
0000
0000
0000
0100
0000
0000
0010
0000
0000
0001
0000
0000
0000
0100
0000
0000
0000
0010
0000
0000
0000
1000
0000
0000
0000
0000
0000
0100
0000
0000
0010
0000
0000
,
0200
0000
0000
0000
1300
0000
0001
0200
0010
0000
0000
1000
0300
0000
0010
0000
,
0021
0000
0000
0000
0000
0000
0000
0000
0000
0000
0000
0000
0130
0000
0000
0000
0000
0000
0010
0000
0000
0001
0000
0000
1000
0000
0000
0000
0010
0000
0000
0000
1000
0000
0000
0000
0100
0000
0000
0000
0000
0000
0000
0000
0000
0000
0000
0000
,
0210
0000
0000
0000
0310
0000
0100
2000
0010
0000
0000
0001
3000
0000
0001
0000
,
1200
0000
0000
0000
0301
0000
0100
0010
0000
0010
0001
0000
2000
0000
3100
0000
,
1000
0010
0000
0100
0000
0010
1000
0000
0001
0000
0010
0000
0100
1000
0002
0000
,
1003
0000
0000
0000
0000
0000
0010
0000
0000
0100
0000
0000
0001
0000
0000
0000
0000
0000
0000
0000
0000
0000
0000
0000
1000
0000
0000
0000
0010
0000
0000
0000
0100
0000
0000
0000
0001
0000
0000
0000
0000
0000
0000
0000
0000
0000
0000
0000
,
0001
0010
0100
1000
0000
0000
0001
0010
0100
1000
0010
0100
,
0001
0000
0000
0000
0010
0000
0000
0000
0100
0000
0000
0000
1000
0000
0000
0000
0000
0000
0000
0000
0000
0000
0000
0000
1100
0000
0000
0000
0000
0000
1000
0000
0000
0000
0000
0000
0010
0000
0000
0000
0000
0000
0100
0000
0000
0001
0000
0000
,
0000
0100
0001
0000
0010
0000
0100
0000
1000
0000
0010
0000
0100
0000
0001
1000
,
0001
0000
0000
0000
0010
0000
0000
0000
0100
0000
0000
0000
1000
0000
0000
0000
0000
0000
0000
0000
0000
0000
0000
0000
1010
0000
0000
0000
0000
0000
0001
0000
0000
0000
0000
0000
1000
0000
0000
0000
0000
0000
0100
0000
0000
0010
0000
0000
,
0000
0100
0010
0000
0001
0000
1000
0000
0010
0000
1000
0000
0100
0000
0010
0001
,
0100
0000
0000
0000
0010
0000
0000
0000
1000
0000
0000
0000
0001
0000
0000
0000
0000
0000
0000
0000
0000
0000
0000
0000
0101
0000
0000
0000
0000
0000
0010
0000
0000
0000
0000
0000
0100
0000
0000
0000
0000
0000
0001
0000
0000
1000
0000
0000
,
0000
1000
0100
0000
0010
0000
0001
0000
0100
0000
0010
0000
1000
0000
0001
1000
,
0000
0001
0010
0000
0100
0000
1000
0000
1001
0000
1000
0000
0001
0000
0010
0100
,
0000
0010
0001
0000
0100
0000
1000
0000
0001
0000
1000
0000
0010
0000
1000
0100
,
1000
0000
0000
0000
0010
0000
0000
0000
0100
0000
0000
0000
0001
0000
0000
0000
0000
0000
0000
0000
0000
0000
0000
0000
0010
0000
0000
0001
0000
0000
0000
0000
0000
0100
0000
0000
0000
0000
0000
0001
0000
0000
1000
0000
0000
0000
0000
0000
,
0100
0000
0010
0001
0000
1000
0010
0000
0100
0000
0010
0000
1000
0000
0001
0010
,
0000
0010
0001
0000
1000
0000
0100
0000
1000
0010
0000
0100
0000
0001
0010
0000
,
0001
0000
1000
0000
0100
1000
0020
0000
0130
0000
0001
0000
0010
0000
0001
1000
,
0001
0000
0000
0000
0010
0000
0000
0000
0100
0000
0000
0000
1000
0000
0000
0000
0000
0000
0000
0000
0000
0000
0000
0000
0110
0000
0000
0000
0000
0000
0001
0000
0000
0000
0000
0000
0100
0000
0000
0000
0000
0000
0010
0000
0000
1000
0000
0000
,
0000
1000
0001
0000
0100
0000
0100
0000
0001
0000
0010
0000
0100
0000
1000
0001
,
0000
0001
0100
0000
0010
0000
1000
0000
0100
0000
0010
0000
0100
0000
1000
0001
,
0000
0100
0001
0000
0010
0000
1000
0000
0100
0000
0010
0000
0001
0000
0100
0010
,
0000
1000
0001
1000
0001
0010
0100
1000
0010
0000
0010
0000
0010
1000
0001
1000
,
0100
0000
0010
0001
0000
0000
0000
0100
0010
0100
0000
0001
0000
1000
0100
1000
,
0010
0000
0100
0001
0000
0000
0000
0010
0001
0000
1000
0000
0100
0000
1000
0010
,
0100
0001
0010
0000
1001
0000
0000
0000
0010
0000
1000
0100
0000
0100
0010
0001
,
1000
0001
1010
0000
0101
0101
1001
0000
,
1100
0000
1100
0000
1001
0000
0000
0000
0010
0000
1000
0000
0100
0000
0010
0001
,
0000
0001
1000
0000
0110
0000
0000
0000
0001
0000
0100
0000
1010
0000
0000
0000
,
0001
1000
0100
1000
0001
0000
0000
0010
0001
1000
0010
1000
0100
0000
0010
0001
,
1000
0100
0010
0001
0000
0000
0001
0010
0100
1000
0000
0000
,
1000
0000
0000
0000
0010
0000
0000
0000
0100
0000
0000
0000
0001
0000
0000
0000
0000
0000
0000
0000
0000
0000
0000
0000
1001
0000
0000
0000
0000
0000
0000
0000
0000
0000
0000
0000
1001
0000
0000
0000
0000
0000
0100
0000
0000
0010
0000
0000
,
1000
0000
0000
0000
0010
0000
0000
0000
0100
0000
0000
0000
0001
0000
0000
1000
0000
0000
0001
0000
0000
1000
0000
0000
0200
0000
0000
0000
0000
0000
0000
0000
0000
0000
0000
0000
0310
0000
0000
0000
0000
0000
0001
0000
0000
0100
0000
0000
,
0001
0000
0010
0100
0000
0100
1000
0000
0020
0000
0000
0000
1030
0000
0001
0010
,
0001
0000
0000
0000
0010
0000
0000
0000
0100
0000
0000
0000
1000
0000
0000
0000
0000
0000
0000
0000
0000
0000
0000
0000
0021
0000
0000
0000
0000
0000
0000
0000
0000
0000
0000
0000
1030
0000
0000
0000
0000
0000
0010
0000
0000
0001
0000
0000
,
0100
0000
0010
1000
0000
1000
0001
0000
1020
0000
0000
0000
0130
0000
0001
1000
,
0001
0000
0000
0000
0010
0000
0000
0000
0100
0000
0000
0000
1000
0000
0000
0000
0000
0000
0000
0000
0000
0000
0000
0000
0010
0000
0000
1000
0000
0000
0000
0000
0000
0100
0000
0000
0000
0000
0000
0010
0000
0000
0001
0000
0000
0000
0000
0000
,
0100
0000
0010
1000
0000
1000
0001
0000
1200
0000
0000
0000
0310
0000
0001
1000
,
0001
0000
1000
0100
0000
0100
0010
0000
0001
0100
0000
0010
0000
1000
0100
0000
,
0010
0000
0001
0000
1000
0010
0100
0000
0001
0000
0010
0000
0100
0000
1000
0001
,
0100
0000
0000
0000
0010
0000
0000
0000
1000
0000
0000
0000
0001
0000
0000
0000
0000
0000
0000
0000
0000
0000
0000
0000
0010
0000
0000
0000
0000
0000
0002
0000
0000
0000
0000
0000
0000
0000
0000
2003
0000
0000
0000
0000
0000
0000
0000
0000
,
3020
0000
0000
2030
0000
0000
3002
0000
0000
0000
2003
0000
0000
3200
0000
0000
,
0320
0000
0000
0230
0000
0000
2300
0000
3001
1000
0000
0010
0000
1000
0100
0000
,
0010
0000
0000
0001
0000
0000
0100
0000
0000
1000
0000
0000
0001
0000
0010
0000
1000
0000
0001
0000
0100
0000
1000
0000
,
0001
0010
0100
1000
0000
0000
0000
0000
0000
0000
0000
0000
;

//---------------dance-single - ----------------
#NOTES:
     dance-single:
     :
     Hard:
     13:
     0.596591,0.646646,0.246562,0.092461,0.308202,542.000000,510.000000,32.000000,12.000000,0.000000,0.000000,0.596591,0.646646,0.246562,0.092461,0.308202,542.000000,510.000000,32.000000,12.000000,0.000000,0.000000:
0000
0000
0000
0000
,
0000
0000
0000
0000
,
0000
0000
0000
0000
,
0000
0000
0000
0000
,
0000
0000
0000
0000
,
0000
0000
0000
0000
,
0010
1000
0001
0000
0010
0100
1000
0000
,
0001
1000
0010
1000
0100
0010
0001
0000
,
0001
0010
0001
0010
0000
0000
0001
0010
0001
0010
0000
0000
,
1001
0000
0000
1001
0000
0000
1000
0010
1000
0010
0000
0000
,
0000
0000
0100
0000
0000
0010
0000
0000
1000
0000
0000
0001
0000
0000
1000
0000
,
0000
0000
0100
0000
0000
0010
0000
0000
0001
0000
0100
0000
0010
0000
0000
0000
,
0000
0000
1000
0000
0000
0001
0000
0000
1000
0000
0000
0100
0000
0000
0010
0000
,
0000
0000
0001
0000
0000
0100
0000
0000
0001
0000
1000
0000
0010
0000
0000
0000
,
0000
0000
1000
0000
0000
0001
0000
0000
1000
0000
0000
0100
0000
0000
0010
0000
,
0000
0000
0001
0000
0000
0100
0000
0000
0001
0000
0000
0000
2000
0000
3020
0000
,
0030
0000
0100
0000
0000
0001
0000
0000
1000
0000
0000
0100
0000
0000
0010
0000
,
0000
0000
0100
0000
0000
1000
0000
0000
0001
0000
0010
0000
0001
0000
0000
0000
,
1000
0001
0010
0001
0100
0010
1000
0000
,
0110
0000
0010
1000
0002
0000
0000
0000
,
0013
0001
1000
0001
0100
0000
0000
1010
,
0000
0000
0000
0001
0000
0000
0000
0000
0000
1000
0000
0000
0001
0000
0010
0000
0001
0000
0010
0000
0000
0000
0000
0000
,
0100
1000
0001
0010
0001
1000
0010
0000
,
1000
0001
0100
0000
0010
1000
0100
0000
,
0001
1000
0001
0010
1000
0001
0100
0000
,
0001
0010
0001
1000
0100
0010
1000
0000
,
0001
0100
0010
1000
0100
0010
1001
0000
,
1000
0001
1000
0010
0100
0001
0110
0000
,
0001
1000
1010
0000
0010
0100
0101
0000
,
1000
0100
0010
0001
0100
0010
1000
0000
,
1000
0100
0010
0001
1000
0100
0010
0001
,
0000
0000
0100
0000
0000
0010
0000
0000
1000
0000
0000
0001
0000
0000
0010
0000
,
0000
0000
0001
0000
0000
0100
0000
0000
0010
0000
1000
0000
0001
0000
0000
0000
,
0000
0000
1000
0000
0000
0001
0000
0000
0010
0000
0000
0001
0000
0000
0100
0000
,
0000
0000
0010
0000
0000
1000
0000
0000
0100
0000
0010
0000
0001
0000
0000
0000
,
0000
0000
0001
0000
0000
1000
0000
0000
1000
0000
0000
0010
0000
0000
0100
0000
,
0000
0000
0001
0000
0000
0010
0000
0000
0001
0000
0000
0000
2000
0000
3200
0000
,
0300
0000
0001
0000
0000
1000
0000
0000
0010
0000
0000
0010
0000
0000
0100
0000
,
0000
0000
0010
0000
0000
1000
0000
0000
0100
0000
0010
0000
0001
0000
0000
0000
,
0100
0010
1000
0001
0100
0010
1000
0000
,
1001
0000
0001
0100
2000
0000
0000
0000
,
3010
1000
0100
0010
0001
0000
0000
0101
,
0000
0000
0000
0010
0000
0000
0000
0000
0000
0100
0000
0000
1000
0000
0010
0000
1000
0000
0010
0000
0000
0000
0000
0000
,
1000
0001
0011
0000
0001
0100
1100
0000
,
0010
1000
0010
1000
0100
0010
0001
0000
,
0100
0001
0011
0000
0001
1000
0110
0000
,
1000
0010
1000
0001
0010
0100
1000
0000
,
0001
0010
0100
1000
0001
0100
0010
1000
,
0000
0000
0010
0000
0000
0001
0000
0000
1000
0000
0000
0001
0000
0000
0100
0000
,
0000
0000
0001
0000
0000
1000
0000
0000
0100
0000
0010
0000
0100
0000
0000
0000
,
0000
0000
1000
0000
0000
0001
0000
0000
1000
0000
0000
0100
0000
0000
0010
0000
,
0000
0000
0010
0000
0000
0001
0000
0000
0100
0000
0000
0000
2000
0000
3002
0000
,
0013
0001
0100
0001
1000
0000
0000
0010
,
1000
0000
0000
0001
0000
0000
0100
0000
0000
0000
0000
0000
0001
0000
0010
0000
0001
0000
0010
0000
0000
0000
0000
0000
,
1000
0010
1000
0010
0000
0000
1100
0000
0000
0101
0000
0000
,
1000
0000
0000
0000
0010
0000
0000
0000
1000
0000
0000
0000
0010
0000
0000
0000
0000
0000
0000
0000
0000
0000
0000
0000
0000
0000
0000
0000
0000
0000
1000
0000
0000
0000
0000
0000
0000
0000
0000
0010
0000
0000
0000
0000
0000
0000
0000
0000
,
1000
0000
0000
0100
0000
0000
0010
0000
0000
0000
0001
0000
0000
1000
0000
0000
,
0001
0000
0100
0000
0010
0000
0000
0000
0000
0000
0010
0000
0000
1000
0000
0000
,
0100
0000
0000
1000
0000
0000
0001
0000
0000
0000
0010
0000
0000
0001
0000
0000
,
0100
0000
0010
0000
1000
0000
0000
0000
0000
0000
0100
0000
0000
0100
0000
0000
,
1000
0000
0000
0001
0000
0000
1000
0000
0000
0000
0001
0000
0000
1000
0000
0000
,
0100
0000
0000
0000
0020
0000
0032
0000
0003
0000
0100
0000
0000
0001
0000
0000
,
0001
0000
0000
0010
0000
0000
0100
0000
0000
0000
1000
0000
0000
0001
0000
0000
,
0010
0001
0100
0000
1000
0001
1000
0100
,
0010
0001
1000
0000
1100
0000
1000
0100
,
0020
0000
0000
0000
0031
0100
0001
0010
,
1000
0000
0000
0101
0000
0001
0000
0100
,
0001
0000
0010
0000
0001
0000
0010
0000
0000
0000
0000
0000
1001
0000
0000
0000
0000
0000
0100
0000
0000
1000
0000
0000
,
0000
0001
0010
0000
0110
0000
0001
0010
,
0000
0100
1000
0000
1100
0000
0010
1000
,
0000
0100
0001
0000
0101
0000
0010
0000
,
0100
0001
1000
0001
0100
0010
1000
0001
,
0100
0010
0001
0000
1000
0001
1000
0010
,
0100
0010
0001
0000
0100
0010
1000
0100
,
0001
1000
0100
0000
1000
0010
1000
0100
,
0001
0010
0001
0000
0100
0010
1001
0000
,
1000
0100
0101
0000
0010
0001
1000
0010
,
1000
0001
0100
0000
0010
1000
0110
0000
,
1000
0010
1100
0000
0001
0010
0001
0100
,
0010
0000
0000
1000
0000
0000
0001
0000
0000
0000
0000
0000
1000
0000
0010
0000
1000
0000
0010
0000
0000
0000
0000
0000
,
0001
0010
0001
0010
0000
0000
1001
0000
0000
1001
0000
0000
,
1000
0000
0000
0000
0010
0000
0000
0000
1000
0000
0000
0000
0010
0000
0000
0000
0000
0000
0000
0000
0000
0000
0000
0000
0000
0000
0000
0000
0000
0000
1000
0000
0000
0000
0000
0000
0000
0000
0000
1000
0000
0000
0000
0000
0000
0000
0000
0000
,
0001
0000
0000
0100
0000
0000
0001
0000
0000
0000
0010
0000
0000
0001
0000
0000
,
1000
0000
0010
0000
0100
0000
0000
0000
0000
0000
0001
0000
0000
1000
0000
0000
,
0100
0000
0000
1000
0000
0000
0010
0000
0000
0000
0100
0000
0000
0001
0000
0000
,
0010
0100
1000
0000
0010
1000
0001
1000
,
0100
0010
0001
0000
0011
0000
0001
1000
,
0200
0000
0000
0000
1300
0010
1000
0100
,
0001
0000
0000
1100
0000
0010
0000
0100
,
0001
0000
0000
0000
0010
0000
0000
0000
0001
0000
0000
0000
0010
0000
0000
0000
0000
0000
0000
0000
0000
0000
0000
0000
0000
0000
0000
0000
0000
0000
1000
0000
0000
0000
0000
0000
0000
0000
0000
0010
0000
0000
0000
0000
0000
0000
0000
0000
,
1000
0000
0000
0001
0000
0000
0100
0000
0000
0000
0001
0000
0000
0010
0000
0000
,
0100
0000
0000
1000
0000
0000
0010
0000
1000
0000
0010
0000
1000
0000
0001
0000
,
0100
0010
1000
0000
0101
0000
1100
0000
,
0001
0010
0100
1000
0000
0000
0000
0000
0000
0000
0000
0000
;

//---------------dance-single - ----------------
#NOTES:
     dance-single:
     :
     Medium:
     10:
     0.493123,0.538872,0.369842,0.261972,0.000000,448.000000,400.000000,48.000000,34.000000,0.000000,0.000000,0.493123,0.538872,0.369842,0.261972,0.000000,448.000000,400.000000,48.000000,34.000000,0.000000,0.000000:
0000
0000
0000
0000
,
0000
0000
0000
0000
,
0000
0000
0000
0000
,
0000
0000
0000
0000
,
0000
0000
0000
0000
,
0000
0000
0000
0000
,
0010
1000
0100
0001
,
1000
0000
0010
1000
0100
0000
0000
0000
,
1100
0010
0101
0010
,
1001
0000
1001
0000
0010
1000
0100
0000
,
0001
0000
1000
0100
2000
0000
3000
0000
,
0010
0000
1000
0001
1000
0000
1010
0000
,
0100
0000
0001
0010
0002
0000
0003
0000
,
1000
0000
0100
0010
0100
0000
0110
0000
,
0001
0000
1000
0010
2000
0000
3000
0000
,
0100
0000
1000
0001
1000
0000
0010
0100
,
0010
0000
0100
0001
0200
0000
0300
0000
,
0010
0000
1000
0001
1000
0000
0101
0000
,
0001
0000
0010
0100
1000
0000
0000
0000
,
0110
0000
1000
0001
2000
0000
3000
0000
,
0001
0000
1000
0001
0100
0000
0000
0011
,
0000
0000
0000
0000
1000
0001
0010
0000
,
0001
0010
0001
1000
,
0010
0000
0100
0000
0010
1000
0001
0000
,
1000
0100
0010
0000
0001
0100
0001
0000
,
1000
0001
1000
0000
0001
0010
0100
0000
,
1000
0000
1010
0000
0001
0100
1000
0000
,
0010
0100
0001
0000
1000
0100
0010
0000
,
0001
1000
0001
0000
0100
0010
1000
0000
,
0001
0100
1000
0100
0001
0000
0000
0000
,
0010
1100
0010
1100
,
0001
0000
0100
0010
2000
0000
3000
0000
,
1000
0000
0001
0010
0100
0000
0110
0000
,
0010
0000
0001
0100
0020
0000
0030
0000
,
1000
0000
0010
1000
0100
0000
1001
0000
,
0010
0000
0001
1000
0002
0000
0003
0000
,
1000
0000
0010
0100
0001
0000
1000
0001
,
1000
0000
0100
0010
0002
0000
0003
0000
,
0100
0000
0010
1000
0001
0000
1100
0000
,
0010
0000
1000
0001
0100
0000
0000
0000
,
0011
0000
1000
0001
0200
0000
0300
0000
,
0010
0000
1000
0100
0001
0000
0000
1001
,
0000
0000
0000
0000
0100
0010
1000
0000
,
0001
0011
1000
1010
,
0001
1000
0100
0000
1000
0001
0100
0000
,
0010
0110
0010
1001
,
0001
0010
1000
0010
0001
0000
0000
0000
,
1100
0000
0110
0000
0011
0000
1000
0001
,
1000
0000
0010
0100
0002
0000
0003
0000
,
0010
0000
0001
1000
0001
0000
0110
0000
,
1000
0000
0010
1000
0200
0000
0300
0000
,
0010
0000
0001
1000
0001
0000
1000
0100
,
0010
0000
0001
1000
0010
0000
0000
0110
,
0000
0000
0010
1100
,
0010
0101
0010
1001
,
0010
1000
0100
0000
2000
0000
3001
1000
,
0200
0000
0300
0000
0020
0000
0031
1000
,
0100
0000
0011
0000
0200
0000
0301
0010
,
0002
0000
0003
0000
2000
0000
3001
1000
,
0001
0000
1100
0000
2000
0000
3001
1000
,
0020
0000
0030
0000
0200
0000
0301
0010
,
0002
0000
1003
0010
0200
0000
0310
1000
,
0002
0000
0003
0000
2000
0000
3100
0010
,
0001
0000
0101
0000
1000
0000
0100
0001
,
0010
0000
0000
0000
1001
0000
1000
0100
,
0020
0000
0030
0000
0001
0000
1000
0010
,
0100
0000
0000
1010
0000
0000
0000
0000
,
1000
0100
0010
0000
0001
0000
0100
0000
,
0010
1000
0100
0010
,
0100
1000
0010
1000
,
0001
0100
0001
0010
,
0001
1000
0001
1000
0001
0000
0010
0001
,
1000
0010
0100
0000
0010
1000
0001
0000
,
1000
0100
0010
0000
0011
0000
1100
0000
,
0010
1000
0001
0000
1000
0001
1000
0000
,
0100
0010
0001
0000
0100
0000
0101
0000
,
0100
0000
1100
0000
0001
1000
0001
0000
,
0010
0100
1000
0000
0010
0000
1001
0000
,
0100
0000
1001
0000
0001
0100
1000
0100
,
0001
0000
0010
1010
,
0010
0101
1001
1001
,
0010
1000
0100
0000
2000
0000
3001
0010
,
0002
0000
0003
0000
0200
0000
0310
1000
,
0001
0000
1100
0000
0020
0000
0031
0100
,
0020
0000
0030
0000
2000
0000
3001
1000
,
0010
0000
1001
0000
0010
0000
0001
0100
,
0001
0000
0000
0000
1010
0000
1000
0100
,
0020
0000
0030
0000
0001
0000
0100
0010
,
1000
0000
0000
0110
0000
0000
0000
0000
,
0001
0010
1000
0000
1000
0000
0100
0000
,
0001
0010
0100
0001
,
0010
0000
1000
0000
0001
1000
0010
1000
,
0001
0000
0000
0200
0000
0000
0000
0000
,
0310
0100
1000
0000
0000
0000
0000
0000
;

//---------------dance-single - ----------------
#NOTES:
     dance-single:
     :
     Easy:
     7:
     0.376447,0.467022,0.323612,0.215741,0.000000,342.000000,300.000000,42.000000,28.000000,0.000000,0.000000,0.376447,0.467022,0.323612,0.215741,0.000000,342.000000,300.000000,42.000000,28.000000,0.000000,0.000000:
0000
0000
0000
0000
,
0000
0000
0000
0000
,
0000
0000
0000
0000
,
0000
0000
0000
0000
,
0000
0000
0000
0000
,
0000
0000
0000
0000
,
0010
1000
0001
0100
,
0001
0010
1000
0000
,
1100
0000
0101
0000
,
0010
0010
2000
3002
,
0103
0010
2000
3000
,
0001
0010
1000
1001
,
0010
0100
0002
0003
,
0010
0001
0100
0110
,
0001
1000
0020
0030
,
1000
0001
0100
1010
,
1000
0001
0200
0300
,
0010
1000
0001
0011
,
0100
0010
1000
0000
,
0001
0010
0200
0300
,
1000
0010
0100
0000
,
0001
0000
1001
0110
,
0010
0001
0100
0001
,
0010
0100
1000
0010
,
1000
0001
1000
0100
,
0010
0001
0010
0100
,
1000
0001
0100
1010
,
0001
0010
0100
0011
,
1000
1100
0001
0101
,
0010
0100
0002
2003
,
3001
0101
1000
1010
,
0010
0100
0002
0003
,
0010
0001
0100
1001
,
1000
0100
0020
0030
,
0001
0100
1000
1100
,
0100
0010
0002
0003
,
0010
0001
0100
0011
,
1000
0001
2000
3000
,
0100
0010
0001
0110
,
0010
0001
0100
0000
,
1000
0010
2000
3000
,
0100
0010
0001
0000
,
0100
0000
1001
0110
,
1000
0100
1000
0010
,
1000
0001
0100
0010
,
1000
0001
1000
0100
,
0010
0001
0101
1100
,
0001
0001
0001
0001
,
0010
0001
2000
3000
,
0100
1000
0010
1010
,
0001
0010
0200
0300
,
0010
0001
1000
0011
,
0010
0100
1000
0000
,
0001
0000
0011
0000
,
1010
0000
0010
0010
,
2000
3002
1003
0100
,
0020
0030
0001
0010
,
1000
1100
0010
0100
,
0002
0003
0010
0001
,
1000
0101
1000
0100
,
0020
0030
0001
0100
,
0010
0110
1000
0001
,
2000
3000
0001
0010
,
0100
1001
0010
1000
,
0001
0000
0010
0100
,
2000
3000
0001
0100
,
0001
0000
1000
0000
,
1001
0110
1000
0100
,
0001
0000
0010
0001
,
0100
0000
0001
1000
,
0010
0000
0100
0010
,
1000
0000
0001
0001
,
0010
0100
1000
0001
,
1000
0010
0100
0010
,
1000
0100
0010
0001
,
0100
1000
0010
0010
,
1000
0001
1000
0100
,
0010
0001
0100
0100
,
0010
1000
0001
0100
,
0101
1010
1100
0000
,
0011
0000
0010
0010
,
0002
2003
3010
1000
,
0200
0300
1000
0010
,
0100
0110
0001
0010
,
0002
0003
1000
0100
,
0010
1001
0100
0010
,
1000
0000
0100
0010
,
0002
0003
0100
0001
,
0010
0000
0100
0000
,
1100
0011
0000
1000
,
0000
1000
0000
0001
,
0000
0001
0010
0100
,
1000
0000
1010
0101
,
0001
1000
0000
0000
;

//---------------dance-single - ----------------
#NOTES:
     dance-single:
     :
     Beginner:
     5:
     0.211339,0.287398,0.123281,0.000000,0.000000,192.000000,176.000000,16.000000,0.000000,0.000000,0.000000,0.211339,0.287398,0.123281,0.000000,0.000000,192.000000,176.000000,16.000000,0.000000,0.000000,0.000000:
// measure 0
0000
0000
0000
0000
,  // measure 1
0000
0000
0000
0000
,  // measure 2
0000
0000
0000
0000
,  // measure 3
0000
0000
0000
0000
,  // measure 4
0000
0000
0000
0000
,  // measure 5
0000
0000
0000
0000
,  // measure 6
0010
0000
0100
0000
,  // measure 7
0001
0000
1000
0000
,  // measure 8
1001
0000
0110
0000
,  // measure 9
0000
0000
1000
1000
,  // measure 10
1000
0000
0001
0000
,  // measure 11
0010
0000
0100
0000
,  // measure 12
1000
0000
0010
0000
,  // measure 13
0100
0000
0001
0000
,  // measure 14
0010
0000
0001
0000
,  // measure 15
0100
0000
1000
0000
,  // measure 16
0001
0000
0001
0000
,  // measure 17
1000
0000
0100
0000
,  // measure 18
0010
0000
0010
0000
,  // measure 19
0001
0000
0100
0000
,  // measure 20
1000
0000
1000
0000
,  // measure 21
0010
0000
1001
0000
,  // measure 22
0001
0000
1000
0000
,  // measure 23
0100
0000
0010
0000
,  // measure 24
0100
0000
1000
0000
,  // measure 25
0010
0000
0100
0000
,  // measure 26
0001
0000
0110
0000
,  // measure 27
1000
0000
0110
0000
,  // measure 28
0001
0000
0010
0000
,  // measure 29
0001
0000
1001
0000
,  // measure 30
0010
0000
0010
0000
,  // measure 31
0010
0000
1000
0000
,  // measure 32
0010
0000
0100
0000
,  // measure 33
0001
0000
1000
0000
,  // measure 34
0001
0000
0010
0000
,  // measure 35
0001
0000
0100
0000
,  // measure 36
0010
0000
1000
0000
,  // measure 37
0100
0000
0100
0000
,  // measure 38
0100
0000
0010
0000
,  // measure 39
0001
0000
0001
0000
,  // measure 40
1000
0000
0010
0000
,  // measure 41
0100
0000
0100
0000
,  // measure 42
0010
0000
0110
0000
,  // measure 43
0001
0000
1000
0000
,  // measure 44
0010
0010
0010
0000
,  // measure 45
1000
0000
0100
0000
,  // measure 46
0001
0000
1001
0000
,  // measure 47
0010
0010
0010
0000
,  // measure 48
1000
0000
0001
0000
,  // measure 49
1000
0000
0001
0000
,  // measure 50
0010
0000
0100
0000
,  // measure 51
0010
0000
0100
0000
,  // measure 52
1000
0000
0001
0000
,  // measure 53
0100
0000
1001
0000
,  // measure 54
0110
0000
0001
0001
,  // measure 55
0001
0000
0100
0000
,  // measure 56
0010
0000
0100
0000
,  // measure 57
0001
0000
0010
0000
,  // measure 58
0100
0000
1000
0000
,  // measure 59
0010
0000
1000
0000
,  // measure 60
0001
0000
1000
0000
,  // measure 61
0100
0000
0010
0000
,  // measure 62
0100
0000
0010
0000
,  // measure 63
0001
0000
0100
0000
,  // measure 64
0100
0000
0001
0000
,  // measure 65
1000
0000
0100
0000
,  // measure 66
0100
0000
0010
0000
,  // measure 67
0110
0000
0001
0000
,  // measure 68
0000
0000
1000
0000
,  // measure 69
0000
0000
0010
0000
,  // measure 70
0000
0000
0100
0000
,  // measure 71
0000
0000
0001
0001
,  // measure 72
0001
0000
1000
1000
,  // measure 73
1000
0000
0100
0000
,  // measure 74
0010
0000
0100
0000
,  // measure 75
1000
0000
0010
0000
,  // measure 76
1000
0000
0100
0100
,  // measure 77
0100
0000
1000
0000
,  // measure 78
0001
0000
0100
0000
,  // measure 79
1001
0000
1001
0000
,  // measure 80
0110
0000
0000
0000
,  // measure 81
1000
1000
1000
0000
,  // measure 82
0001
0000
1000
0000
,  // measure 83
0100
0000
0010
0000
,  // measure 84
0001
0000
0100
0000
,  // measure 85
0010
0000
1000
0000
,  // measure 86
1000
0000
0100
0000
,  // measure 87
1000
0000
0010
0000
,  // measure 88
0100
0000
0001
0000
,  // measure 89
1001
0000
0110
0000
,  // measure 90
0000
0000
1000
0000
,  // measure 91
0000
0000
0100
0000
,  // measure 92
0100
0000
1000
0000
,  // measure 93
1000
1000
0000
0000
;
