#TITLE:GAIA;
#ARTIST:猫叉L.E.D.Master+;
#ARTISTTRANSLIT:Nekomata L.E.D.Master+;
#BANNER:GAIA.png;
#BACKGROUND:GAIA-bg.png;
#JACKET:GAIA-jacket.png;
#MUSIC:GAIA.ogg;
#SAMPLESTART:87.962;
#SAMPLELENGTH:20;
#DISPLAYBPM:90:180;
#BPMS:0=180,142=90,143=180,156=90,157=180;
#STOPS:149=0.167,149.5=0.167;
#BGCHANGES:;

//---------------dance-single - ----------------
#NOTES:
     dance-single:
     :
     Beginner:
     3:
     :
0000
0000
0000
0000
,
0000
0000
0000
0000
,
0000
0000
0000
0000
,
0000
0000
0000
0000
,
0000
0000
0000
0000
,
0000
0000
0000
0000
,
1000
0000
1000
0000
,
0010
0000
0010
0000
,
0100
0000
0100
0000
,
0001
0000
0001
0000
,
0020
0000
0030
0000
,
0200
0000
0300
0000
,
2000
0000
3000
0000
,
0002
0000
0003
0000
,
0010
0000
0010
0000
,
0100
0000
0100
0000
,
0001
0001
0001
0000
,
1000
1000
1000
0000
,
0010
0000
0000
0000
,
0100
0000
0000
0000
,
0001
0000
0000
0000
,
1000
0000
0000
0000
,
0010
0000
0010
0000
,
0100
0000
0100
0000
,
0001
0000
0001
0000
,
1000
0000
1000
0000
,
0010
0010
0010
0000
,
0010
0010
0010
0000
,
0010
0010
0010
0000
,
0010
0010
0010
0000
,
0100
0100
0100
0000
,
0100
0100
0100
0000
,
0100
0100
0100
0000
,
0100
0100
0100
0000
,
0001
0000
0001
0000
,
1000
0000
1000
0001
,
0000
0001
0000
1000
,
0000
1000
0010
0000
,
0010
0000
0100
0000
,
0100
0010
0000
0010
,
0000
0100
0000
0100
,
0000
0110
0000
0000
,
0000
0000
0000
0000
,
0000
1001
0000
0000
,
0000
0000
0000
0000
,
0000
0110
0000
0000
,
0000
0000
0000
0000
,
0000
1001
0000
0000
,
0000
0000
0000
0000
,
0000
0110
0000
0000
,
0000
0000
0000
0000
,
0000
0110
0000
0000
,
0000
0000
0000
0000
,
0000
1001
0000
0000
,
0000
0000
0000
0000
,
0000
1001
0000
0000
,
0000
0000
0000
0000
,
0000
0001
0001
0001
,
0000
0001
0001
0001
,
0000
0010
0010
0010
,
0000
0010
0010
0010
,
0000
0100
0100
0100
,
0000
0100
0100
0100
,
0000
1000
1000
1000
,
0000
1000
1000
1000
,
0000
0010
0000
0010
,
0000
0100
0000
0000
,
0000
0010
0000
0010
,
0000
0100
0000
0000
,
0000
0100
0000
0100
,
0000
0010
0000
0000
,
0000
0100
0000
0100
,
0000
0110
0000
0000
,
0000
0001
0000
0001
,
0000
1000
0000
0000
,
0000
0001
0000
0001
,
0000
1000
0000
0000
,
0000
1000
0000
1000
,
0000
0001
0000
0000
,
0000
1000
0000
1000
,
0000
1001
0000
0000
,
0000
0110
0000
0000
,
0000
0000
0000
0000
,
0000
1001
0000
0000
,
0000
0000
0000
0000
,
0000
0110
0000
0000
,
0000
0000
0000
0000
,
0000
1001
0000
0000
,
0000
0200
0000
0000
,
0300
0000
0000
0000
,
0000
0000
0000
0000
;

//---------------dance-single - ----------------
#NOTES:
     dance-single:
     :
     Easy:
     10:
     :
0000
0000
0000
0000
,
0000
0000
0000
0000
,
0000
0000
0000
0000
,
0000
0000
0000
0000
,
0000
0000
0000
0000
,
0000
0000
0000
0000
,
0010
1000
0100
0010
,
0002
0000
2003
0000
,
3001
0010
0100
1000
,
0020
0030
1001
0000
,
0010
0010
0001
0001
,
0100
0100
0010
0010
,
1000
0100
0001
0100
,
1000
1000
0001
0001
,
0100
1000
0100
0001
,
0010
0010
0100
0100
,
0010
1001
0100
1001
,
0010
0100
0010
0100
0010
0000
0110
0000
,
1000
1000
0100
0000
0010
0000
0100
0000
,
1000
1000
0010
0000
0100
0000
0010
0000
,
0100
0100
0010
0000
0100
0000
0001
0000
,
0010
0010
0001
0000
0100
0000
0110
0000
,
0000
0010
0100
0010
,
0001
0001
0100
0000
0010
0000
0100
0000
,
0010
0010
0100
0000
0010
0000
1000
0000
,
0100
0100
1000
0000
0010
0000
0110
0000
,
0002
0013
0002
0103
,
0002
0000
0013
0000
0100
1000
0010
0000
,
2000
3010
2000
3100
,
2000
0000
3010
0000
0100
0100
0010
0010
,
2000
3010
0200
0301
,
0020
0000
0031
0000
0100
0001
0001
0000
,
0002
0013
0200
1300
,
0020
0000
1030
0000
0100
1000
1000
0000
,
0001
0100
0010
0000
1000
0000
0100
0000
,
1000
0100
0010
0000
0020
0000
0031
0010
,
0100
0000
1000
0000
0010
0000
1000
0010
,
0100
0000
0000
0000
0000
0000
0000
0000
0000
0000
0000
0000
0000
0000
0000
0000
0000
0000
0000
0000
0000
0000
0000
0000
0002
0003
0000
0000
0000
0000
0000
0000
0000
0000
0000
0000
2000
3000
0000
0000
0000
0000
0000
0000
0000
0000
0000
0000
0001
0000
0000
0000
0000
0000
0000
0000
0000
0000
0000
0000
1000
0000
0000
0000
0000
0000
0000
0000
0000
0000
0000
0000
0100
0000
0000
0000
0000
0000
0000
0000
0000
0000
0000
0000
0000
0000
0000
0000
0000
0000
0000
0000
0000
0000
0000
0000
,
0010
0000
0100
0000
1000
0001
0100
0000
,
0020
0000
1030
0001
0100
0000
0010
0000
,
0100
0000
0001
1000
0100
0000
0010
0000
,
0100
0000
1000
0010
1000
0010
0000
0000
,
1001
0010
1000
0100
,
0001
0000
1000
0100
1000
0100
0000
0000
,
1001
0010
0001
0100
,
1000
0000
0010
0100
0010
0100
0000
0000
,
1001
0100
0001
0010
,
1000
0000
0100
0010
0100
0010
0000
0000
,
1001
0100
0001
0010
,
1000
0000
0001
0000
0000
0002
0000
0000
,
0000
0000
0000
0000
,
0003
0000
1000
0000
0000
2000
0000
0000
,
0000
0000
0000
0000
,
3000
0000
0010
0000
0000
0020
0000
0000
,
0000
0000
0000
0000
0000
0030
0000
0000
,
0000
0000
0100
0000
0000
0200
0000
0000
,
0000
0000
0000
0000
0000
0000
0010
0010
,
0310
1000
1000
1000
,
1000
0001
0001
0001
,
0001
0010
0010
0010
,
0010
0100
0100
0100
,
0100
0000
1000
0010
1000
0000
0010
0000
,
1000
0000
0001
0010
0001
0000
0010
0000
,
0001
0000
0100
0001
0100
0000
0001
0100
,
0001
0000
1000
0100
1000
0000
0100
1000
,
0100
0010
0001
0010
,
0100
0010
0010
0100
,
0100
1000
0010
0100
,
0010
0100
0100
0010
,
0010
1000
0010
1000
,
0100
0010
0010
0100
,
0100
0000
0000
0000
0000
0000
0110
0000
0000
0110
0000
0000
0110
0000
0000
0110
,
0000
0000
0110
0000
0000
0110
0000
0000
0110
0000
0000
0000
0001
0000
1000
0000
,
0001
1000
0001
0000
1000
0000
0100
0000
,
0010
0100
0100
0010
,
0010
0001
0100
0010
,
0100
0010
0010
0100
,
0100
0001
0100
0001
,
0010
0100
0100
0010
,
0010
0000
0001
0010
0001
0000
0100
0001
,
0100
0000
0010
1000
0010
0000
1000
0100
,
0010
0001
0100
0000
0000
0100
0000
0000
,
0000
0000
0000
0200
,
0000
0000
0010
0000
0000
0310
0000
0000
,
0000
0000
0000
0020
,
0000
0000
0100
0000
0000
0130
0000
0000
,
0000
0000
0000
0000
,
0000
0000
0001
0000
0000
1000
0000
0000
,
0000
0000
0001
1000
0001
1000
0010
0100
,
0010
0000
0000
0000
,
0000
0000
0000
0000
;

//---------------dance-single - ----------------
#NOTES:
     dance-single:
     :
     Medium:
     13:
     :
0000
0000
0000
0000
,
0000
0000
0000
0000
,
0000
0000
0000
0000
,
0000
0000
0000
0000
,
0000
0000
0000
0000
,
0000
0000
0000
0000
,
0110
0000
0000
0000
0000
0000
0000
0101
,
0000
0000
0000
0000
0000
0000
0000
0110
,
1001
0000
0000
0000
0000
0000
0000
1010
,
0000
0001
0100
0010
0000
0010
1000
0001
,
0100
0001
0001
1001
,
1100
1000
1000
1001
,
0100
0001
0100
0000
0010
1000
0001
0000
,
0010
0100
0010
0001
0000
1000
0001
0100
,
0001
0000
1100
0000
0010
0100
0001
1000
,
0000
1000
0000
0100
0010
0000
1100
0000
,
0001
0100
0001
0100
0010
1000
0010
1000
,
0100
0000
0010
0000
0001
0000
1000
0000
0001
0100
0001
0000
0020
0000
0030
0000
,
0001
1000
0010
0100
0001
1000
0010
0100
,
0001
0010
0001
1000
0010
0100
0010
0000
,
1000
0010
0100
0010
1000
0001
0100
0010
,
1000
0100
0010
0001
0100
0100
0010
0010
,
0000
0100
1001
0000
0001
0100
0010
1000
,
0100
0010
0001
0010
0100
1000
0001
0000
,
1000
0010
0100
0001
0010
0100
1000
0001
,
0010
0001
1000
0010
1000
0001
0200
0000
,
0310
0010
0000
0010
1000
0001
0010
0100
,
0010
0010
0000
0100
0010
0001
1000
0010
,
0100
0100
0000
1000
0100
0100
0000
0001
,
0100
0100
0010
0100
0001
0100
0100
0000
,
0010
0010
0000
0010
1000
0001
0010
0100
,
0010
0010
0000
0100
0010
0001
1000
0010
,
0100
0100
0000
1000
0100
0100
0000
0001
,
0100
0100
0010
0100
0001
0100
0100
0000
,
0001
1000
0010
0000
1000
0100
1000
0100
,
1000
0001
0010
0001
1000
0100
0010
0001
,
0100
0000
0010
1000
0010
1000
0001
0100
,
0001
1000
0001
0110
1000
0001
0010
0000
,
0001
0100
0001
0100
0010
1000
0100
0010
,
0001
0100
0010
0100
0001
1000
0100
0010
,
0001
0100
0010
0100
0001
1000
0100
1000
,
0001
0010
0200
0000
1000
1000
0000
0310
,
0001
0010
0200
0000
1000
1000
0000
0310
,
0001
0100
0002
0000
0003
2020
3000
0130
,
0010
1000
0001
0100
0001
0010
0001
1000
,
0010
0000
0200
0000
0001
0001
0000
0310
,
1000
0010
0200
0000
0001
0001
0000
0310
,
1000
0100
2000
0000
3000
0022
0003
0130
,
0010
0001
1000
0100
1000
0010
1000
0001
,
0100
0010
0210
0000
0000
0310
0000
0000
,
0000
0000
0001
0000
0000
0010
0000
0000
,
0000
0010
0210
0000
0000
0310
0000
0000
,
0000
0000
0001
0000
0000
0100
0000
0001
,
1000
0010
0210
0000
0000
0310
0000
0000
,
0000
0000
1000
0000
0000
0001
0000
0000
,
0000
0010
0210
0000
0000
0310
0000
0000
,
0000
0000
0000
0000
,
0000
0010
0010
0010
,
0010
0010
0010
0010
,
0010
0100
0001
0000
0001
0000
1000
0000
,
1000
0010
1000
0001
,
0100
0000
0001
0010
0001
0000
1000
0010
,
1000
0000
0001
0010
0100
0000
1000
0010
,
0100
0000
0001
0010
0001
0010
0100
1000
,
0100
0000
1000
0000
0001
0100
0001
0000
1000
0100
1000
0000
0001
0000
1000
0000
,
0010
0000
0100
0010
0100
0010
1000
0100
,
0010
0100
1000
0100
0010
0001
0010
0100
,
1000
0100
0001
0010
0100
1000
0100
0010
,
0001
1000
0100
0010
0001
0010
0100
1000
,
0100
0010
1000
0100
0010
0001
0100
0010
,
1000
0001
0010
0100
1000
0100
0010
0001
,
0100
0000
0010
0000
1000
0000
1001
0000
0000
1100
0000
0000
0110
0000
0000
0011
,
0000
0000
0110
0000
0000
1010
0000
0000
0110
0000
0000
0101
0000
0000
1000
0000
,
0001
1000
0100
0010
0001
0010
0100
1000
,
0100
0010
0001
0100
0010
1000
0100
0010
,
0001
0100
1000
0100
0010
0001
0100
0010
,
1000
0100
0010
0001
0010
0100
1000
0100
,
0010
0100
0001
0010
0100
0010
0001
1000
,
0100
0010
0100
1000
0001
0010
0100
1000
,
0010
0100
1001
0001
0100
0001
0010
0001
,
0100
0001
1000
0010
1000
0100
1000
0010
,
1000
0010
0210
0000
0000
0310
0000
0000
,
0000
0000
0000
0000
,
0000
0010
0210
0000
0000
0310
0000
0000
,
0000
0000
0000
0000
,
0000
0010
0210
0000
0000
0310
0000
0000
,
0000
0000
0000
0000
,
0000
0010
0210
0000
0000
0310
0000
0000
,
0000
0000
1000
0100
0010
0001
1000
0100
,
0020
0000
0000
0000
,
0030
0000
0000
0000
,
0000
0000
0000
0000
;

//---------------dance-single - ----------------
#NOTES:
     dance-single:
     :
     Hard:
     16:
     :
0000
0000
0000
0000
,
0000
0000
0000
0000
,
0000
0000
0000
0000
,
0000
0000
0000
0000
,
0000
0000
0000
0000
,
0000
0000
0000
0000
,
0010
0000
1000
0000
,
0001
0000
0100
0000
,
0001
0000
1000
0000
,
0010
0000
0100
0000
,
0010
1000
0001
0100
,
0001
1000
0010
0100
,
0010
0010
1000
0000
0001
0001
0100
0000
,
0001
0001
1000
0000
0010
0010
0100
0000
,
0010
0010
1000
1000
0001
0001
0100
0100
,
0001
0001
1000
1000
0010
0010
0100
0100
,
0010
1000
0001
0100
0001
1000
0010
0100
,
0010
1000
0001
0100
0001
1000
0010
0100
0010
1000
0001
0100
0010
0000
0000
0000
,
1000
0100
1000
0100
0010
0001
0010
0010
,
0001
0100
0001
0100
0010
1000
0010
0010
,
1000
0100
0010
0001
0010
0100
0010
0010
,
0001
0100
0010
1000
0010
0100
0010
0010
,
1000
1000
0010
0100
0001
0010
0100
0100
,
1000
0100
0010
0001
0100
0010
0100
0100
,
0001
0010
0100
1000
0100
0010
0100
0100
,
1000
0000
0100
0000
0010
0000
0001
0000
0100
0010
0100
0010
0100
0000
0000
0000
,
0001
0000
1000
0000
0001
0100
0001
0000
0010
0100
1000
0000
0010
0100
0001
0000
,
1000
0010
0100
0001
1000
0001
1000
0000
,
0100
0000
0010
0000
0100
1000
0100
0000
1000
0100
0010
0000
0001
0100
0010
0000
,
1000
0010
1000
0000
0001
0100
0001
0000
0010
0000
0001
0000
1000
0000
0000
0000
,
0001
0000
1000
0000
0001
0010
0001
0000
0100
0010
1000
0000
0100
0010
0001
0000
,
1000
0010
0100
0000
0001
0100
0010
0000
1000
0000
0001
0000
1000
0000
0000
0000
,
0010
0000
0100
0000
0010
1000
0010
0000
1000
0010
0100
0000
0001
0010
0100
0000
,
1000
0100
1000
0000
0001
0010
0001
0000
0100
0000
0010
0000
1000
0000
0000
0000
,
0001
0010
0100
0010
0001
1000
0010
0100
,
0001
0000
1000
0000
0100
0010
0001
0000
0010
0010
0100
0100
1000
0000
0010
0000
,
0100
0010
1000
0001
0010
0100
1000
0001
,
0100
0010
1000
0000
0001
0000
1000
0000
0001
1000
0100
0000
1000
0100
0010
0000
,
0100
0010
0001
0000
0100
0010
1000
0000
0100
1000
0100
0000
1000
0001
1000
0000
,
0001
0000
0100
0000
0010
0000
1000
0000
0000
0000
0000
0000
0001
0000
0000
0100
0000
0000
0001
0000
0000
0000
0000
0000
1000
0000
0000
0010
0000
0000
1000
0000
0000
0000
0000
0000
0001
0000
0000
1000
0000
0000
0001
0000
0000
0000
0000
0000
,
0010
0100
0010
0000
0001
0100
0001
0000
1000
0100
0010
0000
0001
0100
0001
0100
,
0010
1000
0010
0000
1000
0000
0100
0000
1000
0000
0100
0000
0000
0000
1000
0000
,
1000
0000
0001
0100
0010
1000
0010
0010
,
1000
0000
0001
0100
0001
0100
0000
0001
,
0001
0000
1000
0100
0010
0001
0010
0010
,
0001
0000
0100
0010
0100
0010
0000
0100
,
0100
0000
0001
0010
0001
0001
1000
0100
,
1000
0000
0010
0100
0010
0100
0000
0010
,
0010
0000
1000
0010
1000
1000
0001
0100
,
0001
0100
0001
0000
1000
0001
0000
0000
,
0000
0000
0000
0000
,
0000
0000
0010
0000
0100
0010
0000
0000
,
0000
0000
0000
0000
,
0000
0000
1000
1000
0001
1000
0000
0001
,
0100
0000
0000
0000
,
0000
0000
0001
0001
1000
0001
0000
0000
,
0000
0000
0000
0000
0000
0000
0000
0000
0000
0000
0000
0000
0001
0100
0001
0100
,
0001
0100
0001
0100
0001
0000
1000
0000
0100
0000
1000
0000
1000
0000
0100
0000
,
0010
0000
0001
0000
0100
0000
0001
0000
0100
0001
0100
0000
0001
0010
0100
0010
,
0001
0000
1000
0010
1000
1000
0010
0100
,
0001
0000
0010
0000
0001
0000
0010
0001
0010
0000
0001
0100
0010
0100
0001
0000
,
0010
0000
0000
0000
0001
1000
0010
1000
0001
0000
1000
0010
1000
0010
1000
0000
,
0010
1000
0010
0000
1000
0001
0010
0001
1000
0000
0001
0000
1000
0100
0010
0100
,
1000
0000
0000
0000
0001
1000
0010
1000
0001
0000
1000
0010
1000
0010
1000
0000
,
0010
1000
0010
0000
1000
0001
0010
0001
1000
0000
0001
0000
1000
0100
0010
0100
,
1000
0001
0010
0000
0001
0000
0100
0001
0100
0000
0010
0000
1000
0100
1000
0000
,
0100
0000
0010
0000
0001
0010
0001
0000
1000
0010
1000
0000
0001
0100
0001
0000
,
1000
0100
1000
0000
0001
0000
0100
0010
1000
0000
0100
0000
0010
0001
0010
0000
,
0001
0100
0010
0000
1000
0100
0010
0000
0001
1000
0100
0000
1000
0001
0100
0000
,
0010
0100
0010
0100
0010
0000
0100
0010
1000
0010
0100
0001
0100
0000
0001
0000
,
1000
0001
0100
0000
0001
1000
0010
0000
1000
0001
0100
0000
0010
0100
0010
0000
,
0100
0010
0100
0001
1000
0100
0010
0000
0000
0001
0000
0000
0010
0000
0000
0100
,
0000
0000
1000
0000
0000
0010
0000
0000
0100
0000
0000
0010
0100
0000
0100
0000
,
0010
0000
0010
0000
1000
0010
1000
0001
0100
0000
0001
0010
0001
0010
0001
0000
,
0010
0001
0010
0000
0001
1000
0010
1000
0001
0000
1000
0000
0001
0100
0010
0100
,
0001
0000
1000
0000
0001
1000
0010
1000
0001
0000
1000
0010
1000
0010
1000
0000
,
0010
1000
0010
0000
1000
0001
0010
0001
1000
0000
0001
0000
1000
0100
0010
0100
,
1000
0001
0010
0000
0100
0000
1000
0100
0010
0001
0010
0000
0100
0000
0010
0000
,
0001
0100
0001
0000
0010
0100
0010
0000
0001
1000
0100
0000
1000
0001
0100
0000
,
0010
0100
0010
0000
0100
0000
0001
0000
1000
0000
0010
0000
1000
0000
0001
0000
,
0100
0000
0010
0000
0100
0001
1000
0010
1000
0001
0100
0010
0100
0001
1000
0010
,
0100
0001
0010
0100
1000
0000
0000
0000
0000
0000
0001
0000
0000
0000
0000
0000
,
0000
0000
0000
0000
0000
0000
0000
0000
0000
0000
0000
0000
0010
0100
0010
0100
,
0010
0100
0010
0100
0010
0000
0000
0000
0000
0000
0100
0000
0000
0000
0000
0000
,
0000
0000
0000
0000
0000
0000
0000
0000
0000
0000
0000
0000
0001
1000
0001
1000
,
0001
1000
0001
1000
0001
0000
0000
0000
0000
0000
1000
0000
0000
0000
0000
0000
,
0000
0000
0000
0000
,
0000
0000
0001
0000
0000
0100
0000
0000
,
0000
0000
0000
0000
0001
0100
0001
0100
0001
1000
0001
1000
0100
1000
0100
1000
,
0010
0000
0000
0000
,
0000
0000
0000
0000
;

//---------------dance-single - ----------------
#NOTES:
     dance-single:
     :
     Challenge:
     19:
     :
0000
0000
0000
0000
,
0000
0000
0000
0000
,
0000
0000
0000
0000
,
0000
0000
0000
0000
,
0000
0000
0000
0000
,
0000
0000
0000
0000
,
1001
0000
1100
0000
0001
0010
1000
0010
,
0001
0000
0100
0000
0010
0000
1000
0000
0100
0000
0010
0000
0001
0000
1000
0010
,
1000
0000
0011
0000
0001
1000
0100
0110
,
0010
0000
0001
0000
1000
0000
0010
0000
2000
0000
3200
0000
0320
0000
0031
1000
,
0100
0000
0000
0010
0001
0000
0000
1000
0001
0000
0000
0100
0010
0000
0000
0010
,
1000
0000
0000
1000
0100
0000
0000
1000
0010
0000
0000
0100
0001
0000
0010
0100
,
1000
0000
0000
1000
0001
0000
0000
0010
0001
0000
0000
0100
0010
0000
0000
0010
,
1000
0000
0000
0001
1000
0000
0000
0100
0010
0000
0000
0001
1000
0000
0010
0100
,
0001
0010
1000
0100
0010
0001
0100
0010
,
1000
0001
0010
1000
0100
0010
0001
1001
,
1001
0000
0010
1000
0100
0000
0010
0001
0100
0000
0001
1000
0100
0000
1000
0001
,
0010
0000
0001
1000
0001
0000
0100
0010
0100
0000
0010
1000
0002
0000
0103
0000
,
0110
0000
0010
0000
1000
0100
0010
0100
1000
0000
0010
0100
0001
0100
0010
1000
,
0000
1000
0001
0000
0010
0001
0010
0001
1000
0010
1000
0100
0010
0001
1000
0000
,
0010
0000
1000
0100
0010
0100
0010
0001
0100
0000
0001
1000
0001
0010
0100
0010
,
0001
0000
0100
0001
0010
0100
1000
0010
1000
0000
0100
0010
0001
1000
0010
1000
,
0100
0000
0010
0001
1000
0001
0010
0100
1000
0010
1000
0100
1000
0001
0010
0000
,
0001
0100
0010
0100
0001
0010
0100
1000
0000
0010
1000
0001
1000
0100
0010
0001
,
0100
0000
0101
0000
1000
0001
0010
0001
0100
0000
0010
1000
0100
1000
0001
0000
,
0010
0100
1000
0100
0010
0100
0001
0100
0010
0100
1000
0100
0010
0001
0200
0000
,
0310
0000
1000
0000
0001
0100
0010
0000
1000
0100
0010
0001
1000
0001
0100
0010
,
1000
0000
0100
0010
0000
0010
0001
1000
0000
0100
1000
0001
0010
1000
0010
0001
,
0100
0000
0001
1000
0000
0100
0010
0001
0000
0001
1000
0000
0010
1000
0100
0010
,
0001
0100
0010
0100
0001
1000
0100
0010
0001
1000
0000
1100
0000
1100
0000
0010
,
0100
0000
1010
0000
0001
0010
1000
0010
0000
0001
0000
1000
0100
0010
1000
0010
,
0001
0000
0100
0001
0000
0010
0100
1000
0010
1000
0001
0000
1000
0100
0001
0100
,
0010
0000
0001
1000
0000
0100
1000
0001
0000
0010
0100
0010
0000
0001
1000
0000
,
0010
1000
0100
0001
0100
0010
0100
1000
0001
0100
0010
0001
0000
0110
0000
1000
,
0100
0000
0010
0000
0001
0100
0010
0000
1000
0100
1000
0001
0000
0010
0000
0001
,
0100
0000
0010
1000
0000
1000
0100
0010
0002
0023
0230
2300
3010
0000
0100
0001
,
1000
0001
1000
0100
0000
0010
0000
0110
0000
0110
0000
0001
0100
0010
1000
0100
,
1000
0001
0010
0100
2000
0000
3002
0000
0103
0000
0001
0010
0000
1000
0001
0010
,
0000
0001
0100
1000
0100
0010
1000
0001
0010
0100
0010
0100
1000
0001
0100
0010
,
1000
0000
0100
0000
1000
0000
2200
0000
0000
0000
3300
0000
0001
0000
0000
0000
0000
0000
0100
0000
0000
0010
0000
0000
0000
0000
0000
0010
0000
0000
1000
0000
0000
0001
0000
0000
0000
0000
0000
0010
0000
0000
0100
0000
0000
0000
0000
0000
,
1000
0001
0100
0000
0001
0010
0001
1000
0010
1000
0001
0100
0001
1000
0100
1000
,
0010
0100
0010
0100
0001
0000
1000
0100
0010
0100
1000
0000
0001
0100
0010
0100
,
0001
1000
0001
0010
0100
0000
1000
0001
0100
0010
1000
0000
0100
0010
0001
0100
,
0001
0010
0100
1000
0001
0010
0100
1000
0010
0100
0001
1000
0100
0010
0001
1000
,
0100
0010
0100
0010
0001
0100
0010
1000
0001
0010
0100
1000
0010
0100
0001
1000
,
0100
0010
0001
1000
0010
0000
1000
0100
0010
0001
0100
0010
1000
0001
1000
0000
,
0010
1000
0100
0010
0001
0100
0010
0100
1000
0100
0001
0010
1000
0010
0100
0001
,
0100
1000
0001
0100
0010
1000
0001
1000
0010
0100
0001
0010
0001
0100
0010
1000
,
0100
0010
0100
0010
0001
1000
0010
1000
0100
1000
0001
1000
0010
1000
0100
1000
,
0010
0100
0010
0100
0001
0010
0100
1000
0100
0010
0001
0000
0000
0000
0000
0000
,
0100
0010
0100
0010
1000
0001
1000
0001
0000
0010
0001
1000
0010
0100
0000
0001
,
1000
0100
1000
0001
1000
0100
0010
0001
0010
0100
1000
0000
0000
0000
0000
0010
,
1000
0001
1000
0100
0010
0001
1000
0010
0000
1000
0100
0010
0001
1000
0000
0100
,
1000
0010
1000
0001
1000
0100
0010
0001
0010
0100
1000
0000
0000
0010
0100
0001
,
0100
0010
1000
0100
1000
0001
1000
0001
0100
0010
0100
0010
1000
0001
0010
0001
,
0100
0010
1000
0100
0001
0010
0100
1000
0100
0010
0001
0000
0000
0000
0010
1000
,
0010
1000
0100
0001
0010
0000
0001
1000
0100
1000
0010
0100
0001
0010
0100
0010
,
0100
1000
0001
0100
0010
0000
1000
0100
0001
0100
1000
0000
1000
0100
0001
0100
,
1000
0100
0001
0100
1000
0000
0010
0100
1000
0100
0001
0100
0010
0001
0010
0100
,
0010
1000
0100
0010
0001
0000
0010
1000
0010
0100
0010
0001
0010
0000
0001
1000
,
0100
1000
0100
0010
0001
0100
0010
0100
0001
0010
0100
0010
0001
1000
0100
1000
,
0001
1000
0010
1000
0100
0000
0100
0010
1000
0010
0001
1000
0010
1000
0100
1000
,
0100
0010
0001
0100
0001
0010
0100
1000
0100
0010
0001
0100
0010
0100
0001
1000
,
0100
0010
0001
0000
1000
0100
0001
1000
0010
0001
1000
0100
0001
1000
0010
0001
,
1000
0100
0001
0000
0010
0001
1000
0010
1000
0100
0010
0001
0100
1000
0100
0010
,
0100
1000
0100
0001
0010
0000
0101
0000
1000
1000
0100
0010
0001
0000
0100
0100
,
0010
1000
0001
0000
0010
0001
0000
0001
0100
0010
1000
0100
1000
1000
0000
0010
,
1000
0100
0010
0001
0100
0000
1010
0000
0100
0010
0001
1000
1000
0000
0010
0100
,
0001
0010
0010
0000
0001
0100
0010
0100
0001
0010
0100
0000
1000
0100
0001
0010
,
1000
0100
0001
0010
1000
0000
0110
0000
0001
0100
0010
1000
0100
0000
1000
0001
,
1000
0100
0010
0000
0001
0001
0000
0100
0010
0010
0000
1000
0100
1000
0001
0000
,
0010
0001
1000
0001
0100
0010
0000
0010
1000
0000
1000
0001
0000
0001
0010
0100
,
1000
0010
0000
0100
0001
0000
0010
0001
0100
0010
1000
0000
0010
1000
0001
0010
,
1000
0100
0001
1000
0010
0000
0100
0001
0010
1000
0100
0000
0010
0001
1000
0000
,
0100
1000
0001
0000
0110
0000
0010
1000
0000
0100
0010
0000
0001
0100
0000
0010
,
1000
0100
1000
0001
0000
0010
0001
1000
0010
1000
0100
0010
0000
0001
0010
0000
,
0100
1000
0000
0010
0010
0000
1000
0001
0000
0001
0100
0000
0010
1000
0100
0010
,
1000
0001
0100
0001
0010
0000
0001
1000
1000
0010
0100
0000
0001
0001
0000
1000
,
1000
0000
0100
0100
0000
0010
0010
0000
0001
0101
0000
1000
1100
0000
0001
0011
,
0000
1000
1010
0000
1001
0000
0010
0000
1000
0100
0010
0001
0100
0000
0010
1000
,
0100
1000
0001
0000
0010
0001
0100
0001
0010
1000
0100
1000
0010
0001
0100
0001
,
0010
1000
0100
1000
1002
0000
0100
0000
0103
0000
0110
0000
0000
0000
0000
0000
,
0000
0000
0000
0000
0000
0000
0000
0000
0000
0000
0000
0000
1000
0100
1000
0100
,
1000
0100
1000
0100
2100
0000
0001
0000
3001
0000
0011
0000
0000
0000
0000
0000
,
0000
0000
0000
0000
0000
0000
0000
0000
0000
0000
0000
0000
0100
0010
1000
0001
,
0100
0010
1000
0001
0201
0000
0010
0000
0310
0000
1010
0000
0000
0000
0000
0000
,
0000
0000
0000
0000
,
0000
0000
2100
0001
3001
0101
0000
0000
,
0000
0000
0000
0000
0000
0000
0000
0000
0000
0000
0000
0000
0010
0000
0000
1000
0000
0000
0100
0000
0000
0001
0000
0000
0010
0000
0000
1000
0000
0000
0100
0000
0000
0001
0000
0000
0010
0000
0000
0000
0010
0000
0000
0000
0010
0000
0000
0000
,
0022
0000
0000
0000
,
0033
0000
0000
0000
;

//---------------dance-double - ----------------
#NOTES:
     dance-double:
     :
     Easy:
     10:
     :
00000000
00000000
00000000
00000000
,
00000000
00000000
00000000
00000000
,
00000000
00000000
00000000
00000000
,
00000000
00000000
00000000
00000000
,
00000000
00000000
00000000
00000000
,
00000000
00000000
00000000
00000000
,
00010000
00001000
00000010
00000100
,
00002000
00000000
00003002
00000000
,
00000103
00000010
00001000
00000100
,
00020000
00030000
00011000
00000000
,
00001000
00001000
00010000
00010000
,
00001000
00001000
00010000
00010000
,
00001000
00000100
00000001
00000100
,
00001000
00010000
00010000
00001000
,
00010000
01000000
10000000
01000000
,
00010000
00001000
00001000
00010000
,
00001000
00011000
00010000
00011000
,
00001000
00010000
00001000
00010000
00001000
00000000
00011000
00000000
,
00001000
00000100
00000010
00000000
00000100
00000000
00000010
00000000
,
00001000
00001000
00000010
00000000
00000100
00000000
00000010
00000000
,
00000100
00000100
00000010
00000000
00001000
00000000
00000100
00000000
,
00010000
00010000
00001000
00000000
00010000
00000000
00011000
00000000
,
00010000
01000000
00100000
00000000
01000000
00000000
00100000
00000000
,
00010000
00010000
00100000
00000000
01000000
00000000
00100000
00000000
,
01000000
01000000
00100000
00000000
00010000
00000000
01000000
00000000
,
00001000
00001000
00010000
00000000
00001000
00000000
00011000
00000000
,
00002000
00003100
00000200
00000301
,
00000002
00000000
00000013
00000000
00000100
00001000
00000010
00000000
,
00000200
00000310
00002000
00003100
,
00020000
00000000
00130000
00000000
01000000
01000000
00100000
00000000
,
20000000
31000000
02000000
03010000
,
02000000
00000000
13000000
00000000
00010000
10000000
01000000
00000000
,
02000000
03100000
00020000
01030000
,
00002000
00000000
00003010
00000000
00000100
00000100
00000010
00000000
,
00000001
00001000
00000010
00010000
,
00001000
00000000
00100000
00000000
00002000
00000000
00013000
01000000
,
10000000
00000000
01000000
00000000
10000000
00000000
00100000
01000000
,
00001000
00000000
00000000
00000000
00000000
00000000
00000000
00000000
00000000
00000000
00000000
00000000
00000000
00000000
00000000
00000000
00020000
00030000
00000000
00000000
00000000
00000000
00000000
00000000
00002000
00003000
00000000
00000000
00000000
00000000
00000000
00000000
00010000
00000000
00000000
00000000
00000000
00000000
00000000
00000000
00001000
00000000
00000000
00000000
00000000
00000000
00000000
00000000
00000100
00000000
00000000
00000000
00000000
00000000
00000000
00000000
00000000
00000000
00000000
00000000
00000000
00000000
00000000
00000000
,
00000010
00000001
00000100
00000010
,
00000200
00000000
00000301
00000010
00000100
00000000
00001000
00000000
,
00000100
00000000
00010000
00001000
00100000
00000000
00010000
00000000
,
01100000
00000000
00100000
00010000
00100000
00010000
00000000
00000000
,
00011000
00001000
00000010
00000001
,
00000100
00000000
00000010
00001000
00000010
00001000
00000000
00000000
,
00011000
00010000
01000000
10000000
,
00100000
00000000
01000000
00010000
01000000
00010000
00000000
00000000
,
00011000
00001000
00000100
00000001
,
00000010
00000000
00000100
00001000
00000100
00001000
00000000
00000000
,
00011000
00010000
01000000
10000000
,
00100000
00000000
00010000
00000000
00000000
00021000
00000000
00000000
,
00000000
00000000
00000000
00000000
,
00030000
00000000
00001000
00000000
00000000
00012000
00000000
00000000
,
00000000
00000000
00000000
00000000
,
00003000
00000000
00000100
00000000
00000000
00000210
00000000
00000000
,
00000000
00000000
00000000
00000000
,
00000300
00000000
00000010
00000000
00000000
00000120
00000000
00000000
,
00000000
00000000
00000000
00000000
00000000
00000000
00000100
00000100
,
00000130
00000001
00000001
00000001
,
00000001
00001000
00001000
00001000
,
00001000
00010000
00010000
00010000
,
00010000
10000000
10000000
10000000
,
10000000
00000000
00010000
00100000
00010000
00000000
00100000
00000000
,
00001000
00000000
00010000
00001000
00010000
00000000
00001000
00000000
,
00000100
00000000
00001000
00000100
00001000
00000000
00000100
00000001
,
00000100
00000000
00000001
00000100
00000001
00000000
00000010
00000001
,
00000010
00000001
00000100
00000010
,
00000100
00000010
00000010
00001000
,
00001000
00000100
00010000
00001000
,
00010000
00001000
00001000
00010000
,
00010000
00100000
10000000
01000000
,
00100000
01000000
01000000
00010000
,
00001000
00000000
00000000
00000000
00000000
00000000
00011000
00000000
00000000
00011000
00000000
00000000
00011000
00000000
00000000
00011000
,
00000000
00000000
00011000
00000000
00000000
00011000
00000000
00000000
00011000
00000000
00000000
00000000
00010000
00000000
00001000
00000000
,
00010000
01000000
10000000
00000000
01000000
00000000
00100000
00000000
,
01000000
00100000
00100000
00010000
,
00010000
01000000
00001000
00010000
,
00001000
00010000
00010000
00001000
,
00001000
00000010
00000001
00000100
,
00000010
00000100
00000100
00001000
,
00010000
00000000
00010000
00001000
00000100
00000000
00000100
00001000
,
00010000
00000000
00001000
00010000
00100000
00000000
00100000
00010000
,
00001000
00000000
00000110
00000000
00000000
00001001
00000000
00000000
,
00000000
00000000
00000000
00000020
,
00000000
00000000
00000100
00000000
00000030
00000110
00000000
00000000
,
00000000
00000000
00000000
00002000
,
00000000
00000000
00010000
00000000
00003000
00011000
00000000
00000000
,
00000000
00000000
00000000
00000000
,
00000000
00000000
00010000
00000000
00000000
10010000
00000000
00000000
,
00000000
00000000
10000000
01000000
00100000
00010000
00001000
00000100
,
00000010
00000000
00000000
00000000
,
00000000
00000000
00000000
00000000
;

//---------------dance-double - ----------------
#NOTES:
     dance-double:
     :
     Medium:
     13:
     :
00000000
00000000
00000000
00000000
,
00000000
00000000
00000000
00000000
,
00000000
00000000
00000000
00000000
,
00000000
00000000
00000000
00000000
,
00000000
00000000
00000000
00000000
,
00000000
00000000
00000000
00000000
,
00001100
00000000
00000000
00000000
00000000
00000000
00000000
00011000
,
00000000
00000000
00000000
00000000
00000000
00000000
00000000
01010000
,
10010000
00000000
00000000
00000000
00000000
00000000
00000000
10010000
,
00000000
01000000
00001000
00010000
00000000
00010000
00001000
00000100
,
00000010
00001000
00000001
00001000
,
00000001
00000100
00000010
00010000
,
00001000
01000000
00100000
00000000
10000000
01000000
00100000
00000000
,
00001000
00010000
00000100
00001000
00000000
00000001
00000100
00000010
,
00001000
00000000
00010010
00000000
00010000
00001000
00100000
00010000
,
00000000
10000000
00000000
00010000
01000000
00000000
00011000
00000000
,
00010000
00000100
00010000
00000100
00001000
00000010
00001000
00000010
,
00000100
00000001
00001000
00000100
00010000
00001000
02000000
03000000
,
00100000
01000000
00010000
01000000
00001000
00100000
00001000
00010000
,
00000100
00010000
00001000
00100000
00001000
00010000
00000100
00000000
,
00010000
00001000
00100000
00001000
00100000
01000000
00010000
00001000
,
00010000
00000100
00010000
00001000
00100000
00100000
01000000
01000000
,
00000000
00001000
00100000
00001000
00010000
00000100
00001000
00000100
,
00010000
00001000
00100000
00001000
01000000
00100000
01000000
00000000
,
00010000
00100000
00001000
00100000
00001000
00010000
00000010
00001000
,
00000010
00010000
00001000
00100000
00010000
01000000
00100000
00000000
,
01000000
01000000
00000000
01000000
00100000
00010000
00001000
00000100
,
00000010
00000010
00000000
00000010
00000100
00001000
00010000
00100000
,
01000000
01000000
00000000
00010000
01000000
01000000
00000000
00001000
,
00100000
00100000
00001000
00010000
00001000
00000100
00000100
00000000
,
00000010
00000010
00000000
00000010
00000100
00001000
00010000
01000000
,
00100000
00100000
00000000
00100000
01000000
00010000
00001000
00000100
,
00000010
00000010
00000000
00010000
00001000
00001000
00000000
00100000
,
01000000
00000000
00010000
00000000
00001000
00010000
00001000
00000000
,
00010000
01000000
00100000
00000000
00001000
00010000
00001000
00000000
,
01000000
00100000
01000000
00000000
01010000
00101000
00010000
00100000
,
00001000
00000000
00010000
00001000
00010000
00000000
00000010
00000100
,
00000010
00000000
00001100
00011000
00001000
00100000
00010000
00000000
,
01000000
00010000
00100000
00000000
00001000
00010000
00000100
00000000
,
00010100
00011000
00100000
00010000
00100000
00010000
01000000
00001000
,
01000000
00001000
00010000
00001000
00010000
00000100
00001000
00000100
,
00000010
00000100
00000020
00000000
00000100
00000100
00000000
00000031
,
00000100
00000000
00000010
00001000
00000100
00000000
00010000
00001000
,
00010000
00000000
00002000
00000000
01000000
01000000
00000000
00103000
,
00010000
00000000
10000000
01000000
00100000
00000000
00010000
01000000
,
00100000
00000000
20000000
00000000
00010000
00010000
00000000
30100000
,
01000000
00000000
00010000
00100000
00001000
00000000
00010000
00001000
,
00000100
00000000
00000020
00000000
00000100
00000100
00000000
00001030
,
00000100
00000000
00010000
00001000
01000000
00100000
10000000
00010000
,
01000000
00100000
02100000
00000000
00000000
03100000
00000000
00000000
,
00000000
00000000
00010000
00000000
00000000
00001000
00000000
00000000
,
00000000
00000000
00000210
00000000
00000000
00000310
00000000
00000000
,
00000000
00000000
00001000
00000000
00000000
00010000
00000000
00000000
,
00000000
00000000
02100000
00000000
00000000
03100000
00000000
00000000
,
00000000
00000000
00010000
00000000
00000000
00001000
00000000
00000000
,
00000000
00000000
00000210
00000000
00000000
00000310
00000000
00000000
,
00000000
00000000
00000000
00000000
,
00000000
00000010
00000010
00000010
,
00000010
00001000
00001000
00001000
,
00001000
00010000
00010000
00010000
,
00010000
00100000
00100000
00100000
,
00100000
00000000
00010000
01000000
00100000
00000000
00010000
00001000
,
00000100
00000000
00000010
00010000
00001000
00000000
00010000
00100000
,
01000000
00000000
00010000
01000000
00010000
01000000
00001000
00100000
,
00001000
00100000
00001000
00010000
00000100
00001000
00000010
00000100
,
00000010
00000000
00001000
00000100
00010000
00001000
00100000
00010000
,
01000000
00100000
01000000
00010000
00100000
00001000
00010000
00000100
,
00000010
00000100
00000000
00000100
00010000
00001000
00100000
00010000
,
00100000
00001000
01000000
00010000
00100000
00001000
00010000
00100000
,
01000000
00100000
00000000
00100000
00010000
00001000
00100000
00001000
,
00010000
00100000
01000000
00100000
00010000
00001000
00100000
00001000
,
00010000
00000000
00000000
00000000
00001000
00000000
00011000
00000000
00000000
01001000
00000000
00000000
00101000
00000000
00000000
00011000
,
00000000
00000000
00010100
00000000
00000000
00010010
00000000
00000000
00011000
00000000
00000000
00110000
00000000
00000000
00100000
00000000
,
00010000
00000000
01000000
00100000
00010000
00001000
00010000
00100000
,
01000000
00010000
00100000
01000000
00100000
00010000
01000000
00001000
,
00010000
00001000
00000000
00001000
00010000
00100000
01000000
00100000
,
00010000
00001000
00100000
00001000
00010000
00100000
01000000
00010000
,
00100000
01000000
00000000
01000000
00100000
00010000
00100000
01000000
,
00010000
00001000
00000100
00000010
00000100
00001000
00010000
00001000
,
00100000
00010000
00000000
00010000
00100000
00010000
10000000
01000000
,
10000000
01000000
00100000
00001000
00100000
00001000
00010000
00000100
,
00010000
00001000
00021000
00000000
00000000
00031000
00000000
00000000
,
00000000
00000000
00000000
00000000
00000000
00000000
00100000
00001000
,
00010000
00001000
00012000
00000000
00000000
00013000
00000000
00000000
,
00000000
00000000
00000000
00000000
00000000
00000000
00000010
00010000
,
00001000
00010000
00021000
00000000
00000000
00031000
00000000
00000000
,
00000000
00000000
00000000
00000000
,
00000000
00001000
00012000
00000000
00000000
00013000
00000000
00000000
,
00000000
00000000
00100000
00010000
00001000
00000100
00001000
00010000
,
00200000
00000000
00000000
00000000
,
00300000
00000000
00000000
00000000
,
00000000
00000000
00000000
00000000
;

//---------------dance-double - ----------------
#NOTES:
     dance-double:
     :
     Hard:
     16:
     :
00000000
00000000
00000000
00000000
,
00000000
00000000
00000000
00000000
,
00000000
00000000
00000000
00000000
,
00000000
00000000
00000000
00000000
,
00000000
00000000
00000000
00000000
,
00000000
00000000
00000000
00000000
,
00000001
00000000
00000100
00000000
,
00000010
00000000
00001000
00000000
,
00010000
00000000
01000000
00000000
,
00100000
00000000
10000000
00000000
,
00100000
10000000
00010000
00100000
,
00001000
00010000
00000100
00000010
,
00000001
00000001
00000100
00000000
00000010
00000010
00001000
00000000
,
00000100
00000100
00010000
00000000
00001000
00001000
01000000
00000000
,
00100000
00100000
10000000
10000000
00010000
00010000
00100000
00100000
,
00001000
00001000
00010000
00010000
00000100
00000100
00000010
00000010
,
00000001
00000100
00000010
00010000
00001000
01000000
00100000
10000000
,
00100000
10000000
00010000
00100000
00001000
00010000
00000100
00000010
00000001
00000100
00000010
00001000
00000010
00000000
00000000
00000000
,
00000100
00000001
00000010
00000001
00000100
00000010
00001000
00001000
,
00000100
00010000
00001000
00010000
00100000
01000000
00100000
00100000
,
01000000
00010000
00100000
00010000
01000000
00100000
00010000
00010000
,
00001000
00010000
00001000
00000100
00000010
00001000
00000010
00000010
,
00000100
00000100
00000001
00000100
00000010
00001000
00000100
00000100
,
00010000
00001000
01000000
00100000
10000000
00100000
01000000
01000000
,
00010000
00100000
00001000
00010000
00001000
00000100
00000010
00000010
,
00001000
00000000
00000010
00000000
00000100
00000000
00000001
00000000
00000010
00000100
00000010
00000100
00000010
00000000
00000000
00000000
,
00000001
00000000
00000100
00000000
00000001
00000010
00000001
00000000
00000100
00000010
00001000
00000000
00000100
00010000
00001000
00000000
,
00010000
00100000
00010000
00001000
00000100
00000010
00000100
00000000
,
00000001
00000000
00000010
00000000
00000001
00000100
00000001
00000000
00000010
00000100
00001000
00000000
00000010
00010000
00001000
00000000
,
00010000
00001000
01000000
00000000
00100000
01000000
00100000
00000000
10000000
00000000
01000000
00000000
00100000
00000000
00010000
00000000
,
10000000
00000000
01000000
00000000
10000000
00100000
10000000
00000000
01000000
00100000
00010000
00000000
01000000
00001000
00010000
00000000
,
00001000
00000010
00001000
00010000
01000000
00100000
01000000
00000000
,
10000000
00000000
00100000
00000000
10000000
01000000
10000000
00000000
00100000
01000000
00010000
00000000
00100000
00001000
00010000
00000000
,
00001000
00010000
00000100
00000000
00000010
00000100
00000010
00000000
00000001
00000000
00000100
00000000
00000010
00000000
00000000
00000000
,
00000001
00000010
00000100
00000010
00000100
00001000
00000100
00010000
,
00100000
00000000
01000000
00000000
00100000
00000000
10000000
00000000
01000000
00100000
00100000
01000000
10000000
00000000
00100000
00000000
,
01000000
00100000
01000000
00010000
01000000
00001000
00000010
00000100
,
00000010
00000000
00000001
00000000
00001000
00000000
00000001
00000000
00000100
00000001
00000100
00000000
00000010
00001000
00000010
00000000
,
00001000
00000100
00001000
00000000
00000100
00010000
00000100
00000000
00010000
00001000
00010000
00000000
00001000
00100000
00001000
00000000
,
00100000
00000000
00010000
00000000
00100000
00000000
01000000
00000000
00000000
00000000
00000000
00000000
10000000
00000000
00000000
01000000
00000000
00000000
10000000
00000000
00000000
00000000
00000000
00000000
00010000
00000000
00000000
01000000
00000000
00000000
00010000
00000000
00000000
00000000
00000000
00000000
01000000
00000000
00000000
00001000
00000000
00000000
01000000
00000000
00000000
00000000
00000000
00000000
,
00001000
00010000
00001000
00000000
00010000
00000100
00010000
00000000
00000100
00001000
00000100
00000000
00001000
00000010
00001000
00000010
,
00000100
00000001
00000100
00000000
00000001
00000000
00000010
00000000
00000001
00000000
00000010
00000000
00000000
00000000
00000100
00000000
,
00000100
00000000
00000010
00001000
00010000
01000000
00100000
00010000
,
01000000
00000000
00100000
10000000
00100000
10000000
00000000
01000000
,
01000000
00000000
00100000
00010000
00001000
00000100
00000010
00000001
,
00000100
00000000
00000100
00001000
00010000
01000000
00000000
10000000
,
10000000
00000000
00010000
00100000
00001000
00001000
00010000
01000000
,
00100000
00000000
01000000
00010000
00001000
00000100
00000000
00000001
,
00000001
00000000
00001000
00000010
00010000
00010000
00001000
00000100
,
00000010
00001000
00000001
00000000
00000010
00000100
00000000
00000000
,
00000000
00000000
00000000
00000000
,
00000000
00000000
00000010
00000000
00010000
00001000
00000000
00000000
,
00000000
00000000
00000000
00000000
,
00000000
00000000
00010000
00010000
00001000
00010000
00000000
01000000
,
00100000
00000000
00000000
00000000
,
00000000
00000000
00001000
00001000
00010000
00001000
00000000
00000000
,
00000000
00000000
00000000
00000000
00000000
00000000
00000000
00000000
00000000
00000000
00000000
00000000
00010000
00001000
00010000
00001000
,
00010000
00001000
00010000
00001000
00010000
00000000
00001000
00000000
00000100
00000000
00000010
00000000
00000010
00000000
00000100
00000000
,
00001000
00000000
00010000
00000000
01000000
00000000
00010000
00000000
01000000
00010000
01000000
00000000
10000000
01000000
10000000
01000000
,
00100000
00000000
00001000
00010000
00100000
01000000
01000000
00100000
,
00010000
00000000
00001000
00000000
00000010
00000000
00001000
00000000
00000010
00001000
00000010
00000000
00000001
00000010
00000001
00000010
,
00000001
00000000
00000000
00000000
00000010
00000001
00000010
00000001
00001000
00000000
00000100
00001000
00000100
00001000
00000001
00000000
,
00000100
00000010
00001000
00000000
00000100
00001000
00000100
00010000
00001000
00000000
00010000
00001000
00100000
00010000
00100000
00000000
,
01000000
00100000
01000000
00000000
00100000
00010000
00100000
00010000
10000000
00000000
01000000
10000000
01000000
10000000
00010000
00000000
,
01000000
00100000
10000000
00000000
01000000
00010000
01000000
00010000
00001000
00000000
00010000
00001000
00010000
00001000
00000010
00000000
,
00000100
00000010
00000100
00000000
00001000
00000000
00000100
00000000
00000010
00000000
00000100
00000000
00010000
00000000
00000010
00000000
,
00001000
00000000
00000100
00000000
00010000
00001000
00100000
00000000
00010000
00100000
01000000
00000000
00010000
00001000
00010000
00000000
,
00000010
00001000
00000100
00001000
00000010
00000000
00000100
00000010
00001000
00000000
00000100
00000000
00000010
00000000
00000100
00000000
,
00010000
00001000
00010000
01000000
00100000
00001000
00010000
00100000
,
01000000
00010000
01000000
00001000
00100000
00000000
01000000
00100000
00010000
00100000
00001000
00010000
00001000
00000000
00100000
00000000
,
00001000
00010000
00001000
00000000
00100000
00010000
01000000
00000000
00001000
00010000
00001000
00000000
01000000
00010000
00100000
00000000
,
00001000
00000000
00010000
00000000
00001000
00010000
01000000
00000000
00000000
00010000
00000000
00000000
00001000
00000000
00000000
00000100
,
00000000
00000000
00001000
00000000
00000000
00010000
00000000
00000000
00001000
00000000
00000000
00010000
00001000
00000000
00001000
00000000
,
00010000
00010000
00001000
01000000
00010000
00100000
00001000
01000000
,
00100000
00000000
00010000
00000000
00001000
00000100
00001000
00000000
00010000
00001000
00010000
00000000
01000000
00100000
01000000
00000000
,
00010000
01000000
00100000
01000000
00010000
00000000
00001000
00000000
00010000
00000000
01000000
00000000
00010000
00000000
00000100
00000000
,
00010000
00000000
00001000
00000000
00100000
00010000
01000000
00000000
00001000
00010000
00001000
00000000
01000000
00010000
00100000
00000000
,
00001000
00010000
00000100
00001000
00000100
00000000
00000010
00000100
00000010
00000001
00000100
00000001
00001000
00000000
00000010
00000000
,
00000100
00001000
00010000
00000000
00001000
00100000
00010000
00000000
01000000
00010000
00100000
00000000
00001000
00010000
01000000
00000000
,
00100000
00010000
01000000
00000000
00001000
00000000
00001000
00000000
00100000
00000000
00100000
00000000
01000000
00000000
01000000
00000000
,
00010000
00000000
00010000
00000000
00001000
00010000
00001000
00100000
00010000
00100000
00001000
00010000
00000100
00001000
00000010
00000100
,
00000001
00001000
00000100
00000010
00000001
00000000
00000000
00000000
00000000
00000000
00001000
00000000
00000000
00000000
00000000
00000000
,
00000000
00000000
00000000
00000000
00000000
00000000
00000000
00000000
00000000
00000000
00000000
00000000
00000100
00000010
00000100
00000010
,
00000100
00000010
00000100
00000010
00000100
00000000
00000000
00000000
00000000
00000000
01000000
00000000
00000000
00000000
00000000
00000000
,
00000000
00000000
00000000
00000000
00000000
00000000
00000000
00000000
00000000
00000000
00000000
00000000
00100000
01000000
00100000
01000000
,
00100000
01000000
00100000
01000000
00100000
00000000
00000000
00000000
00000000
00000000
00000010
00000000
00000000
00000000
00000000
00000000
,
00000000
00000000
00000000
00000000
,
00000000
00000000
00010000
00000000
00000000
00001000
00000000
00000000
,
00000000
00000000
00000000
00000000
00100000
00010000
00100000
00010000
00001000
00000100
00001000
00000100
00010000
00001000
00010000
00001000
,
00010000
00000000
00000000
00000000
,
00000000
00000000
00000000
00000000
;
