#VERSION:0.83;
#TITLE:Furifuri Hawaiian!;
#SUBTITLE:;
#ARTIST:YUU&NAHO from Cawaii!;
#TITLETRANSLIT:;
#SUBTITLETRANSLIT:;
#ARTISTTRANSLIT:;
#GENRE:;
#ORIGIN:;
#TAGS:;
#CREDIT:;
#BANNER:Furifuri Hawaiian!-bn.png;
#BACKGROUND:Furifuri Hawaiian!-bg.png;
#PREVIEWVID:;
#JACKET:Furifuri Hawaiian!-jacket.png;
#CDIMAGE:;
#DISCIMAGE:;
#LYRICSPATH:;
#CDTITLE:;
#MUSIC:Furifuri Hawaiian!.ogg;
#OFFSET:0.000000;
#SAMPLESTART:46.702999;
#SAMPLELENGTH:20.000000;
#SELECTABLE:YES;
#DISPLAYBPM:185.000000;
#BPMS:0.000000=185.000000;
#STOPS:;
#DELAYS:;
#WARPS:;
#TIMESIGNATURES:0.000000=4=4;
#TICKCOUNTS:0.000000=4;
#COMBOS:0.000000=1;
#SPEEDS:0.000000=1.000000=0.000000=0;
#SCROLLS:0.000000=1.000000;
#FAKES:;
#LABELS:0.000000=Song Start;
#BGCHANGES:;
#KEYSOUNDS:;
#ATTACKS:
;

//---------------dance-single - ----------------
#NOTEDATA:;
#CHARTNAME:;
#CHARTHASH:596362310:
#STEPSTYPE:dance-single;
#BANNER:;
#DESCRIPTION:;
#CHARTSTYLE:;
#DIFFICULTY:Hard;
#METER:13;
#METERF:0.000000;
#RADARVALUES:0.701000,0.687555,0.549159,0.779451,0.097431,554.000000,492.000000,62.000000,88.000000,0.000000,0.000000,0.000000,0.000000,0.000000,0.701000,0.687555,0.549159,0.779451,0.097431,554.000000,492.000000,62.000000,88.000000,0.000000,0.000000,0.000000,0.000000,0.000000;
#CREDIT:;
#DISPLAYBPM:185.000000;
#NOTES:
0000
0000
0000
0000
,
0000
0000
0000
0000
,
0000
0000
0000
0000
,
0000
0000
0000
0020
,
1030
0100
1000
0000
0001
0100
0001
0000
,
1000
0100
0010
0002
0000
0103
0002
0000
,
0013
0100
0010
0000
0001
1000
0001
0000
,
1000
0010
0100
0002
0000
0013
0200
0000
,
1300
0000
0000
0000
1100
0000
0000
0000
0001
0100
0001
0000
0101
0000
0000
0000
,
2020
0000
3030
0202
0000
0303
1001
0000
,
0010
0000
0000
0000
0011
0000
0000
0000
1000
0010
1000
0000
1010
0000
0000
0000
,
2200
0000
3300
0022
0000
0033
1001
0000
,
0100
0000
0000
0000
0101
0000
0000
0000
1000
0010
1000
0000
1010
0000
0000
0000
,
2200
0000
3300
0202
0000
0303
1001
0000
,
0001
0000
0000
0000
0011
0000
0000
0000
0100
1000
0100
0000
1100
0000
0000
0000
,
2020
0000
3030
0022
0033
1000
1001
0000
,
0210
0001
0301
0000
0012
1000
1003
0000
,
2100
0001
3001
2000
0000
0100
3100
0000
,
1000
0100
0010
0001
1000
0100
0010
0001
,
1000
0001
1000
0001
1000
0001
1000
0000
0000
0102
0000
0000
,
2003
0000
3010
0100
0002
0000
0013
0100
,
1000
0100
0001
0000
0001
0100
1000
0000
,
0020
0000
0130
0001
1000
0001
0200
0000
,
0301
0010
0100
1000
0100
0010
0001
0000
,
0200
0000
0301
1000
0002
0000
0013
0010
,
0100
0000
1000
1020
0000
0130
0001
1000
,
1100
0000
2100
0000
0001
0001
3001
0200
,
1000
0000
0310
0100
1001
0000
1001
0000
,
0002
0010
0023
0000
1030
0010
0001
0100
,
0010
0000
0000
0000
1000
0000
0002
0000
0000
0000
0000
0000
2003
0000
0000
0100
0000
0000
3100
0000
0000
0000
0000
0000
,
0120
0000
1030
0010
0001
0100
0010
1000
,
0001
0000
0000
0000
0000
0000
1000
0000
0010
0000
1000
0000
0010
0000
0000
0100
0000
0000
0001
0000
0000
0000
0000
0000
,
1000
0010
1000
0010
1000
0001
0100
0010
,
1000
0000
0001
0021
0000
0031
0100
0010
,
0110
0000
0210
0000
0001
0001
0301
0020
,
1000
0000
0000
0000
0031
0000
0100
0000
0101
0000
0000
0000
0101
0000
0000
0001
,
2000
0100
3100
0000
0002
0100
0103
0000
,
2000
0010
3010
1002
0000
1003
0002
0000
,
0203
0000
0310
1000
0002
0010
0013
0000
,
2000
0001
3001
0100
0020
1000
1030
0000
,
1200
0000
1300
0001
0021
0000
0130
0010
,
0002
0100
0103
0020
0000
1030
0002
0000
,
2003
0000
0001
0000
0100
0100
0100
0000
,
3001
1020
0000
0130
1001
0000
1001
0000
,
1000
0001
0200
0000
0310
0100
0001
0000
,
0102
0000
1003
0002
0100
0103
0010
0000
,
2000
0001
3001
0010
0002
0100
0103
0000
,
0020
1000
1030
2100
0000
3001
0110
0000
,
0020
0000
1030
0001
0020
0000
0031
0100
,
2000
0000
3001
1000
0020
0100
0130
0000
,
0001
1000
1000
0001
0001
0000
0101
0000
,
2100
0000
0000
0000
3001
0000
0000
0000
0012
0000
0000
0000
1003
0000
0000
0010
,
0200
0001
1300
0110
,
1020
0000
0000
0000
0130
0000
0000
0000
2001
0000
0000
0000
3100
0000
0000
1000
,
0020
0001
1000
0031
,
1000
1000
0100
0010
0001
1000
0100
0000
,
0010
0010
0001
1000
0010
1000
0100
0000
,
0001
0001
0100
0010
1000
1000
0100
0010
,
0001
0001
1000
0010
1000
0001
0100
0000
,
0201
0000
0000
0000
0310
0000
0000
0000
1002
0000
0000
0000
0103
0000
0000
0001
,
2000
0010
0100
3010
,
1200
0000
0000
0000
0310
0000
0000
0000
0021
0000
0000
0000
1030
0000
0000
0010
,
0002
0000
0000
0000
0100
0000
0000
0000
0010
0000
0000
0000
0103
0010
0100
0010
,
0100
0001
0001
1000
0010
1000
0001
0000
,
0010
0010
0100
0001
0100
1000
0010
0000
,
1000
1000
0010
0100
0001
0001
0010
0100
,
1000
0001
1000
0010
0100
0001
1000
0100
,
0110
0000
0001
0100
0001
0100
0010
1000
,
0100
0001
0100
0010
0100
1000
0001
0000
,
1001
0000
0010
1000
0010
1000
0100
0001
,
0100
0010
0001
0100
1000
0100
0001
0000
,
0011
0000
1000
0100
1000
0100
0001
0100
,
0010
1000
0010
0100
0010
0001
0100
0000
,
1010
0000
0001
0010
0001
0010
1000
0010
,
0100
0001
0100
0010
0100
1000
0001
0000
,
1100
0000
0010
0100
0010
0100
1000
0100
,
0010
1000
0010
0100
0001
0010
1000
0000
,
0101
0000
1000
0001
1000
0001
0010
1000
,
0010
0100
0010
0001
0100
0010
1000
0000
,
0002
1000
1003
0000
0020
1000
1030
0000
,
0200
1000
1300
1002
0000
0100
0103
0000
,
0001
0010
0100
1000
0001
0010
0100
1000
,
0001
1000
0001
1000
0001
1000
0001
0000
0000
1200
0000
0000
,
0020
0000
0000
0000
,
0000
0000
0000
0000
,
0000
0000
0000
0000
,
0000
0330
0000
0000
;

//---------------dance-single - ----------------
#NOTEDATA:;
#CHARTNAME:;
#CHARTHASH:0:
#STEPSTYPE:dance-single;
#BANNER:;
#DESCRIPTION:;
#CHARTSTYLE:;
#DIFFICULTY:Medium;
#METER:11;
#METERF:0.000000;
#RADARVALUES:0.544097,0.607617,0.690877,0.938884,0.039858,430.000000,352.000000,78.000000,106.000000,0.000000,0.000000,0.000000,0.000000,0.000000,0.544097,0.607617,0.690877,0.938884,0.039858,430.000000,352.000000,78.000000,106.000000,0.000000,0.000000,0.000000,0.000000,0.000000;
#CREDIT:;
#DISPLAYBPM:185.000000;
#NOTES:
0000
0000
0000
0000
,
0000
0000
0000
0000
,
0000
0000
0000
0000
,
0000
0000
0000
0020
,
1030
1100
0001
0101
,
0010
0011
0100
1010
,
0001
0011
1000
1100
,
0100
1010
0010
0101
,
1000
1100
0001
0101
,
0022
0000
0000
0033
0000
0000
2200
0000
0000
3300
0000
0000
1001
0000
0000
0000
,
0010
1010
0100
0101
,
0220
0000
0000
0330
0000
0000
2002
0000
0000
3003
0000
0000
0110
0000
0000
0000
,
0010
1001
0100
1010
,
2200
0000
0000
3300
0000
0000
0202
0000
0000
0303
0000
0000
1001
0000
0000
0000
,
1000
0011
0100
0110
,
2020
0000
0000
3030
0000
0000
0202
0000
0303
0000
1000
0000
0001
0000
0000
0000
,
0200
0020
0330
0000
2000
0002
3003
0000
,
1000
0010
0100
0002
0000
0000
0000
0000
,
1003
0100
0010
0001
1000
0100
0010
0001
,
0100
0110
1001
0110
,
0001
0000
0010
0100
1000
0000
1000
0001
,
1000
0101
1000
0101
,
0010
0000
1000
0001
2000
0000
3020
0000
,
0130
1010
0001
1010
,
0001
0000
0010
0001
0100
0000
0010
1000
,
0000
0000
0000
2100
0000
3001
1000
0001
,
0100
0000
0202
0000
0300
0000
1000
2000
,
0000
3003
1001
1001
,
0020
0000
2030
0000
3002
0000
0103
0010
,
0000
1010
0022
0030
,
2003
0000
3001
0100
0001
0000
0010
0100
,
0000
0000
0000
1000
0001
1000
0001
0000
0000
0000
0000
0000
,
0010
0100
0002
0000
0023
0000
0031
1000
,
0000
0000
0000
0201
0000
0310
1000
0001
,
0100
0000
2020
0000
0030
0000
0001
0002
,
0000
3003
0110
0110
,
2000
3010
0002
0013
,
2000
0000
3010
0200
0000
0301
1000
0000
,
1200
1300
0202
0003
,
0320
1000
0230
0010
,
0302
0000
0000
1003
0020
0000
0000
0130
,
0002
0000
1003
0020
0000
0130
0001
0000
,
1002
0010
1000
0010
,
1003
2100
0000
0001
3002
0000
1003
0000
,
0010
1000
0010
0000
1000
0100
1000
0000
,
0002
0000
0013
0200
0000
1300
0001
0000
,
0012
1003
2020
3000
,
0230
0000
0301
2000
0000
3001
0200
0000
,
0320
0000
1030
0000
2002
0000
0003
0001
,
3002
0103
0220
0300
,
1030
0001
1000
0001
1000
0000
1100
0000
,
0102
1003
2010
3010
,
1002
0010
0103
0110
,
2010
3001
0021
0130
,
0210
0001
1000
0301
,
1000
1000
0001
0000
0100
0010
0000
1000
,
0001
1000
0000
0020
0000
0100
0130
0000
,
0001
0001
1000
0000
0010
0010
0000
2000
,
0000
3002
0000
2003
0000
3010
0100
0000
,
0210
0301
0012
1003
,
1200
0010
0001
1300
,
2010
3100
0201
0310
,
2001
0100
0010
3001
,
0010
0010
0100
0000
1000
0001
0000
0020
,
0000
0032
0000
2003
0000
3100
1000
0000
,
0001
0001
0100
0010
1000
1000
0000
0020
,
0000
0230
0000
0320
0000
1030
0100
0010
,
0001
0000
0001
0100
0001
0100
0000
0101
,
0000
1100
0000
1000
0020
0000
0230
0000
,
0301
0000
0001
0010
0001
0010
0000
0011
,
0000
1100
0000
1000
0001
0000
0000
0000
,
1000
0000
1000
0100
1000
0100
0000
1100
,
0000
0110
0000
0001
2000
0000
3020
0000
,
1030
0000
1000
0010
1000
0010
0000
1010
,
0000
1001
0000
0010
0100
0000
0000
0000
,
1000
0000
1000
0001
1000
0001
0000
0011
,
0000
1010
0000
0010
0100
0000
0000
0000
,
0010
0000
0010
0100
0010
0100
0000
0101
,
0000
1100
0000
0001
1000
0000
0000
0000
,
0002
2000
3003
0000
0020
0200
0330
0000
,
0001
0010
0100
2000
0000
0000
0000
0000
,
3001
0010
0100
1000
0001
0010
0100
1000
,
0020
2030
3002
0203
,
0020
0000
0000
0000
,
0000
0000
0000
0000
,
0000
0000
0000
0330
;

//---------------dance-single - ----------------
#NOTEDATA:;
#CHARTNAME:;
#CHARTHASH:0:
#STEPSTYPE:dance-single;
#BANNER:;
#DESCRIPTION:;
#CHARTSTYLE:;
#DIFFICULTY:Easy;
#METER:8;
#METERF:0.000000;
#RADARVALUES:0.431482,0.645593,0.708592,0.602303,0.000000,341.000000,261.000000,80.000000,68.000000,0.000000,0.000000,0.000000,0.000000,0.000000,0.431482,0.645593,0.708592,0.602303,0.000000,341.000000,261.000000,80.000000,68.000000,0.000000,0.000000,0.000000,0.000000,0.000000;
#CREDIT:;
#DISPLAYBPM:185.000000;
#NOTES:
0000
0000
0000
0000
,
0000
0000
0000
0000
,
0000
0000
0000
0000
,
0000
0000
0000
0000
,
1000
0010
1000
0010
,
0100
0001
0100
0001
,
1000
0100
1000
0100
,
0010
0001
0010
0001
,
1100
1100
0101
0101
,
1000
0000
0000
0001
0000
0000
1000
0000
,
1010
1010
0011
0011
,
0100
0000
0000
0010
0000
0000
0100
0000
,
0101
0101
1010
1010
,
0001
0000
0000
1000
0000
0000
0001
0000
,
0011
0011
1100
1100
,
1000
0000
0000
0001
0000
0100
0010
0000
,
2002
3003
0220
0330
,
2000
0000
0000
0002
0000
0000
3003
0000
,
0011
1100
0011
1100
,
0101
1100
0101
1001
,
0010
1000
0100
0010
,
0001
0101
0000
0101
,
1000
0001
1000
0100
,
0010
0011
0000
0011
,
0100
0010
1000
0001
,
0100
0000
0020
1030
,
1100
2200
0000
0300
,
0002
3003
1001
1001
,
0010
1000
0001
1000
,
0100
1001
0220
0330
,
0001
0100
0010
1000
,
0001
0110
2002
3003
,
1000
0001
1000
0010
,
0100
0000
0002
1003
,
0101
0202
0000
0003
,
0020
0330
0110
0110
,
2000
0000
3002
0000
,
2003
0000
0000
3020
0000
1030
0100
0000
,
2200
3300
0022
0000
,
0000
0000
0000
0033
,
0002
0000
0000
1003
0020
0000
0000
0000
,
0230
0000
0000
0302
0000
1003
0100
0000
,
2020
0000
0000
0000
0000
0000
0000
0030
,
0000
0002
3003
0000
1001
0000
1001
0000
,
0010
0010
1000
0001
,
0200
0000
0000
0302
0000
1003
0100
0000
,
2020
3030
0202
0000
,
0000
0000
0000
0303
,
0020
0000
0000
0000
0032
0000
0000
1003
,
0020
0000
0000
1030
0200
0000
0300
0000
,
0000
1000
0001
1000
0001
0000
0101
0000
,
2100
3001
0012
0103
,
2002
0000
3003
1100
,
0012
1003
1020
0130
,
0220
0000
0000
0330
,
0001
0100
0001
0000
0000
0000
0001
0000
,
1000
0100
1000
0000
0000
0000
1000
0000
,
0001
0100
0000
0000
1000
0100
0000
0000
,
0001
1000
0000
0020
0000
1030
0001
0000
,
0201
0310
2010
3100
,
2002
0000
3003
0011
,
1200
0310
1002
0103
,
0220
0000
0000
0330
,
1000
0010
1000
0000
0000
0000
1000
0000
,
0001
0010
0001
0000
0000
0000
0001
0000
,
1000
0010
0000
0000
0001
0010
0000
0000
,
1000
0001
0100
0010
,
1000
0100
1000
0001
,
0100
0100
1001
1001
,
0110
0010
1000
0010
,
1000
1000
0001
0000
,
0010
0001
0100
0001
,
1000
1000
1100
1100
,
0101
0010
1000
0100
,
0010
0010
0001
0000
,
0100
0010
0100
0010
,
1000
1000
0001
0000
,
0010
0100
0010
0100
,
1000
1000
0001
0000
,
2200
3300
0022
0033
,
0200
0000
0000
0020
0000
0000
0330
0000
,
1010
0101
1010
0101
,
1100
0101
1100
2001
,
0020
0000
0000
0000
,
0000
0000
0000
0000
,
0000
0000
0000
3030
;

//---------------dance-single - ----------------
#NOTEDATA:;
#CHARTNAME:;
#CHARTHASH:0:
#STEPSTYPE:dance-single;
#BANNER:;
#DESCRIPTION:;
#CHARTSTYLE:;
#DIFFICULTY:Beginner;
#METER:4;
#METERF:0.000000;
#RADARVALUES:0.213843,0.341785,0.106289,0.124004,0.000000,169.000000,157.000000,12.000000,14.000000,0.000000,0.000000,0.000000,0.000000,0.000000,0.213843,0.341785,0.106289,0.124004,0.000000,169.000000,157.000000,12.000000,14.000000,0.000000,0.000000,0.000000,0.000000,0.000000;
#CREDIT:;
#DISPLAYBPM:185.000000;
#NOTES:
// measure 0
0000
0000
0000
0000
,  // measure 1
0000
0000
0000
0000
,  // measure 2
0000
0000
0000
0000
,  // measure 3
0000
0000
0000
0000
,  // measure 4
1000
0000
1000
0000
,  // measure 5
0001
0000
0001
0000
,  // measure 6
0100
0000
0100
0000
,  // measure 7
0010
0000
0010
0000
,  // measure 8
1000
0000
1000
0000
,  // measure 9
1000
0000
1000
0000
,  // measure 10
0010
0000
0010
0000
,  // measure 11
0010
0000
0010
0000
,  // measure 12
0100
0000
0100
0000
,  // measure 13
0100
0000
0100
0000
,  // measure 14
0001
0000
0001
0000
,  // measure 15
0001
0000
0001
0000
,  // measure 16
1001
0000
1001
0000
,  // measure 17
1001
0000
0000
0000
,  // measure 18
1000
1000
1000
0000
,  // measure 19
0001
0001
0001
0000
,  // measure 20
0010
0000
0001
0000
,  // measure 21
0100
0000
0000
0000
,  // measure 22
0010
0000
1000
0000
,  // measure 23
0100
0000
0000
0000
,  // measure 24
1000
0000
0001
0000
,  // measure 25
1000
0000
0100
0000
,  // measure 26
0010
0020
0000
0000
,  // measure 27
0000
0030
0000
0000
,  // measure 28
0001
0000
0100
0000
,  // measure 29
0010
0000
0110
0000
,  // measure 30
1000
0000
0001
0000
,  // measure 31
1000
0000
1001
0000
,  // measure 32
0010
0000
0100
0000
,  // measure 33
0001
0000
0100
0000
,  // measure 34
1000
2000
0000
0000
,  // measure 35
0000
3000
0000
0000
,  // measure 36
0010
0000
0100
0000
,  // measure 37
0010
0000
1000
0000
,  // measure 38
0001
0000
0002
0000
,  // measure 39
0000
0000
0003
0000
,  // measure 40
0010
0000
0100
0000
,  // measure 41
1000
0000
0001
0000
,  // measure 42
0200
0000
0000
0000
,  // measure 43
0300
0000
0010
0010
,  // measure 44
0010
0000
1000
0000
,  // measure 45
0001
0000
1000
0000
,  // measure 46
0100
0000
0020
0000
,  // measure 47
0000
0000
0030
0000
,  // measure 48
0001
0000
0001
0000
,  // measure 49
1000
0000
1000
0000
,  // measure 50
0000
0010
0010
0000
,  // measure 51
1000
0000
0001
0000
,  // measure 52
2002
0000
3003
0000
,  // measure 53
0100
0000
0010
0000
,  // measure 54
0220
0000
0330
0000
,  // measure 55
1000
1000
0000
0000
,  // measure 56
0001
0001
0000
0000
,  // measure 57
0100
0000
0010
0000
,  // measure 58
0100
0000
0001
0000
,  // measure 59
0010
0000
0100
0000
,  // measure 60
0220
0000
0330
0000
,  // measure 61
1000
0000
0001
0000
,  // measure 62
2002
0000
3003
0000
,  // measure 63
0010
0010
0000
0000
,  // measure 64
0100
0100
0000
0000
,  // measure 65
0001
0000
1000
0000
,  // measure 66
0001
0000
0010
0000
,  // measure 67
0100
0100
0100
0000
,  // measure 68
1000
0000
0001
0000
,  // measure 69
0100
0100
0100
0000
,  // measure 70
0010
0010
0010
0000
,  // measure 71
1000
1000
1000
0000
,  // measure 72
0001
0000
0100
0000
,  // measure 73
0001
0001
0001
0000
,  // measure 74
1000
1000
1000
0000
,  // measure 75
0010
0010
0010
0000
,  // measure 76
0100
0100
0100
0000
,  // measure 77
0001
0001
0001
0000
,  // measure 78
1000
1000
1000
0000
,  // measure 79
0110
0000
0110
0000
,  // measure 80
0110
0000
0000
0000
,  // measure 81
0100
0100
0100
0000
,  // measure 82
0010
0010
0010
0010
,  // measure 83
0020
0000
0000
0000
,  // measure 84
0000
0000
0000
0000
,  // measure 85
0000
0000
0000
0030
;
