#TITLE:Frozen Ray ~for EXTREME~;
#ARTIST:dj TAKA;
#BANNER:Frozen Ray ~for EXTREME~-bn.png;
#BACKGROUND:Frozen Ray ~for EXTREME~-bg.png;
#JACKET:Frozen Ray ~for EXTREME~-jacket.png;
#MUSIC:Frozen Ray ~for EXTREME~.ogg;
#SAMPLESTART:26.153;
#SAMPLELENGTH:20;
#DISPLAYBPM:156;
#BPMS:0=156.522,4=155.997;
#BGCHANGES:;

//---------------dance-single - ----------------
#NOTES:
     dance-single:
     :
     Beginner:
     4:
     :
0000
0000
0000
0000
,
0000
0000
0000
0000
,
0000
0000
0000
0000
,
0000
0000
0000
0000
,
0000
0000
0000
0000
,
0010
0000
0000
0000
,
0001
0000
0000
0000
,
1000
0000
0000
0000
,
0100
0000
0000
0000
,
0010
0000
0010
0000
,
1000
0000
1000
0000
,
0001
0000
0001
0000
,
0100
0000
0100
0000
,
1000
0000
0010
0000
,
0001
0000
0010
0000
,
0010
0000
0100
0000
,
0010
0000
0100
0000
,
1000
0000
0001
0000
,
0000
0100
0000
0010
,
0010
0000
0100
0100
,
0000
0100
0000
0100
,
0000
0100
0000
1000
,
0000
0100
0000
0010
,
0010
0000
0100
0100
,
0000
0100
0000
0100
,
0000
1001
0000
0100
,
0000
0001
0000
1000
,
0000
0001
0000
0010
,
0000
0010
0000
1000
,
0000
1001
0000
0100
,
0000
1000
0000
0001
,
0000
1000
0000
0010
,
0000
0010
0000
0001
,
0000
0100
0000
1000
,
1000
0000
0100
0000
,
0001
0000
0001
0000
,
0010
0000
0010
0000
,
0000
0001
0000
0100
,
0100
0000
0100
0000
,
1000
0000
1000
0000
,
0010
0000
0010
0000
,
0000
1000
0000
0010
,
0010
0000
0010
0000
,
0001
0000
0001
0000
,
0100
0000
0100
0000
,
0000
0001
0000
0010
,
0010
0000
0010
0000
,
1000
0000
1000
0000
,
0100
0000
0100
0000
,
0010
0000
0000
0100
,
0000
1000
0000
0010
,
0010
0000
0100
0000
,
0001
0000
0001
0000
,
0010
0000
0000
0100
,
0100
0000
0001
0000
,
0010
0000
0100
0000
,
1000
0000
1000
0000
,
0100
0100
0000
0010
,
0000
1000
0000
0100
,
0100
0000
0010
0000
,
0001
0000
0001
0000
,
0100
0100
0000
0010
,
0000
0001
0000
0100
,
0100
0000
0010
0000
,
1000
0000
1000
0000
,
0010
0000
0000
0000
,
0100
0000
0000
0000
,
0001
0000
0000
0000
,
1000
0000
0000
0000
,
0000
0000
0000
0000
;

//---------------dance-single - ----------------
#NOTES:
     dance-single:
     :
     Easy:
     5:
     :
0000
0000
0000
0000
,
0000
0000
0000
0000
,
0000
0000
0000
0000
,
0000
0000
0000
0000
,
0000
0000
0000
0000
,
0020
0000
0000
0030
,
0002
0000
0000
0003
,
2000
0000
0000
3000
,
0200
0000
0000
0300
,
0010
0000
0010
0000
,
1000
0000
1000
0000
,
0001
0000
0001
0000
,
0100
0000
0100
0010
,
1000
0100
0010
0000
,
0001
0100
0010
0000
,
0010
0000
0100
0000
,
0010
0000
0100
0000
,
1000
1010
0000
0001
,
1000
0000
0100
0000
,
0010
0000
0100
0100
,
1000
0100
1000
0100
,
0001
0011
0000
1000
,
0001
0000
0100
0000
,
0010
0000
0100
0100
,
0001
0100
0001
0100
,
0010
1001
1000
0100
,
0010
0001
1000
1000
,
0001
0001
0010
0010
,
0001
0010
0100
1000
,
0010
1001
0001
0100
,
0010
1000
0001
0001
,
1000
1000
0010
0010
,
1000
0010
0100
0001
,
1000
0100
1000
0000
,
0100
0001
0100
0000
,
0001
0010
0001
0000
,
0010
1000
0010
0000
,
0001
0100
0001
0000
,
0100
1000
0100
0000
,
1000
0010
1000
0000
,
0010
0001
0010
0000
,
1000
0010
1000
0000
,
0010
0001
0010
0000
,
0001
0100
0001
0000
,
0100
1000
0100
0000
,
0001
0010
0001
0000
,
0010
1000
0010
0000
,
1000
0100
1000
0000
,
0100
0001
0100
0000
,
0010
1001
0000
0100
,
0001
0000
1000
0000
,
0010
0000
0100
0000
,
0001
0000
0001
1001
,
0010
1001
0000
0100
,
1000
0000
0001
0000
,
0010
0000
0100
0000
,
1000
0000
1000
1001
,
0100
1001
0000
0010
,
0001
0000
1000
0000
,
0100
0000
0010
0000
,
0001
0000
0001
1001
,
0100
1001
0000
0010
,
1000
0000
0001
0000
,
0100
0000
0010
0000
,
1000
0000
1000
1001
,
0020
0000
0000
0030
,
0200
0000
0000
0300
,
0002
0000
0000
0003
,
2000
0000
0000
3000
,
0000
0000
0000
0000
;

//---------------dance-single - ----------------
#NOTES:
     dance-single:
     :
     Medium:
     9:
     :
0000
0000
0000
0000
,
0000
0000
0000
0000
,
0000
0000
0000
0000
,
0000
0000
0000
0000
,
0000
0000
0000
0000
,
0100
0100
0100
0100
,
0010
0010
0010
0010
,
1000
1000
1000
1000
,
0001
0001
0001
0001
,
0010
1000
0010
0000
0100
0000
0001
0000
,
0010
0001
0010
0000
0100
0000
1000
0001
,
0100
0001
0100
0000
0010
0000
1000
0000
,
0100
1000
0100
0000
0010
0000
0001
1000
,
0010
0100
0010
0000
0010
1000
0010
0000
,
0100
0010
0100
0000
0100
0001
0100
0000
,
0020
0000
0000
0000
1000
0000
1030
0100
,
0020
0000
0000
0000
0001
0000
0031
0100
,
0010
0000
1100
0000
0000
0001
0000
0001
,
0000
1000
0100
1000
0001
0000
2000
0000
,
0010
0100
0001
0100
,
0010
0100
0001
3100
,
0010
0000
0101
0000
0000
1000
0000
1000
,
0000
0000
0100
0001
1000
0000
0002
0000
,
0010
0100
1000
0100
,
0010
0100
1000
0103
,
0010
0101
1000
0100
,
0001
0000
0100
0000
1000
0001
1000
0000
,
0100
1000
0001
0000
0100
0001
1000
0000
,
0011
1100
0101
1010
,
0100
0001
1000
1000
,
0100
1000
0001
0001
,
1000
0100
0010
0000
0001
0100
0010
0000
,
0100
1000
0001
1001
,
0000
1000
0100
1000
0000
0100
0000
0001
,
0000
0100
0001
0100
0000
0001
0000
0010
,
0000
0001
0010
0001
0000
0010
0000
1000
,
0000
0010
1000
0010
0000
1000
0000
0100
,
0000
0001
0100
0001
0000
0100
0000
1000
,
0000
0100
1000
0100
0000
1000
0000
0010
,
0000
1000
0010
1000
0000
0010
0000
0001
,
0000
0010
0001
0010
0000
0001
0000
0100
,
0000
1000
0100
1000
0000
0001
0000
0100
,
0000
0100
0001
0100
0000
0010
0000
0001
,
0000
0001
0010
0001
0000
1000
0000
0010
,
0000
0010
1000
0010
0000
0100
0000
1000
,
0000
0001
0100
0001
0000
1000
0000
0100
,
0000
0100
1000
0100
0000
0010
0000
1000
,
0000
1000
0010
1000
0000
0001
0000
0010
,
0000
0010
0001
0010
0000
0100
1000
0001
,
0100
1010
0001
0001
,
1000
1000
0100
0100
,
0010
0001
0010
1000
,
0010
0001
0010
1000
,
0010
0001
0100
0001
,
0010
0001
0100
0001
,
1000
1000
0100
0100
,
0000
0010
0000
0010
0000
0001
1000
0000
,
0100
0011
1000
1000
,
0001
0001
0100
0100
,
0010
1000
0010
0001
,
0010
1000
0010
0001
,
0010
1100
0001
0001
,
0100
0011
1000
1000
,
0001
0100
0010
1000
,
1000
0100
0010
0001
,
1002
0000
0000
0000
,
0100
0000
0000
0000
,
0010
0000
0000
0000
,
1000
0000
0000
0003
,
0000
0000
0000
0000
;

//---------------dance-single - ----------------
#NOTES:
     dance-single:
     :
     Hard:
     12:
     :
0000
0000
0000
0000
,
0000
0000
0000
0000
,
0000
0000
0000
0000
,
0000
0000
0000
0000
,
0000
0000
0000
0000
,
1000
1000
1000
1000
,
0100
0100
0100
0100
,
0010
0000
0000
0001
0010
0000
0000
0001
0010
0000
0000
0001
0010
0000
0000
0001
,
1000
0000
0000
0100
1000
0000
0000
0100
1000
0000
0000
0100
1000
0000
0100
0000
,
0010
0000
0001
0000
0010
0000
0000
0000
0100
0000
0000
0100
0010
0000
0000
0000
,
0010
0000
1000
0000
0010
0000
0000
0000
0100
0000
0000
0100
0010
0000
1000
0000
,
0001
0000
0100
0000
0001
0000
0000
0000
1000
0000
0000
0100
0010
0000
0000
0000
,
1000
0000
0100
0000
1000
0000
0000
0000
0001
0000
0000
0100
0010
0000
0100
0000
,
0001
0100
0010
0000
1000
0100
0010
0000
,
0001
0000
1000
0000
0100
0000
0000
0000
0001
0000
0000
1000
0100
0000
0100
0000
,
0010
0000
0000
0000
0010
0000
0000
0001
1000
0000
0000
1000
0001
0000
0100
0000
,
0010
0010
0000
0000
1000
0001
1000
0100
,
1000
0000
0011
0000
1000
0100
1000
0001
,
0000
0001
0000
1000
0000
1000
0100
1000
,
0010
0000
0001
0100
0000
0010
1000
0010
,
0000
1000
0000
1000
0000
0001
0100
0010
,
0001
0000
1010
0000
0001
0100
0001
1000
,
0000
0000
1000
0001
0000
0001
0100
0001
,
0010
0010
0000
0001
0100
0100
0000
1000
,
1100
0000
0101
0000
1001
0100
0010
0100
,
0010
0000
0001
0000
0010
0000
0000
0000
1000
0100
0000
0000
0010
0000
0100
0000
,
0010
0001
1000
0000
1000
1000
0001
0000
,
0010
1000
0000
1000
0100
0000
0000
0100
0010
0000
0001
0000
0001
0000
0000
0000
,
0010
0001
0000
0000
1000
0000
0001
0000
1000
0100
0000
0000
0010
0000
0000
0000
,
0001
0000
0100
0000
0010
0000
0000
0000
0010
1000
0000
0000
0100
0000
0010
0000
,
0001
0000
0010
0000
0100
0000
0000
0000
0100
1000
0000
0000
0010
0000
0100
0000
,
0001
0000
1000
0000
0001
0000
0000
0000
0001
0100
0000
0000
0010
0000
1000
0000
,
0100
0010
0100
1000
0000
0001
1000
0001
,
0000
1000
0100
1000
0000
0100
0001
0100
,
0000
0001
0010
0001
0000
0010
1000
0010
,
0000
1000
0100
1000
0000
0100
0001
0100
,
0000
0001
0010
0001
0000
0010
1000
0010
,
0000
0001
0100
0001
0000
0100
1000
0100
,
0000
1000
0010
1000
0000
0010
0001
0010
,
0000
0001
0100
0001
0000
0100
1000
0100
,
0000
1000
0010
1000
0000
0010
0001
0010
,
0000
1000
0100
1000
0000
0100
0001
0100
,
0000
1000
0010
1000
0000
0010
0001
0010
,
0000
1000
0100
1000
0000
0100
0001
0100
,
0000
1000
0010
1000
0000
0010
0001
0010
,
0000
0001
0010
0001
0000
0010
1000
0010
,
0000
0001
0100
0001
0000
0100
1000
0100
,
0000
0001
0010
0001
0000
0010
1000
0010
,
0000
0001
0100
0001
0000
0100
1000
0100
,
0001
0000
1000
0100
1000
0010
0000
0010
,
1000
0000
0001
0100
0001
0010
0000
0010
,
1000
0100
1000
0000
0001
0000
0001
0100
,
0000
1000
0000
1000
0000
0001
0100
0010
,
1000
0000
1000
0100
0001
0100
0000
1000
,
0100
0000
0001
0100
1000
0100
0000
0010
,
1000
0100
1000
0000
0100
0000
1000
0010
,
0000
0001
0000
0001
0000
1000
0100
0100
,
0010
0001
0001
0100
1000
0100
0010
0100
,
0001
1000
0001
0010
1000
0010
0100
0010
,
0001
0010
1000
0100
1000
0010
0100
0010
,
0001
1000
0010
0001
0010
1000
0001
0100
,
0010
0100
0001
0100
1000
0100
0001
0100
,
1000
0010
0001
0010
1000
0010
0001
0010
,
1000
0010
0001
0100
0010
1000
0001
0010
,
0100
1000
0001
1000
0010
0100
0001
1000
,
0012
0000
1000
1000
0000
0000
0003
0000
,
2010
0000
0001
0001
0000
0100
3000
0000
,
0110
0000
1000
0100
0000
0001
0000
0000
,
2002
0000
0000
3003
,
0000
0000
0000
0000
;

//---------------dance-single - ----------------
#NOTES:
     dance-single:
     :
     Challenge:
     17:
     :
0000
0000
0000
0000
,
0000
0000
0000
0000
,
0000
0000
0000
0000
,
0000
0000
0000
0000
,
0000
0000
0000
0000
,
1000
0100
1000
0000
0100
1000
0100
0000
1000
0100
1000
0000
0100
1000
0100
0000
,
0010
0001
0010
0000
0001
0010
0001
0000
0010
0001
0010
0000
0001
0010
0001
0000
,
1000
0001
1000
0000
0001
1000
0001
0000
1000
0001
1000
0000
0001
1000
0001
0000
,
1000
0001
1000
0000
0001
1000
0001
0000
1000
0001
1000
0000
0001
1000
0001
0000
,
0100
0010
0100
0000
0001
0010
0001
0000
1000
0000
0000
0010
0100
0000
0001
0000
,
0010
0100
0010
0000
0100
1000
0100
0000
0010
0000
0000
0000
0001
0000
0001
0000
,
0001
1000
0001
0000
0100
0001
0100
0000
0010
0000
0000
0000
1000
0000
1000
0000
,
1000
0010
1000
0000
0001
0010
0001
0000
0100
0000
0000
0010
1000
0001
0100
0000
,
0011
0011
0110
0110
1100
1100
1001
1001
,
1100
0000
1001
0000
0101
0000
1001
0000
1100
0000
0000
0000
1000
0100
0010
0000
,
0001
0100
0010
0000
1000
0100
1000
0000
0010
0000
0100
0001
1000
0000
0010
0000
,
1000
0100
0010
0000
0001
1000
0010
0100
0001
0010
0001
0010
0100
1000
0100
1000
,
0010
0100
0001
0000
1000
0010
1000
0100
0010
0000
0001
0100
0010
0100
0001
0000
,
0010
0100
0010
0000
0001
1000
0001
0000
0100
0010
0100
0000
0001
1000
0001
0000
,
1000
0100
0010
0001
0010
0100
1000
0000
0010
0100
0001
0000
1000
0001
0100
0000
,
0010
1000
0001
0000
0100
1000
0100
0010
0100
0001
0100
0000
0001
1000
0010
0000
,
1100
0000
0110
0000
0011
0000
0100
0000
0001
0010
1000
0000
0100
0010
0001
0000
,
0100
0000
0010
1000
0001
0000
0010
0100
1000
0000
0010
0100
0001
0000
1000
0001
,
1000
0000
0010
0100
0010
1000
0100
0010
0001
0100
0001
0000
1000
0010
0100
0000
,
0001
0010
0001
0000
0100
0010
0100
0001
1000
0100
1000
0010
1000
0100
1000
0001
,
0010
0000
0101
0000
1001
0000
0010
0000
1000
0100
1000
0010
0100
0001
1000
0000
,
0010
1000
0100
0000
1000
0010
0100
0001
0010
0100
1000
0000
0001
0100
0001
0000
,
0010
0100
0010
0100
1000
0100
1000
0100
0010
0001
0010
0001
0100
0010
1000
0000
,
0001
1000
0001
0000
1000
0100
0010
0001
1000
0100
0010
0001
0100
0010
1000
0001
,
0010
0001
0100
0000
0010
1000
0100
0000
1000
0010
0001
0000
1000
0100
0001
0000
,
0010
0100
0010
0000
0001
1000
0001
0000
1000
0001
1000
0000
0100
0010
0100
0000
,
1000
0001
0100
0000
0010
0001
0010
1000
0100
0010
0001
0000
1000
0100
0001
0000
,
0010
0001
0100
0001
0010
0001
0100
0000
0010
1000
0100
1000
0010
1000
0100
0000
,
0010
0100
0001
0000
1001
0000
0100
0000
0010
1000
0100
0000
0011
0000
0001
0000
,
1000
0001
1000
0000
0110
0000
0100
0000
0001
0010
0100
0000
1100
0000
0001
0000
,
0100
0010
1000
0000
0101
0000
0010
0000
1000
0100
0010
0000
0110
0000
0100
0000
,
1000
0010
0100
0010
1000
0100
0010
0100
1000
0010
0100
0010
1000
0001
1000
0000
,
0010
0001
0100
0000
1010
0000
0100
0000
0001
1000
0100
0000
0011
0000
1000
0000
,
0010
1000
0100
0000
1001
0000
0010
0000
0100
0001
0010
0000
1100
0000
1000
0000
,
0010
1000
0001
0000
0110
0000
0100
0000
0001
0010
0100
0000
1001
0000
1000
0000
,
0010
0100
0001
0100
0010
0100
0001
0000
1000
0100
1000
0010
1000
0100
1000
0000
,
0001
0010
0100
0000
1100
0000
1100
0000
1000
0001
0100
0000
0101
0000
0101
0000
,
0010
1000
0001
0000
0011
0000
0011
0000
0100
0010
1000
0000
1010
0000
1010
0000
,
1000
0100
0001
0000
1000
0100
0001
0000
1000
0100
0001
0000
1000
0100
0001
0000
,
1000
0010
0001
0000
1000
0010
0001
0000
1000
0010
0001
0000
1000
0010
0001
0000
,
0100
0010
1000
0000
1001
0000
1001
0000
0100
0010
0001
0000
0110
0000
0110
0000
,
1000
0001
0100
0000
0101
0000
1010
0000
1000
0001
0100
0000
0011
0000
1100
0000
,
1000
0001
1000
0001
1000
0001
1000
0001
0100
0010
0100
0010
0100
0010
0100
0010
,
1000
0001
1000
0001
0100
0010
0100
0010
1000
0001
0100
0010
1000
0001
0100
0010
,
1000
0000
0100
0000
1001
0000
0001
0000
0010
0100
1000
0000
0010
0100
0001
0000
,
1000
0100
0001
0100
1000
0000
0010
0100
0000
0100
0001
0000
0010
0001
1000
0000
,
0010
1000
0100
1000
0100
0010
0001
0100
0000
0010
0100
0000
0001
1000
0010
1000
,
0000
0100
0010
0000
0001
0000
0100
0010
0000
0010
1000
0100
1000
0000
0001
0000
,
0010
0001
0100
0000
1010
0000
0100
0000
0010
0001
1000
0020
0000
0000
0130
0001
,
1000
0000
0100
0010
0100
0000
1000
0010
0000
0100
1000
0100
0001
0010
0001
0000
,
0100
0010
0100
0010
0100
0000
0001
0010
0000
0001
1000
0000
0100
1000
0001
0000
,
0010
0001
1000
0001
0010
0001
1000
0001
0100
0010
1000
0001
0100
0010
0100
0000
,
0101
0000
1001
0000
1010
0000
1100
0000
0010
1000
0100
0010
0001
0000
0100
0000
,
0010
0000
1000
0001
0100
0000
0100
0010
0000
0010
1000
0000
1000
0001
0010
0000
,
0001
0100
1000
0100
0001
0000
0012
0000
0000
1003
0001
0000
0100
0010
1000
0010
,
0200
0000
0302
0000
0013
0100
1000
0000
0100
0010
0100
0000
1000
0001
0100
0000
,
0010
0001
0010
1000
0100
0000
0010
0001
0000
0001
1000
0000
0100
1000
0010
0000
,
0100
0001
0010
0001
1000
0000
0100
0010
0000
0010
0001
0000
1000
0100
0001
0000
,
0010
0001
1000
0010
1000
0000
0100
0010
0000
0001
0100
0010
1000
0001
1000
0100
,
0010
0001
0100
0010
0100
0000
0001
1000
0000
1000
0100
1000
0010
0100
0001
1000
,
0010
0100
0001
2000
0000
0000
0000
0000
,
3100
0010
0001
2000
0000
3020
0000
0000
,
0130
0001
1000
0200
0000
0320
0000
0030
,
0022
0000
0000
0000
,
0000
0000
0000
0000
,
0033
0000
0000
0000
;

//---------------dance-double - ----------------
#NOTES:
     dance-double:
     :
     Easy:
     4:
     :
00000000
00000000
00000000
00000000
,
00000000
00000000
00000000
00000000
,
00000000
00000000
00000000
00000000
,
00000000
00000000
00000000
00000000
,
00000000
00000000
00000000
00000000
,
02000000
00000000
00000000
03000000
,
00002000
00000000
00000000
00003000
,
00020000
00000000
00000000
00030000
,
00000020
00000000
00000000
00000030
,
00000001
00000100
00000000
00000000
,
00000010
00010000
00000000
00000000
,
00001000
01000000
00000000
00000000
,
00100000
10000000
00000000
00000000
,
10000000
01000000
00000000
00100000
,
00001000
00010000
00000000
00000100
,
00000010
00000001
00000000
00001000
,
00000010
00000100
00000000
00001001
,
00000010
00000011
00000000
00000100
,
00001000
00000000
00010000
00000000
,
00001000
00000000
01000000
00000000
,
00010000
00000000
01000000
00000000
,
00100000
10100000
00000000
01000000
,
00010000
00000000
00001000
00000000
,
00010000
00000000
00000100
00000000
,
00001000
00000000
00000100
00000000
,
00001000
00001001
00000000
00000001
,
00000100
00000000
00001000
00000000
,
00010000
00000000
00100000
00000000
,
01000000
00000000
00010000
00000000
,
00010000
10010000
00000000
10000000
,
01000000
00000000
00010000
00000000
,
00001000
00000000
00000010
00000000
,
00000100
00000000
00001000
00000000
,
00000000
00000010
00000000
00000100
,
00000000
00001000
00000000
00010000
,
00000000
00100000
00000000
01000000
,
00000000
00010000
00000000
00001000
,
00000000
00000010
00000000
00000100
,
00000000
00001000
00000000
00010000
,
00000000
00100000
00000000
01000000
,
00000000
00010000
00000000
10000000
,
00000000
01000000
00000000
00100000
,
00000000
00010000
00000000
00001000
,
00000000
00000100
00000000
00000010
,
00000000
00001000
00000000
00010000
,
00000000
01000000
00000000
00100000
,
00000000
00010000
00000000
00001000
,
00000000
00000100
00000000
00000010
,
00000000
00000001
00000000
00001000
,
00000010
00001001
00000001
00000001
,
00000100
00000000
00001000
00000000
,
00010000
00000000
00100000
00000000
,
10000000
00000000
01000000
01000000
,
00100000
10010000
10000000
10000000
,
01000000
00000000
00010000
00000000
,
00001000
00000000
00000010
00000000
,
00000001
00000000
00000100
00000100
,
00000010
00001001
00001000
00000001
,
00000010
00000000
00001000
00000000
,
00010000
00000000
01000000
00000000
,
10000000
00000000
00100000
00100000
,
01000000
10010000
00010000
10000000
,
00100000
00000000
00010000
00000000
,
00001000
00000000
00000100
00000000
,
00000001
00000000
00000010
00000010
,
00000200
00000000
00000000
00000300
,
00020000
00000000
00000000
00030000
,
00002000
00000000
00000000
00003000
,
02000000
00000000
00000000
03000000
,
00000000
00000000
00000000
00000000
;

//---------------dance-double - ----------------
#NOTES:
     dance-double:
     :
     Medium:
     8:
     :
00000000
00000000
00000000
00000000
,
00000000
00000000
00000000
00000000
,
00000000
00000000
00000000
00000000
,
00000000
00000000
00000000
00000000
,
00000000
00000000
00000000
00000000
,
00000001
00000001
00000001
00000001
,
00000100
00000100
00000100
00000100
,
00000010
00000010
00000010
00000010
,
00010000
00010000
00010000
00010000
,
00100000
10000000
00100000
00000000
10000000
00000000
10000000
00000000
,
01000000
00000000
00010000
00000000
00001000
00000000
00010000
00001000
,
00000010
00000001
00000010
00000000
00000001
00000000
00000001
00000000
,
00000100
00000000
00001000
00000000
00010000
00000000
00001000
00010000
,
00100000
10000000
00100000
00000000
01000000
00000000
00001000
00000000
,
00010000
00000100
00000010
00000001
,
00000100
00000010
00010000
00000000
00001000
00000000
00010000
00000000
,
01000000
00100000
00001000
00000000
00010000
00000000
00001000
00000000
,
00000010
00000011
00000001
00000100
,
00001000
00010000
00001000
00010000
,
00100000
10000000
01000000
10000000
,
01000000
00000000
00100000
00000000
00001000
01000000
00010000
01000000
,
00100000
10100000
10000000
01000000
,
00010000
00001000
00010000
00001000
,
00000010
00000001
00000100
00000001
,
00000100
00000000
00000010
00000000
00010000
00000100
00001000
00000100
,
00000010
00001001
00000010
00000100
,
00001000
00010000
01000000
10000000
,
00000000
00100000
00000000
01000000
00000000
00001000
00000000
00010000
,
00000000
00000010
00000000
00000100
00000000
00001000
00010000
01000000
,
00100000
10010000
00100000
01000000
,
00010000
00001000
00000100
00000001
,
00000000
00000010
00000000
00000100
00000000
00010000
00000000
00001000
,
00000000
00100000
00010000
01000000
00000000
00001000
00010000
00000100
,
00000000
00000010
00000000
00000001
00000000
00000100
00000000
00001000
,
00000000
00010000
00000000
00100000
00000000
10000000
00000000
01000000
,
00000000
00010000
00000000
00001000
00000000
00000100
00000000
00000001
,
00000000
00000010
00000000
00001000
00000000
00010000
00000000
01000000
,
00000000
10000000
00000000
00100000
00000000
01000000
00000000
00001000
,
00000000
00010000
00000000
00000010
00000000
00000100
00000000
00000001
,
00000000
00000010
00000000
00000100
00000000
00010000
00000000
00001000
,
00000000
00100000
00000000
01000000
00000000
10000000
00000000
01000000
,
00000000
00100000
00000000
10000000
00000000
01000000
00000000
00010000
,
00000000
00001000
00000000
00000010
00000000
00000001
00000000
00000100
,
00000000
00001000
00000000
00010000
00000000
01000000
00000000
10000000
,
00000000
00100000
00000000
00010000
00000000
00001000
00000000
00000100
,
00000000
00000001
00000000
00000010
00000000
00000100
00000000
00010000
,
00000000
00001000
00000000
00100000
00000000
01000000
00000000
10000000
,
00000000
00100000
00000000
01000000
00000000
00001000
00000000
00010000
,
00000000
00000010
00000000
00000100
00000000
00000001
00000000
00000100
,
00000010
00001100
00000001
00000100
,
00001000
00010000
00100000
01000000
,
00010000
00001000
00000010
00000100
,
00001000
00000000
00010000
00000000
00100000
01000000
00010000
10000000
,
00100000
01010000
10000000
01000000
,
00010000
00001000
00000010
00000100
,
00001000
00010000
00100000
01000000
,
00010000
00000000
00001000
00000000
00000010
00000100
00001000
00000001
,
00000100
00001010
00000001
00000100
,
00001000
00010000
00100000
01000000
,
00010000
00001000
00000010
00000100
,
00000000
00001000
00000000
00010000
00000000
00100000
10000000
00010000
,
01000000
00110000
10000000
01000000
,
00010000
00001000
00000010
00000100
,
00001000
00010000
00100000
01000000
,
00000000
00010000
00000000
00001000
00000000
00000010
00000001
00001000
,
00000020
00000000
00000000
00000030
,
00020000
00000000
00000000
00030000
,
00002000
00000000
00000000
00003000
,
02000000
00000000
00000000
03000000
,
00000000
00000000
00000000
00000000
;

//---------------dance-double - ----------------
#NOTES:
     dance-double:
     :
     Hard:
     11:
     :
00000000
00000000
00000000
00000000
,
00000000
00000000
00000000
00000000
,
00000000
00000000
00000000
00000000
,
00000000
00000000
00000000
00000000
,
00000000
00000000
00000000
00000000
,
01000000
01000000
01000000
01000000
,
00010000
00010000
00010000
00010000
,
00001000
00001000
00001000
00001000
,
00000010
00000000
00000010
00000000
00000010
00000000
00000010
00000001
,
00000100
00000010
00010000
00000000
00001000
00000000
01000000
00000000
,
00100000
10000000
01000000
00000000
00100000
00000000
00001000
00010000
,
00001000
00000010
00000100
00000000
00001000
00000000
00000001
00000000
,
00000100
00000010
00010000
00000000
00001000
00000000
00100000
01000000
,
10000000
00100000
10000000
00000000
00001000
01000000
00001000
00000000
,
00010000
00000010
00010000
00000000
00000100
00000000
00000010
00000001
,
00000100
00001000
00000000
00000000
00001000
00010000
00100000
10000000
,
01000000
00010000
00000000
00000000
00010000
00001000
00000010
00000001
,
00000100
00000000
00000011
00000000
00000001
00000100
00000010
00010000
,
00000000
00001000
00000000
00010000
00000000
00100000
10000000
01000000
,
10000000
00000000
10000000
01000000
00000000
01000000
00010000
01000000
,
00000000
00010000
00000000
00001000
00000000
00000010
00000001
00000010
,
00000100
00000000
00000011
00000000
00000001
00000100
00000010
00010000
,
00000000
00000000
00001000
01000000
00000000
00100000
10000000
01000000
,
00010000
00001000
00000000
00010000
00000100
00000000
00000000
00000010
,
00000001
00000000
00000010
00000000
00001000
00010000
00001000
01000000
,
00100000
10000000
01000000
00000000
00010000
00000000
00001000
00000000
,
00000010
00000001
00001000
00000000
00000010
00000100
00000001
00000000
,
00000001
00000100
00001000
00000000
00000100
00001000
00010000
00000000
,
00010000
00100000
10000000
00100000
10000000
00000000
01000000
00000000
,
00010000
00001000
00010000
00000000
00001000
00000010
00000001
00000100
,
00000010
00010000
00001000
00000000
00000010
00000001
00000100
00001000
,
00010000
00001000
01000000
00000000
00100000
10000000
01000000
00100000
,
00001000
00010000
00000100
00000010
00000000
00000001
00001000
00000100
,
00000000
00000010
00000001
00000010
00000000
00000001
00000100
00000001
,
00000000
00000100
00001000
00000100
00000000
00001000
00010000
00001000
,
00000000
00010000
00100000
00010000
00000000
00100000
10000000
00100000
,
00000000
10000000
01000000
10000000
00000000
01000000
00010000
01000000
,
00000000
00010000
00001000
00010000
00000000
00001000
00000010
00001000
,
00000000
00000010
00000001
00000010
00000000
00000001
00000100
00000001
,
00000000
00000100
00001000
00000100
00000000
00001000
00010000
00001000
,
00000000
00010000
01000000
00010000
00000000
01000000
10000000
01000000
,
00000000
10000000
00100000
10000000
00000000
00100000
00010000
00100000
,
00000000
00010000
00001000
00010000
00000000
00001000
00000010
00001000
,
00000000
00000010
00000001
00000010
00000000
00000001
00000100
00000001
,
00000000
00000100
00001000
00000100
00000000
00001000
00010000
00001000
,
00000000
01000000
00100000
01000000
00000000
00010000
00100000
00001000
,
00000000
00010000
00000100
00000010
00000000
00000001
00000100
00000010
,
00000000
00000001
00000100
00000001
00000000
00000010
00010000
00000010
,
00000000
00001000
01000000
00001000
00000000
00100000
10000000
00100000
,
01000000
00000000
10100000
00010000
10000000
01000000
00000000
01000000
,
00010000
00000000
00010000
00001000
00000000
00000010
00000000
00000001
,
00000100
00000010
00001000
00000001
00000000
00000100
00000000
00001000
,
00000000
00010000
00000000
00100000
00000000
10000000
01000000
00100000
,
00010000
00000000
11000000
00100000
00001000
00010000
00000000
00010000
,
01000000
00000000
00100000
10000000
01000000
00010000
00000000
00010000
,
00001000
00010000
00000100
00000000
00000010
00000000
00000001
00000100
,
00000000
00001000
00000000
00010000
00000000
00001000
00000010
00000001
,
00000100
00000000
00000011
00001000
00000001
00000100
00000000
00000100
,
00001000
00000000
00001000
00010000
00000000
00100000
00000000
10000000
,
01000000
00100000
00010000
10000000
00000000
01000000
00000000
00010000
,
00000000
00001000
00000000
00000010
00000000
00000001
00000100
00000010
,
00001000
00000000
00000101
00000010
00010000
00001000
00000000
00001000
,
00000100
00000000
00000010
00000001
00000100
00001000
00000000
00001000
,
00010000
00001000
01000000
00000000
00100000
00000000
10000000
01000000
,
00000000
00010000
00000000
00001000
00000000
00010000
00100000
10000000
,
01000000
00000000
00100000
00001000
00000000
00000000
00000000
00000000
,
00010000
00000000
00000100
00000010
00000000
00001000
00000000
00000000
,
00000010
00000000
00000001
00000100
00000000
00001000
00000000
00000000
,
00020000
00000000
00000000
00030000
,
00000000
00000000
00000000
00000000
;
