#TITLE:Freeway of Love;
#ARTIST:Aretha Franklin;
#BANNER:Freeway of Love-bn.png;
#BACKGROUND:Freeway of Love-bg.png;
#JACKET:Freeway of Love-jacket.png;
#MUSIC:Freeway of Love.ogg;
#SAMPLESTART:57.1;
#SAMPLELENGTH:20;
#DISPLAYBPM:124:128;
#BPMS:0=126.19,32=125,44=126,51=127,60=126.4,68=125.4,76=125.75,80=125.42,84=126.57,120=125.72,136=125.1,148=127.1,169=125.679,184=124.135,188=125.167,196=128,204=126.718,216=125.138,232=125.97,239=127.14;
#BGCHANGES:;

//---------------dance-single - ----------------
#NOTES:
     dance-single:
     :
     Beginner:
     3:
     :
0000
0000
0000
0000
,
0000
0000
0000
0000
,
0000
0000
0000
0000
,
0000
0000
0000
0000
,
0000
0000
0000
0000
,
0000
0000
0000
0000
,
0000
0000
0000
0000
,
0000
0000
0000
0000
,
0001
0000
1000
0000
,
0100
0000
0000
0000
,
1000
0000
0001
0000
,
0010
0000
0000
0000
,
1000
0000
0001
0000
,
0100
0000
0001
0001
,
0000
0000
0000
0000
,
0000
0000
0000
0000
,
1000
0000
0010
0000
,
0100
0000
0000
0000
,
0001
0000
0010
0000
,
1000
0000
0000
1001
,
0000
0000
0000
1000
,
1000
0000
0001
0000
,
0100
0000
0010
0000
,
0000
1000
1000
0000
,
0110
0000
0001
0000
,
1000
0000
0100
0000
,
1000
0000
0010
0000
,
1001
0000
0000
0000
,
0110
0000
0000
0000
,
1001
0000
0000
0000
,
0000
0001
0000
1000
,
1000
0000
0010
0000
,
0100
0000
0001
0000
,
0010
0010
0000
0000
,
0000
0001
0000
0100
,
0100
0000
0010
0000
,
1000
0000
0100
0000
,
0001
0001
0000
0000
,
0000
0100
0000
0100
,
0000
0000
0010
0000
,
1000
0000
0100
0000
,
1000
0000
0001
0000
,
0110
0000
0000
0000
,
1001
0000
0000
0000
,
0110
0000
0000
0000
,
0000
0100
0000
0010
,
0010
0000
1000
0000
,
0100
0000
1000
0000
,
0001
0001
0000
0000
,
0000
1000
0000
0100
,
0100
0000
0010
0000
,
0100
0000
1000
0000
,
0001
0001
0000
0000
,
0000
0100
0000
0010
,
0010
0000
1000
0000
,
0001
0000
0010
0000
,
1000
1000
0000
0000
,
0000
0010
0010
0000
,
1000
0000
0001
0000
,
0100
0000
0001
0000
,
0010
0010
0000
0000
,
0001
0000
0100
0000
,
1000
0000
0001
0000
;

//---------------dance-single - ----------------
#NOTES:
     dance-single:
     :
     Easy:
     7:
     :
0000
0000
0000
0000
,
0000
0000
0000
0000
,
0000
0000
0000
0000
,
0000
0000
0000
0000
,
0000
0000
0000
0000
,
0000
0000
0000
0000
,
0000
0000
0000
0000
,
0000
0000
0000
0000
,
0001
0100
1000
0010
,
0001
1000
1000
0000
,
0010
1000
0010
0100
,
0001
1000
1000
0000
,
0010
1000
0100
0000
,
1001
0110
1000
0001
,
0010
0001
0000
1010
,
0000
1000
0001
0011
,
0001
0010
0001
0100
,
0010
1000
1000
0000
,
0100
1000
0010
0100
,
0001
1000
1000
1001
,
0010
1000
0000
0100
,
0001
0010
0001
0100
,
1000
1000
1000
0010
,
0000
1100
0101
0010
,
0110
1000
0100
0001
,
0010
0001
0100
1000
,
1001
0001
0100
0010
,
1010
0001
0100
0010
,
0101
1000
0100
0010
,
0011
0100
0010
1000
,
0001
1000
0010
0100
,
1001
0010
1000
1100
,
0101
0010
0001
0100
,
1000
0010
0000
0100
,
0000
0001
0010
1000
,
1001
0100
0010
0011
,
1100
0010
1000
0001
,
0010
0100
0000
1000
,
0000
1100
0101
0010
,
0110
0001
0010
0001
,
0100
0010
1000
0100
,
1001
0010
0001
0100
,
0110
1000
0100
0001
,
1001
0010
0001
0100
,
1100
0001
1000
0010
,
0100
0010
1000
0001
,
1001
0010
0001
0101
,
1010
0010
1000
0100
,
1000
0001
0001
0010
,
0001
0100
1000
0100
,
0110
0010
1000
1010
,
0011
0100
0001
0010
,
0100
1000
1000
1000
,
1000
0010
0001
0100
,
0110
0001
0010
1001
,
0110
1000
0010
0001
,
0100
0001
1000
0100
,
1000
0010
0001
0100
,
0101
0010
1000
0110
,
1001
0100
0001
0010
,
1000
0100
1000
0001
,
0010
1100
0010
0100
,
2000
0000
0002
0000
,
0000
0000
0000
0000
,
0000
0000
0000
0000
,
0000
0000
0000
3003
;

//---------------dance-single - ----------------
#NOTES:
     dance-single:
     :
     Medium:
     10:
     :
0000
0000
0000
0000
,
0000
0000
0000
0000
,
0000
0000
0000
0000
,
0000
0000
0000
0000
,
0000
0000
0000
0000
,
0000
0000
0000
0000
,
0000
0000
0000
0000
,
0000
0000
0000
0000
,
0001
0100
0001
0010
0001
0100
0010
1000
,
0000
0100
1100
0000
0101
0000
0000
0002
,
0000
1003
0001
0010
0001
0100
0010
1000
,
0000
1100
0101
1100
,
0001
0010
0001
0100
1000
1000
0000
0010
,
1001
0000
0110
0000
1000
0010
0001
0000
,
0100
0000
0001
1000
0000
2020
0000
0000
,
3030
0000
1100
0000
0101
0022
0000
0030
,
1003
0010
1000
0100
0010
0001
0200
0000
,
0310
0000
1100
0000
0101
0000
0000
0020
,
0000
1030
0100
1000
0010
0100
0001
1000
,
0000
0000
1100
0000
0101
0000
1001
0100
,
0010
0000
1000
0001
0000
0100
0010
1000
,
0000
0000
0001
0100
1000
0100
0001
0100
,
1000
0100
0001
0001
0000
0010
0001
0100
,
0000
0000
0000
0000
1100
0000
0000
0000
0101
0000
0000
0001
1000
0000
0100
0000
,
0110
0000
0010
0001
0010
0001
0100
1000
,
0001
0100
0010
1000
0000
1100
0000
0011
,
0000
0001
0001
0100
0010
1000
1000
0000
,
1100
0000
0001
0000
0001
0001
0001
0001
,
0101
0000
1000
0000
1000
1000
1000
1000
,
1100
0000
0001
0000
0001
0001
0001
0001
,
0000
0101
0000
1010
0000
0101
0000
1010
,
1001
0000
0010
1000
0100
0000
1000
0010
,
0001
0000
0100
0001
0010
0001
0010
0100
,
1000
0000
0001
0100
0000
1000
0010
0100
,
0000
0001
1000
0001
1000
0001
1000
0001
,
1001
0000
0001
0100
0010
0000
0100
0001
,
1000
0000
0010
1000
0100
0010
0100
0010
,
0001
0000
0100
0010
0000
1000
0100
0001
,
0000
0000
0000
0000
1100
0000
0000
0000
0101
0000
0000
0001
1000
0000
0100
0000
,
0110
0000
1000
0010
1000
0010
0100
0001
,
0010
0100
1000
0001
0000
0101
0000
1010
,
0000
0001
0001
0100
0010
1000
1000
0000
,
1010
0000
0001
0000
0001
0001
0001
0001
,
0011
0000
1000
0000
1000
1000
1000
1000
,
1010
0000
0001
0000
0001
0001
0001
0001
,
0000
0011
0000
1100
0000
0101
0000
1010
,
1001
0000
0010
1000
0001
0000
1000
0010
,
0100
0000
0001
0010
0001
1000
0010
0100
,
0000
0000
0001
0000
0000
0001
0000
0000
0001
0000
1000
0000
0010
0000
0100
0000
,
0000
0001
1000
0001
1000
0001
1000
0001
,
1001
0000
0100
1000
0001
0000
1000
0100
,
0001
0000
0010
0001
1000
0010
1000
0010
,
0100
0000
0001
1000
0000
0001
0100
1000
,
0000
0010
0100
0010
0100
0010
0100
0010
,
0110
0000
0001
0100
0010
0000
1000
0100
,
0001
0000
0010
0001
1000
0001
0100
0010
,
0000
2000
0000
3002
0000
0000
0013
0100
,
0000
0000
2000
0000
0000
3020
0000
0000
1030
0000
0100
0000
0010
0000
0001
0000
,
0110
0000
0001
0010
0001
0000
1000
0100
,
0001
0000
1000
0001
1000
0100
1000
0100
,
0000
1010
0000
0100
0011
0000
0100
0010
,
1000
0000
0100
0000
1100
0000
0000
0000
0101
0000
0000
0001
1000
0000
0100
0000
,
2200
0000
3300
0202
0000
0000
0000
0000
,
0000
0000
0000
0000
,
0000
0000
0000
0000
,
0000
0000
0000
0303
;

//---------------dance-single - ----------------
#NOTES:
     dance-single:
     :
     Hard:
     13:
     :
0000
0000
0000
0000
,
0000
0000
0000
0000
,
0000
0000
0000
0000
,
0000
0000
0000
0000
,
0000
0000
0000
0000
,
0000
0000
0000
0000
,
0000
0000
0000
0000
,
0000
0000
0000
0000
,
0001
0010
0001
0100
0010
1000
0001
1000
,
0100
0010
0001
0000
0110
0001
1000
0200
,
0000
1000
1300
0001
0010
0001
0100
0100
,
0010
0000
0000
0000
1000
0000
0100
0000
0001
0000
0010
0000
0001
0000
0100
0010
,
1000
0000
0100
0000
0001
0000
0100
0000
1000
0000
0010
0000
0000
0000
0100
0001
,
0010
0001
0010
1000
0001
0100
0001
0000
,
0010
0001
0010
0100
1000
1010
0100
0001
,
0010
0000
0001
0000
1000
0000
0001
0000
0100
0000
0011
0000
1000
0000
0001
0100
,
0001
0010
1000
0100
1000
0010
0002
0100
,
1003
0000
1100
0001
1000
1000
0100
0020
,
0000
0001
0031
0100
1000
0010
1000
0001
,
0100
0000
0101
0010
1000
1000
1001
0100
,
0010
1000
0001
0010
0000
0001
0100
1000
,
0010
0000
1010
0001
0100
1000
0100
0001
,
0010
0001
0100
2000
0000
0010
3010
0100
,
0001
0000
0000
0000
1001
0000
0100
0000
1000
0000
0010
0100
0010
0000
1000
0000
,
0101
0000
0010
0100
0010
0001
0010
1000
,
0001
0100
1000
0010
0100
0010
1000
0001
,
1100
0001
0001
0100
1000
0010
0100
0000
,
0110
0000
0000
0000
0001
0000
0100
0000
1000
0010
1000
0010
1000
0000
0001
0000
,
0011
0000
0000
0000
1000
0000
0100
0000
0001
0010
0001
0010
0001
0000
1000
0000
,
1100
0000
0000
0000
0010
0000
0100
0000
0001
1000
0001
1000
0001
0000
0010
0100
,
1000
0001
0001
1000
1000
0010
1000
0001
,
1001
0001
0010
0100
1000
0010
1000
0001
,
0101
0000
1010
0010
1000
0100
1000
0001
,
0100
0010
1000
1000
0000
0001
0100
1000
,
0010
1000
1000
0001
0001
0100
0010
1000
,
1100
0010
1000
0001
0100
0010
1000
0100
,
0110
0000
1001
0010
1000
1000
0001
0100
,
1010
0001
1000
1000
0000
0001
0100
1000
,
0010
0000
0000
0000
1100
0000
0010
0000
0100
0000
0001
0010
0001
0000
1000
0000
,
0110
0010
1000
1000
0100
0010
0100
0001
,
0100
0000
1000
0000
0001
0000
0001
0000
0100
0000
0010
0000
1000
0000
0001
1000
,
0010
0100
0001
0001
1000
0100
0010
0100
,
1100
0000
0000
0000
0010
0000
1000
0000
0001
0100
0001
0100
0001
0000
0010
0000
,
0011
0000
0000
0000
0100
0000
0001
0000
1000
0010
1000
0010
1000
0000
0100
0000
,
1010
0000
0000
0000
0010
0000
1000
0000
0001
0010
0001
0010
0001
0000
0100
0010
,
1000
0001
0001
1000
1000
0100
1000
0001
,
1001
0010
1000
0100
0001
0100
1000
0010
,
1000
0100
1000
0001
0010
0100
1000
0001
,
0100
0000
0000
0000
0000
0000
0000
0000
0002
0000
0000
0000
0000
0000
0000
0000
0000
0000
0000
0003
0002
0000
0000
0000
0000
0000
0000
0000
0000
0000
0000
0003
0002
0000
0000
0000
0000
0000
0000
0000
0010
0000
0003
0000
0100
0000
0000
0000
1000
0000
0000
0000
0000
0000
0000
0000
0202
0000
0000
0000
0000
0000
0000
0000
,
0003
0010
0310
1000
1000
0100
1000
0001
,
0110
0001
0100
0010
1000
0100
0001
0100
,
1000
0010
0100
1000
0100
0100
0001
1000
,
0010
0000
1000
0100
1000
0000
0001
0100
0001
0000
1000
0010
1000
0000
0001
0010
,
0001
0100
0100
0010
0010
1000
0001
1000
,
1100
0010
1000
0100
0001
0100
1000
0010
,
0110
0001
0010
0100
0001
0100
1000
0010
,
0100
0000
0002
0000
0000
0000
2000
0000
0003
0000
3010
1000
0001
0000
0100
0000
,
0010
0000
1010
0000
0000
0101
0000
0000
1100
0000
0001
0000
1000
0000
0100
0000
,
0011
0010
0001
0100
1000
0100
0010
0100
,
1000
0100
0001
0010
0001
1000
1000
0100
,
0010
0000
0000
0000
0000
0000
2002
0000
0000
0000
0000
0000
0000
0000
0003
0000
0000
0000
3100
0000
0000
0000
0000
0000
2010
0000
0000
0000
0000
0000
3001
0000
0000
0010
0000
0000
1000
0000
0000
0000
0000
0000
0100
0000
0000
1000
0000
0000
,
0001
0000
0010
0001
0100
0000
0010
0000
1000
0000
0100
0010
0001
0000
0001
0000
,
2200
0000
3300
0202
0000
0000
0000
0000
,
0000
0000
0000
0000
,
0000
0000
0000
0000
,
0000
0000
0000
0303
;
