#TITLE:Forever Sunshine;
#ARTIST:Chel Y.;
#BANNER:Forever Sunshine.png;
#BACKGROUND:Forever Sunshine-bg.png;
#JACKET:Forever Sunshine-jacket.png;
#MUSIC:Forever Sunshine.ogg;
#SAMPLESTART:48.876;
#SAMPLELENGTH:20;
#DISPLAYBPM:128;
#BPMS:0=119.5,4=128;
#BGCHANGES:;

//---------------dance-single - ----------------
#NOTES:
     dance-single:
     :
     Beginner:
     3:
     :
0000
0000
0000
0000
,
0000
0000
0000
0000
,
0000
0000
0000
0000
,
0000
0000
0000
0000
,
0000
0000
0000
0000
,
0000
0000
0000
0000
,
0000
0000
0000
0000
,
0000
0000
0000
0000
,
0000
1000
1000
1000
,
1000
0000
1000
0000
,
0100
0000
0010
0000
,
0001
0000
0001
0000
,
0100
0000
0010
0000
,
1000
0000
0001
0000
,
1000
0000
0001
0000
,
1000
1000
1000
0000
,
0001
0000
0100
0000
,
0001
0000
0001
0000
,
0100
0000
0010
0000
,
1000
0000
1000
0000
,
0100
0000
0010
0000
,
0001
0000
1000
0000
,
0001
0000
1000
0000
,
0001
0001
0001
0000
,
1000
0000
0100
0000
,
0010
0010
0010
0010
,
0000
1000
0000
0001
,
0000
1000
0000
1000
,
0000
0001
0000
1000
,
0000
0001
0000
0001
,
0001
0000
0100
0000
,
1000
0000
0010
0000
,
0001
0000
0100
0000
,
0001
0001
0001
0000
,
0000
0001
0000
1000
,
0000
0001
0001
0001
,
0000
1000
0000
0001
,
0000
1000
1000
1000
,
1000
0000
0010
0010
,
0000
0000
1000
1000
,
1000
0000
0001
0000
,
1000
1000
1000
0000
,
0001
0000
1000
0000
,
0001
0001
0001
0000
,
1001
0000
0110
0000
,
1001
0000
0110
0000
,
0001
0001
0001
0001
;

//---------------dance-single - ----------------
#NOTES:
     dance-single:
     :
     Easy:
     4:
     :
0000
0000
0000
0000
,
0000
0000
0000
0000
,
0000
0000
0000
0000
,
0000
0000
0000
0000
,
0000
0000
0000
0000
,
0000
0000
0000
0000
,
0000
0000
0000
0000
,
0000
0000
0000
0000
,
0000
0000
0000
0000
,
2000
3000
0000
0000
,
0002
0003
0100
0000
,
2000
3000
0100
1000
,
0200
0300
0001
0001
,
1000
0000
0001
0000
,
1000
0001
0100
0000
,
0020
0030
0000
0000
,
0200
0300
0001
1000
,
0002
0003
0000
0000
,
2000
3000
0010
0000
,
0002
0003
0010
0001
,
0200
0300
1000
1000
,
0010
0000
0001
0000
,
1000
0000
0100
0000
,
0020
0030
0000
0000
,
1000
0000
0001
0000
,
0100
0100
0100
0100
,
0001
0000
1000
1001
,
0001
0000
0100
0110
,
0010
0000
0100
0000
,
0001
1000
0100
0100
,
0100
0000
0010
0110
,
0100
0000
0001
1001
,
0200
0000
0300
0000
,
0002
0003
2000
3000
,
0001
0100
0001
0101
,
0100
0000
1000
0000
,
1000
0001
1001
0000
,
1000
1000
0100
0100
,
0002
0003
0000
0000
,
1001
0000
0100
0000
,
0001
0001
0001
0000
,
1000
1000
1000
0000
,
0010
0000
0100
0000
,
0010
1000
0001
0000
,
2000
0000
3100
0000
,
0002
0000
0103
0000
,
0200
0300
0001
1001
;

//---------------dance-single - ----------------
#NOTES:
     dance-single:
     :
     Medium:
     7:
     :
0000
0000
0000
0000
,
0000
0000
0000
0000
,
0000
0000
0000
0000
,
0000
0000
0000
0000
,
0000
0000
0000
0000
,
0000
0000
0000
0000
,
0000
0000
0000
0000
,
0000
0000
0000
0000
,
0000
0000
0000
0000
,
0010
0000
0010
0000
,
0200
0000
0301
1000
,
0001
0100
1000
0000
,
0002
0000
1003
0100
,
0010
0100
0010
0000
1001
0000
0000
0000
,
0020
0130
0002
1003
,
1100
0000
0101
0000
,
0010
0000
1000
0000
0001
0100
0010
0000
,
1000
0000
0100
0000
0001
0100
0001
0000
,
1000
2000
3001
0002
,
0013
0000
1000
0000
0001
0100
0010
0000
,
0002
0003
0100
0100
,
0020
0030
2000
3100
,
0001
0000
0001
0000
0010
0001
0100
0000
,
1000
0100
0002
0013
,
0200
0300
0010
1001
,
0001
0100
0001
0000
1000
0010
0100
0000
,
0001
0000
0001
0000
0001
0100
0010
1000
,
0100
0000
0100
0000
1000
0010
0100
0001
,
0010
0000
0100
0000
1000
0001
0100
0000
,
1000
0100
0001
0100
,
2000
0000
3000
0000
0001
0100
0010
0000
,
0002
0000
0003
0000
0010
1000
0100
0000
,
0002
0003
2000
3000
,
0020
0000
0130
1001
,
1000
0000
1000
0000
1000
0100
0010
0001
,
0100
0000
0100
0000
0001
0010
0100
1000
,
0010
0000
0010
0000
0001
1000
0100
0000
,
0002
0000
1003
0100
,
0020
0130
2000
3000
,
0010
0100
2002
3003
,
0010
0000
0100
0000
0001
1000
0010
0000
,
0100
0100
0001
0001
,
1000
0000
0001
0000
0010
0001
0100
0000
,
1000
0000
1000
0000
0010
0100
0010
0000
,
2000
3100
0002
0013
,
0200
1300
0020
0130
,
0001
1000
0100
1001
;

//---------------dance-single - ----------------
#NOTES:
     dance-single:
     :
     Hard:
     8:
     :
0000
0000
0000
0000
,
0000
0000
0000
0000
,
0000
0000
0000
0000
,
0000
0000
0000
0000
,
0000
0000
0000
0000
,
0000
0000
0000
0000
,
0000
0000
0000
0000
,
0000
0000
0000
0000
,
0000
0000
0000
0000
,
0020
0000
0001
0000
0001
0001
0031
0000
,
0200
1000
0010
1300
,
0002
0000
0103
0000
2000
0100
3100
0000
,
0010
0000
1001
0000
0100
1000
0001
0000
,
0002
1003
0100
0101
,
2000
3001
0100
1100
,
1000
0101
0001
1100
,
0010
0001
0110
1001
,
0020
0000
1000
0000
1000
1000
1030
0000
,
0200
0001
0010
0301
,
2000
0000
3100
0000
0002
0100
0103
0000
,
2000
3100
0200
0310
,
1000
0001
0100
0000
0001
0000
1100
0000
,
0001
1000
0100
0000
0110
0000
1001
0000
,
1000
0001
1000
0010
0100
0001
0010
0100
,
0001
0100
1000
0010
,
0011
0101
1100
1010
,
1001
0000
1100
0000
0001
0100
0001
0000
,
1001
0000
0101
0000
1000
0001
0100
0000
,
0010
0000
0010
0000
0100
1000
0100
0000
,
1000
0000
1000
0000
0001
0100
0001
0000
,
2001
0010
0001
3100
,
1002
0010
1000
0103
,
0001
0100
1000
0010
,
0100
0010
1000
0001
0100
0010
1000
0000
,
1001
0000
0011
0000
1000
0010
1000
0100
,
1001
0000
1010
0000
0001
1000
0010
0000
,
0100
0000
0100
0000
0010
0001
0010
0100
,
0001
0000
0001
0000
1000
0010
1000
0000
,
0002
0103
2000
3010
,
0011
1001
1100
0110
,
1000
0000
1000
0000
0010
1000
0100
0000
,
1000
0100
0001
0000
2000
0000
3100
0000
,
0010
0000
0100
0000
0001
0010
0100
0000
,
1000
0100
0001
0000
0200
0000
0310
0000
,
2000
0000
3100
0002
0000
0000
0013
0200
,
0000
0000
1300
0020
0000
0000
0130
2000
,
0000
3001
1000
0100
0000
0000
0101
0000
;

//---------------dance-single - ----------------
#NOTES:
     dance-single:
     :
     Challenge:
     12:
     :
0000
0000
0000
0000
,
0000
0000
0000
0000
,
0000
0000
0000
0000
,
0000
0000
0000
0000
,
0000
0000
0000
0000
,
0000
0000
0000
0000
,
1100
0100
0010
0011
0000
0001
1000
1010
,
0000
1000
0010
0101
0000
0001
0100
1001
,
0000
0000
1100
0000
0101
0000
1001
0000
0000
0000
0010
1000
0001
0000
0100
0000
,
0110
0000
0100
0001
0100
1000
0100
0001
,
0010
0000
0001
0000
0100
0000
0010
0000
1000
0100
1000
0000
0001
0000
0100
0000
,
1000
0100
0001
0000
1001
0010
0001
0100
,
0010
0000
1000
0000
0100
0000
0001
0000
0100
0010
0100
0000
1000
0000
0001
0000
,
0010
0001
0100
0000
1010
0001
1000
0100
,
0010
1000
0010
0001
0100
0010
1000
0001
,
0200
0010
0010
0001
0301
0010
1000
0100
,
1100
0000
0000
0000
0110
0000
0000
0000
0011
0000
1000
0001
0100
0010
0000
0010
,
1000
0000
0100
0000
0001
0000
0000
0000
0110
0000
0001
0000
0100
0000
0010
1000
,
0010
0000
0100
0000
0001
0000
0010
0000
1000
0001
1000
0000
0100
0000
0010
0000
,
1000
0000
0010
0000
0001
0000
0000
0000
0101
0000
1000
0000
0001
0000
0100
0010
,
0100
0000
1000
0000
0100
0000
0001
0000
0010
0100
0010
0000
0001
0000
1000
0000
,
0010
1000
0100
0000
1010
0001
0100
0010
,
1000
0000
0100
0000
0001
0000
0100
0000
0010
0000
0100
0000
1000
0000
0001
0010
,
0002
1000
1000
0100
0103
0010
1000
0001
,
0010
0000
0001
0100
0001
0100
0000
0010
1000
0010
1000
0000
0100
0000
1001
0000
,
0000
0000
0010
1000
0010
0100
0000
0100
0001
0000
1000
0001
0100
0010
0000
0000
,
0110
0001
0110
0000
1000
0100
1000
0001
,
0010
0000
1000
0000
0010
0000
0001
0000
0100
0010
0100
0010
0100
0010
0000
0000
,
1010
0100
1010
0000
0001
0100
0001
1000
,
0010
0000
0100
0000
1000
0000
0100
0000
0001
0000
0010
0000
0001
1000
0001
1000
,
0001
0100
0010
0100
1000
0100
0001
0010
,
1000
0000
0010
0000
0100
0000
0010
0000
0001
0000
1000
0000
0001
0100
0001
0100
,
0001
0010
1000
0000
1100
0001
0100
0010
,
0000
0000
0101
0000
1000
0000
0001
0010
0001
0000
0100
0000
0010
0000
1000
0000
,
0101
0000
0010
0000
0101
0000
0000
1000
0100
0000
0010
0000
0100
0000
0001
0000
,
0100
0010
0100
1000
0010
0100
0001
1000
,
1001
0000
0100
0000
1001
0000
0000
0001
1000
0000
0010
0000
0001
0000
0010
0000
,
1000
0000
0100
0000
0001
0000
0100
0000
0010
0000
0100
0000
1000
0001
1000
0001
,
1000
0000
0010
0000
0100
0000
0001
0010
0001
0000
1000
0000
0100
0000
0020
0000
,
0000
0000
0031
0000
0100
0000
0010
1000
0020
0000
0100
0000
1030
0000
0001
0000
,
0011
0000
1000
0000
0011
0000
0000
0000
0010
0000
0001
0000
0100
0000
0001
1000
,
0001
0000
0100
0000
0100
0000
0010
1000
0001
0000
0100
0000
0010
0000
1000
0000
,
1100
0000
0001
0000
1100
0000
0000
0000
0010
0000
1000
0000
0100
0000
1000
0001
,
1000
0000
0010
0000
0010
0000
0100
0000
0001
0000
0010
0100
1000
0000
0001
0000
,
0101
0100
0010
1010
0000
1000
0001
0011
,
0000
0001
0010
1100
0000
1000
0100
1001
,
0000
1010
0011
1001
0100
0010
0101
0000
,
2200
0000
0000
0000
,
0000
0000
0000
3300
;

//---------------dance-double - ----------------
#NOTES:
     dance-double:
     :
     Easy:
     3:
     :
00000000
00000000
00000000
00000000
,
00000000
00000000
00000000
00000000
,
00000000
00000000
00000000
00000000
,
00000000
00000000
00000000
00000000
,
00000000
00000000
00000000
00000000
,
00000000
00000000
00000000
00000000
,
00000000
00000000
00000000
00000000
,
00000000
00000000
00000000
00000000
,
00000000
00000000
00000000
00000000
,
00010000
00000000
00000000
00000000
,
00001000
00000000
00000000
00000000
,
00000010
00000000
00000001
00000000
,
00001000
00000001
00000001
00000000
,
00000100
00000000
00001000
00000000
,
00010000
00010000
00100000
00000000
,
01000000
00000000
00100000
00000000
,
10000000
00010000
10000000
00010000
,
10010000
00000000
00000000
00000000
,
00100000
00010000
00010000
00000000
,
00001000
00000000
00010000
00000000
,
00001000
00000100
00000001
00000000
,
00000001
00000000
00001000
00000000
,
00000020
00000030
00000200
00000300
,
00000001
00000001
00001000
00001000
,
00000010
00000010
00000100
00000100
,
00001000
00000000
00010000
00000000
,
00022000
00000000
00033000
00000000
,
00001000
00010000
00001000
00000000
,
00010000
00010000
00100000
01000000
,
00010000
00010000
00010000
00000000
,
00020000
00000000
00000000
00030000
,
20000000
00000000
00000000
30000000
,
02000000
03000000
00020000
00030000
,
00001000
00010000
00001000
00000000
,
00022000
00000000
00033000
00000000
,
00001000
00000010
00000010
00000000
,
00000001
00000000
00000001
00000000
,
00001000
00000001
00001000
00000000
,
00000010
00000010
00000100
00000100
,
00000001
00000000
00000100
00000000
,
00001000
00001000
00010000
00010000
,
00001000
00010000
00011000
00000000
,
00010000
00010000
00100000
00100000
,
10000000
00010000
10010000
00000000
,
10010000
00000000
01000000
00000000
,
00010000
00000000
00001000
00000000
,
00000010
00000100
00000000
00001001
;

//---------------dance-double - ----------------
#NOTES:
     dance-double:
     :
     Medium:
     6:
     :
00000000
00000000
00000000
00000000
,
00000000
00000000
00000000
00000000
,
00000000
00000000
00000000
00000000
,
00000000
00000000
00000000
00000000
,
00000000
00000000
00000000
00000000
,
00000000
00000000
00000000
00000000
,
00000000
00000000
00000000
00000000
,
00000000
00000000
00000000
00000000
,
00000000
00000000
00000000
00000000
,
00010000
00000000
10000000
00000000
,
00100000
01000000
00010000
00000000
,
10000000
10000000
01000000
01000000
,
00020000
00030000
00002000
00003000
,
00000010
00000010
00000001
00000001
,
00001000
00000010
00000100
00000001
,
00000010
00001000
00010000
00100000
,
10000000
00000000
00010000
00000000
00100000
00010000
10000000
00000000
,
01100000
00000000
10000000
10000000
,
00010000
00010000
01000000
00100000
,
10000000
01000000
00010000
00001000
,
00001000
00000010
00000001
00001000
,
00000020
00000030
00000200
00000300
,
00000001
00000010
00000100
00010000
,
00001000
00001000
01000000
00100000
,
10000000
00000000
00010000
00000000
00100000
01000000
00100000
00000000
,
20010000
01000000
01000000
31000000
,
00110000
10000000
10000000
00100000
,
00010000
00000000
00001000
00000000
00000010
00000001
00000100
00000000
,
00000010
00000010
00001000
00000001
,
00000100
00001000
00010000
01000000
,
10000000
00100000
01000000
00010000
,
10000000
00100000
01000000
00010000
,
10000000
01000000
00010000
00001000
,
00000100
00000000
00000001
00000000
00001000
00000010
00000100
00000000
,
00001001
00000000
00000010
00000000
00000010
00000100
00000010
00000000
,
00001000
00001000
00000001
00000001
,
00000100
00001000
00010000
00010000
,
01000000
00000000
10000000
00000000
00010000
10000000
00010000
00000000
,
00200000
01300000
02000000
13000000
,
20000000
30100000
00010000
00001000
,
00022000
00033000
00001000
00000100
,
00000001
00000001
00000002
00000003
,
00002000
00003100
00000002
00000103
,
00000010
00000010
00002000
00003000
,
00000002
00000000
00000000
00000200
00000003
00000000
00000000
00002000
,
00000300
00000000
00000000
00020000
00000000
00000000
00033000
00000000
,
00100000
01000000
00100000
10010000
;

//---------------dance-double - ----------------
#NOTES:
     dance-double:
     :
     Hard:
     8:
     :
00000000
00000000
00000000
00000000
,
00000000
00000000
00000000
00000000
,
00000000
00000000
00000000
00000000
,
00000000
00000000
00000000
00000000
,
00000000
00000000
00000000
00000000
,
00000000
00000000
00000000
00000000
,
00000000
00000000
00000000
00000000
,
00000000
00000000
00000000
00000000
,
00000000
00000000
00000000
00000000
,
00000002
00000103
00002000
00003100
,
00000001
00000000
00000010
00000000
00001000
00010000
00100000
00000000
,
20000000
31000000
00020000
01030000
,
10000000
00000000
01000000
00000000
00010000
00001000
00000100
00000000
,
00000001
00000001
00001000
00001000
,
00000010
00000000
00000100
00000000
00000001
00001000
00000010
00000000
,
00000100
00000001
00000010
00001000
,
00010000
00000000
00000000
00000000
00100000
00000000
00000000
00000000
10000000
00000000
00000000
00010000
00000000
10000000
00000000
00000000
,
01100000
00000000
10000000
00000000
00100000
01000000
00010000
00000000
,
00100000
01000000
10000000
00000000
00100000
00010000
00001000
00000000
,
00011000
00000000
00000010
00000000
00000001
00001000
00000100
00000000
,
00000010
00000001
00000100
00000000
00000010
00001000
00000100
00000000
,
00000010
00000000
00000001
00000000
00001000
00000010
00000100
00000000
,
00000001
00000010
00001000
00000000
00010000
00001000
00010000
00000000
,
00100000
20000000
30020000
00230000
,
02300000
00000000
20000000
33000000
,
00100000
00010000
00000000
00000000
00010000
01000000
00000000
00000000
01000000
00100000
00000000
00000000
10010000
00000000
00000000
00000000
,
01100000
00000000
00010000
00000000
00100000
01000000
10000000
00000000
,
10000000
00100000
00010000
00000000
00001000
00000000
00001000
00000000
,
00000010
00000000
00000001
00000000
00001000
00000001
00001000
00000000
,
00000010
00000100
00000010
00000000
00001000
00000001
00000100
00000000
,
00000020
00001030
00000200
00000301
,
00000010
00000001
00001000
00000010
00000100
00001000
00010000
00000000
,
00100000
10000000
01000000
00000000
00100000
00010000
01000000
00000000
,
00100000
10000000
00100000
01000000
00010000
00100000
01000000
00000000
,
11000000
00000000
01010000
00000000
00100000
10000000
01000000
00000000
,
00010000
00001000
00010000
00000000
00000100
00000000
00000010
00000000
,
00000101
00000000
00001100
00000000
00000010
00000001
00000100
00000000
,
00000010
00001000
00000100
00000000
00000010
00000000
00000001
00000000
,
00001000
00000000
00001000
00000000
00000010
00000100
00000002
00000000
,
00000000
00000000
00000200
00000303
,
00001000
00000000
00000001
00000000
00000100
00001000
00010000
01000000
,
00000000
01000000
10000000
00000000
00010000
00000000
01000000
00000000
,
00100000
00000000
00100000
00000000
10000000
01000000
00010000
00001000
,
00000000
00001000
00000100
00000000
00000001
00000000
00000010
00000000
,
00002000
00000000
00000000
00020000
00003000
00000000
00000000
00200000
,
00030000
00000000
00000000
20000000
00300000
00000000
00000000
00010000
,
30000000
00010000
00100000
01000000
00000000
00000000
10010000
00000000
;
