#TITLE:Flourish;
#ARTIST:sonic-coll. feat. frances maya;
#BANNER:Flourish.png;
#BACKGROUND:Flourish-bg.png;
#JACKET:Flourish-jacket.png;
#MUSIC:Flourish.ogg;
#SAMPLESTART:74.6;
#SAMPLELENGTH:20;
#DISPLAYBPM:153;
#BPMS:0=152.542,4=151.982,188=152.015;
#STOPS:188=0.393;
#BGCHANGES:0=Flourish.avi=1=1=0=0=StretchNoLoop==CrossFade==,
;

//---------------dance-single - ----------------
#NOTES:
     dance-single:
     :
     Beginner:
     3:
     :
0000
0000
0000
0000
,
0000
0000
0000
0000
,
0000
0000
0000
0000
,
0000
0000
0000
0000
,
0000
0000
0000
0000
,
0001
0000
0000
0000
,
1000
0000
0000
0000
,
0001
0000
0001
0000
,
1000
0000
1000
0000
,
0100
0000
0000
0000
,
0000
0000
0000
0000
,
1000
0000
0000
0000
,
1000
0000
1000
0000
,
0001
0000
0000
0000
,
0001
0000
0001
0000
,
1000
0000
0000
0000
,
0100
0000
0000
0000
,
0001
0000
0000
0000
,
0100
0000
0000
0000
,
0010
0000
0000
0000
,
0010
0000
0000
0000
,
0001
0000
0001
0000
,
1000
0000
1000
0000
,
0100
0000
0000
0000
,
0100
0000
0100
0000
,
0100
0000
0100
0000
,
0100
0000
0000
0000
,
0001
0000
1000
0000
,
0001
0000
1000
0000
,
0001
0000
0000
0000
,
1000
0000
0000
0000
,
0100
0000
0100
0000
,
0010
0000
0010
0000
,
0100
0000
0100
0000
,
0010
0000
0000
0000
,
0001
0000
0000
0000
,
0001
0000
0001
0000
,
1000
0000
0000
0000
,
1000
0000
1000
0000
,
0100
0000
0000
0000
,
1000
0000
0000
0000
,
0001
0000
0000
0000
,
0100
0000
0000
0000
,
1000
0000
1000
0000
,
0001
0000
0001
0000
,
0100
0000
0100
0000
,
0100
0000
0000
0000
,
0000
0000
0000
0000
,
0001
0000
0001
0000
,
1000
0000
0000
0000
,
1000
0000
1000
0000
,
0100
0000
0000
0000
,
0001
0000
1000
0000
,
0100
0000
0100
0000
,
1000
0000
0000
0000
,
0001
0000
1000
0000
,
0001
0000
0100
0000
,
1000
0000
1000
0000
,
0001
0000
1000
0000
,
0100
0000
0000
0000
,
0010
0000
0000
0000
,
1000
1000
1000
0000
,
0001
0001
0001
0000
,
0100
0000
0100
0000
,
0100
0100
0100
0000
,
0001
0000
1000
0000
,
0001
0000
1001
0000
,
0000
0000
0000
0000
;

//---------------dance-single - ----------------
#NOTES:
     dance-single:
     :
     Easy:
     5:
     :
0000
0000
0000
0000
,
0000
0000
0000
0000
,
0000
0000
0000
0000
,
0000
0000
0000
0000
,
0000
0000
0000
0000
,
0001
0000
0000
0000
,
1000
0000
0000
0000
,
0001
0001
1000
1000
,
0001
0010
0100
1000
,
0200
0000
0000
0000
,
0000
0000
0300
0100
,
1000
0000
1000
0000
,
0100
0100
1000
0000
,
0001
0000
0001
0000
,
0100
0100
0001
0000
,
1000
0000
0100
0000
,
0001
0000
0100
0000
,
0001
0000
0001
0000
,
1000
1000
1000
0000
,
0010
0010
0000
0010
,
0000
0010
0100
0010
,
1000
0000
0001
0000
,
0100
0000
0010
0000
,
1000
0001
1000
0000
,
0100
1000
0100
0001
,
0100
0100
0100
0100
,
0110
0000
0000
0000
,
0001
0000
1000
0000
,
0010
0010
0100
0000
,
0001
0000
1000
0000
,
0010
0010
0100
0100
,
0001
0000
0001
0000
,
1000
0000
1000
0000
,
0010
1000
0100
0001
,
0100
1000
0010
0000
,
0000
1000
1000
1000
,
0000
0001
0001
0001
,
1000
0000
0001
0000
,
0010
0010
0100
0100
,
0000
1000
1000
1000
,
0000
0001
0001
0001
,
0010
0001
0100
1000
,
0100
0001
0010
0010
,
0100
0100
0100
0100
,
0100
0100
0100
0100
,
0010
0010
0010
0010
,
0110
0000
0000
0000
,
0000
1000
1000
1000
,
0000
0001
0001
0001
,
1000
0000
0001
0000
,
0010
0010
0100
0100
,
0000
1000
1000
1000
,
0000
0001
0001
0001
,
0010
0001
0100
1000
,
0100
0001
0010
0000
,
0001
0000
1000
0000
,
0010
0010
0100
0000
,
0001
0000
1000
0000
,
0010
0010
0100
0100
,
0001
0000
0001
0001
,
1000
0000
1000
1000
,
0010
1000
0100
0001
,
0100
1000
0010
0000
,
0001
0010
1000
0100
,
0001
0100
1000
0010
,
0110
0000
1001
0000
,
0110
0000
1001
0000
,
0000
0000
0000
0000
;

//---------------dance-single - ----------------
#NOTES:
     dance-single:
     :
     Medium:
     8:
     :
0000
0000
0000
0000
,
0000
0000
0000
0000
,
0000
0000
0000
0000
,
0000
0000
0000
0000
,
0000
0000
0000
0000
,
0001
0000
0000
0000
0000
0000
0000
1000
,
0001
0000
0000
0000
,
0010
0000
0100
0000
0010
0100
0010
0000
,
0001
1000
0001
0000
0001
1000
0001
0000
,
0200
0000
0000
0000
,
0000
0000
0300
0110
,
0010
0000
1000
0000
0100
0001
0100
0000
,
1000
0010
0001
0100
,
0001
0000
0010
0000
0100
0001
0100
0000
,
0001
0010
1000
0100
,
0001
1000
0100
0001
,
1000
0010
0100
1000
,
0001
0001
0000
1000
,
0100
0001
0110
0110
,
2000
0001
0000
3001
,
2000
0010
0010
3010
,
1002
0103
2001
3100
,
1002
0013
2001
3010
,
0010
1000
0100
0001
,
0010
0100
0001
1000
,
1001
1001
1100
0101
,
1001
0000
0000
0000
,
0010
1001
0010
0100
,
1000
0110
1000
0001
,
0010
0011
0100
1100
,
0001
0100
1000
0000
0001
0100
1000
0000
,
0001
0000
0001
0000
0000
0000
0100
0100
,
1000
0000
1000
0000
0000
0000
0100
0100
,
0001
0100
1000
0100
,
0110
1001
0110
0000
,
0010
1000
0100
0000
0010
1000
0100
0000
,
0010
1010
0010
0011
,
0100
0001
0010
0000
0100
0001
0010
0000
,
0100
1100
0100
0101
,
0100
0000
0001
0000
0010
0000
1000
0010
,
0001
0000
0100
0000
0010
0000
1000
0100
,
0001
0100
1000
0010
,
0010
0010
0100
0100
,
1000
0001
0010
0100
,
1000
0001
0010
0100
,
1000
0001
1000
0000
0100
0010
0100
0010
,
0200
0000
0000
0000
,
0300
1001
0100
0010
,
0001
0110
0001
1000
,
0100
1100
0010
0011
,
1000
0100
0001
0000
1000
0100
0001
0000
,
1000
0000
1000
0000
1000
0000
0010
0010
,
0001
0000
0001
0000
0001
0000
0010
0010
,
1000
0010
0001
0010
,
0110
1001
0110
0000
,
0010
0001
0100
0000
0010
0001
0100
0000
,
0010
0011
0100
1100
,
0100
1000
0010
0000
0100
1000
0010
0000
,
0100
0101
0010
1010
,
0010
0000
1000
0000
0100
0000
0001
0100
,
1000
0000
0010
0000
0100
0000
0001
0010
,
1000
0010
0001
0100
,
0010
0110
0010
0110
,
2000
0001
3002
0100
,
0203
0010
0320
0130
,
0100
0000
0000
0100
0000
0000
0100
0000
0010
0000
0000
0010
0000
0000
0010
0000
,
1000
0000
0000
0001
0000
0000
1000
0000
1001
0000
0000
0000
0000
0000
0000
0000
,
0000
0000
0000
0000
;

//---------------dance-single - ----------------
#NOTES:
     dance-single:
     :
     Hard:
     10:
     :
0000
0000
0000
0000
,
0000
0000
0000
0000
,
0000
0000
0000
0000
,
0000
0000
0000
0000
,
0000
0000
0000
0000
,
0001
0000
0000
0000
0000
0000
0000
1000
,
1001
0000
0000
0000
,
0010
0000
1000
0000
0001
0010
0100
1000
,
0010
0100
0001
1000
0100
0010
0001
0100
,
0020
0000
0000
0000
,
0000
0000
0030
1001
,
0010
0000
1100
0000
0001
0100
1000
0000
,
0010
0000
0110
0000
1000
0100
0001
0000
,
1000
0000
0101
0000
0010
0001
0100
0000
,
0010
0000
1001
0000
0010
1000
0001
0100
,
0100
1010
0100
0011
,
1000
0110
0001
0110
,
1000
0100
0001
0100
,
0010
0000
1001
0001
0100
0001
0010
1000
,
0200
0010
0000
0320
,
0032
0100
0000
1003
,
0010
0000
0000
0010
0000
0000
0010
0000
0001
0000
0000
0001
0000
0000
0001
0000
,
1000
0000
0000
0010
0000
0000
0100
0000
0001
0000
0000
0000
1100
0000
0100
0000
,
0010
0000
0011
0000
0000
0000
1000
1000
,
0001
0000
0101
0000
1000
0000
0010
0100
,
0010
1000
0010
1000
0001
0100
0001
0100
,
0010
0000
0000
0000
,
0010
1100
0010
0101
,
0010
1100
0101
1001
,
0010
0001
0100
0010
1000
0100
1000
0000
,
0010
1000
0100
0010
0001
0100
0001
0000
,
0002
0000
0103
0000
1000
0100
0020
0100
,
0130
0000
1000
0000
0001
0100
0020
0100
,
0130
1001
0100
1001
,
0001
1100
0110
0000
,
0100
1010
0100
0011
,
0100
1010
0011
1001
,
0100
1000
0100
0010
0100
0001
0100
0000
,
0010
1000
0010
0100
0010
0001
0010
0000
,
0001
0100
0101
0000
1000
0001
0100
0100
,
0100
0000
1001
0000
0001
1000
0100
0100
,
0100
0000
1001
0000
0100
0100
1001
0000
,
0101
1100
0110
1001
,
0002
2003
3200
0310
,
0010
0000
0000
0000
0100
0000
0000
0000
0001
1000
0000
0000
1001
0000
0001
0000
,
0100
0000
0100
0000
0010
0000
0010
0000
1000
0100
1000
0000
0001
0000
0001
0000
,
0200
0000
0000
0000
,
0300
0101
0010
1100
,
0010
0101
1100
1001
,
0010
1000
0100
0100
0010
0001
0100
0000
,
0010
0001
0100
0100
0010
1000
0100
0000
,
2000
0000
3100
0000
0001
0100
0020
0100
,
0130
0000
1001
0000
1000
0100
0020
0100
,
0130
1001
0110
1001
,
0001
0000
0000
0001
0000
0000
0001
0000
0110
0000
0000
0000
0000
0000
0000
0000
,
0010
0000
1001
0000
0001
1000
0100
0010
,
0100
0000
1001
0000
0010
1000
0001
1000
,
0001
0100
1000
1000
0100
0001
0001
0000
,
1000
0010
0100
0001
0010
0100
1000
0001
,
0100
0000
1100
0000
0010
0000
0101
0001
,
2000
0000
3020
0000
0230
0000
0301
0001
,
1000
0000
1100
0000
1000
0000
1000
0100
,
0001
0000
0101
0000
0001
0001
1000
0100
,
0010
0000
0000
0000
0101
0000
0000
0000
0010
1000
0000
0000
1100
0000
0000
0000
,
0010
0000
1000
0000
0100
0000
0010
0000
0001
0100
0001
0000
0010
0000
0100
0000
,
1100
0000
0000
1000
0000
0000
0100
0000
0011
0000
0000
0010
0000
0000
0001
0000
,
0101
0000
0000
1100
0000
0000
0010
0000
1001
0000
0000
0000
0000
0000
0000
0000
,
0000
0000
0000
0000
;

//---------------dance-single - ----------------
#NOTES:
     dance-single:
     :
     Challenge:
     13:
     :
0000
0000
0000
0000
,
0000
0000
0000
0000
,
0000
0000
0000
0000
,
0000
0000
0000
0000
,
0000
0000
0000
0000
,
1020
0000
0000
0002
0000
0000
0033
0000
,
0101
0000
0000
0001
0000
0000
0010
0000
1000
0000
0100
0000
0000
0000
0010
0000
,
0011
0000
0001
0100
1100
0000
1001
0000
,
0110
0000
0010
0000
0100
0000
0010
0000
1000
0001
1000
0001
1000
0001
1000
0001
,
0020
0000
0000
0000
0000
0000
0000
0000
0000
0000
0000
0000
0031
0000
0000
0100
,
0000
0000
0010
0000
1000
0000
0000
0100
0000
0000
0010
0000
1001
0000
0000
0000
,
0010
0000
0000
1000
0000
0000
0001
0000
2000
0000
0100
0000
3100
0000
0000
0000
,
0010
0000
0001
0000
0100
0000
0010
0000
1000
0100
1000
0000
0001
0000
1000
0000
,
0010
0000
0000
1000
0000
0000
0100
0000
0020
0000
0001
0000
0031
0000
0000
0000
,
1000
0000
0010
0000
1000
0000
0100
0000
0010
0001
0010
0000
0001
0000
0100
0000
,
0010
0000
0000
1000
0000
0000
0100
0000
1000
0000
0000
0010
0000
0000
0001
0000
,
0100
0000
0000
0010
0000
0000
1000
0000
0001
0010
0001
0000
1000
0000
0000
0000
,
1100
0010
0100
0001
0010
1000
0010
0001
,
0100
0000
0010
0000
0001
0000
0010
0000
1000
0100
1000
0000
0001
0000
0000
0000
,
0011
0001
0100
1000
1000
0001
0100
0000
,
0010
0000
1000
0000
0100
0000
1000
0000
0001
0100
0001
0000
0010
0000
0100
0000
,
1100
0000
0000
0010
0000
0000
0100
0000
0101
0000
0000
0001
0000
0000
1000
0000
,
1010
0000
0000
0100
0000
0000
0001
0000
0011
0000
0000
0000
1000
0000
0100
0000
,
0010
0001
0100
0010
0001
0010
1000
0100
,
0001
0000
0000
0010
0000
0000
0100
0000
1000
0000
0000
0001
0000
0000
1000
0000
,
0010
0000
1000
0000
0100
0000
0010
0000
0001
0000
0100
0000
0001
1000
0001
1000
,
0002
0000
0000
0000
0000
0000
0000
0000
0003
0000
1000
0010
1000
0010
1000
0010
,
1000
0000
0000
0100
0010
0000
0001
0000
0100
0000
0000
0010
1000
0000
0001
0000
,
0010
0000
0000
0001
0100
0000
0010
0000
1000
0000
0000
0100
1000
0000
0001
0000
,
0010
1000
0010
0001
0100
0010
1000
0001
,
0010
0000
1000
0000
0100
0000
0010
0000
0001
0100
0001
0000
1000
0000
0000
0000
,
0110
0000
1000
0000
0010
0000
0001
0000
0100
0010
0100
0000
0001
0000
0000
0000
,
1001
0000
0000
0010
0000
0000
1000
0000
0100
0000
0000
0010
0000
0000
0001
0000
,
1000
0010
1000
0001
0010
0100
1000
0000
,
0020
0000
0000
2030
0000
0000
3002
0000
0200
0003
0000
0000
0301
1000
0001
1000
,
0001
0000
0000
0100
0010
0000
1000
0000
0100
0000
0000
0010
0001
0000
1000
0000
,
0100
0000
0000
0010
0100
0000
1000
0000
0001
0000
0000
0010
0001
0000
1000
0000
,
0100
0001
0100
0010
0100
0001
0100
1000
,
0010
0000
0001
0000
0010
0000
1000
0000
0001
0100
0001
0000
1000
0000
0000
0000
,
1010
0001
1000
0100
0010
0001
0100
0000
,
0011
0000
0000
0100
0000
0000
0001
0000
1000
0000
0010
0000
1000
0000
0100
0000
,
0010
0000
0001
0000
0100
0000
0001
0000
1000
0010
1000
0000
0100
0000
0000
0000
,
0110
0000
0001
0000
0100
0000
0010
0000
1000
0001
1000
0000
0010
0000
0100
0001
,
0100
0000
0010
0000
1000
0000
0010
0000
0100
0001
0000
0001
1000
0000
0100
0000
,
0010
0000
0001
0000
0010
0000
0100
0000
1000
0010
1000
0010
1000
0000
0001
0000
,
0100
0000
0010
0000
1000
0000
0001
0000
0010
0001
0000
0001
1000
0000
0100
0010
,
0200
0000
0002
0000
0000
0000
0000
0000
0300
0000
0000
0000
0103
1000
0100
1000
,
0100
0000
0000
0010
0001
0000
1000
0000
0001
0000
0000
0100
0010
0000
1000
0000
,
0001
0000
0000
1000
0100
0000
1000
0000
0010
0000
0000
0100
0001
0000
0010
0000
,
0100
0001
0100
1000
0010
0100
0010
1000
,
0001
0000
0010
0000
0001
0000
0100
0000
1000
0010
1000
0000
0001
0000
0100
0000
,
0010
0000
1000
0000
0100
0000
0001
0000
0100
0010
0100
0000
1100
0000
0000
0000
,
0011
0000
0000
0001
0100
0000
0010
0000
1000
0000
0000
0100
1000
0000
0001
0000
,
0100
0000
0010
0000
1000
0000
0010
0000
0100
0001
0100
0000
0010
0000
0000
0000
,
2000
0000
0000
3002
0000
0000
0023
0000
0200
0030
0000
0000
1300
0001
1000
0001
,
1000
0000
0000
0010
1000
0000
0100
0000
0010
0000
0000
0001
0100
0000
0001
0000
,
1000
0000
0000
0001
0010
0000
0100
0000
1000
0000
0000
0010
0100
0000
0001
0000
,
1000
0000
0100
0000
0001
0000
0100
0000
0010
0001
0010
0000
0100
0000
1000
0000
,
0010
0000
1000
0000
0100
0000
0010
0000
0001
1000
0001
0000
0100
0000
0010
0000
,
1000
0000
0100
0000
1000
0000
0001
0000
0010
0000
0001
0000
0100
0000
0010
1000
,
0010
0000
0000
0100
0000
0000
0001
0000
1000
0000
0010
0000
1000
0000
0100
0000
,
0010
0000
0001
0000
1000
0000
0001
0000
0100
0010
0100
0000
0101
0000
0000
0000
,
1010
0000
0100
0000
1000
0000
0010
0000
0100
0001
0100
0000
0010
0000
1000
0001
,
1000
0000
0100
0000
0010
0000
1000
0000
0010
0100
0010
0000
0001
0000
1000
0000
,
0010
0000
1000
0000
0100
0000
1000
0000
0001
0010
0001
0010
0001
0000
0100
0000
,
0101
0000
0000
0101
0000
0000
0101
0000
1010
0000
0000
1010
0000
0000
1010
0000
,
1100
0000
0000
0011
0000
0000
1100
0000
0011
0000
0000
0000
0000
0000
0000
0000
;

//---------------dance-double - ----------------
#NOTES:
     dance-double:
     :
     Easy:
     6:
     :
00000000
00000000
00000000
00000000
,
00000000
00000000
00000000
00000000
,
00000000
00000000
00000000
00000000
,
00000000
00000000
00000000
00000000
,
00000000
00000000
00000000
00000000
,
00001001
00000000
00000000
00000000
,
00010000
00000000
00000000
00000000
,
00001000
00000000
00010000
00000000
,
00010000
01000000
00010000
00001000
,
00002000
00000000
00000000
00000000
,
00000000
00000000
00003000
00011000
,
00010000
00000000
00010000
00000000
,
00010000
01000000
10000000
01000000
,
00100000
00000000
00100000
00000000
,
00100000
01000000
00010000
00010000
,
00001000
00000000
00001000
00000000
,
00000100
00000000
00000010
00000000
,
00001001
00000000
00000000
00000000
,
00000001
00000001
00000001
00000001
,
00000100
00000100
00000000
00000100
,
00000010
00001000
00000000
00000000
,
00101000
00000000
00110000
00000000
,
01100000
00000000
10010000
00000000
,
10000000
10000000
00000000
01000000
,
00010000
00001000
00000000
00001000
,
00000100
00000001
00000100
00001000
,
00020000
00000000
00000000
00030000
,
00000100
00000100
00000100
00000100
,
00001000
00001000
00010000
00010000
,
00100000
00100000
00000000
00100000
,
01000000
00010000
00000000
00001000
,
00010000
00001000
00000100
00000001
,
00000100
00000001
00000010
00000010
,
00000001
00000100
00001000
00010000
,
01000000
00000000
01100000
00000000
,
10000000
10000000
01000000
00010000
,
00001000
00000000
00001000
00000000
,
00100000
00010000
01000000
10000000
,
01000000
00000000
01000000
00000000
,
00010000
00010000
00001000
00001000
,
00010000
00001000
00000100
00000001
,
00000010
00000010
00000010
00000010
,
00000001
00000001
00001000
00000010
,
00010000
00010000
00010000
00010000
,
00001000
00010000
01000000
10000000
,
01000000
01000000
01000000
01000000
,
01000000
00000000
00000000
00000000
,
00000000
01000000
01000000
01000000
,
00010000
00010000
00001000
00001000
,
00000010
00000010
00000000
00000010
,
00000100
00001000
00000000
00010000
,
00001000
00010000
01000000
10000000
,
01000000
10000000
00100000
00100000
,
10000000
01000000
00010000
00001000
,
00000100
00000000
00000110
00000000
,
00000001
00000001
00000100
00001000
,
00010000
00000000
00010000
00000000
,
00000010
00001000
00000100
00000001
,
00000100
00000000
00000100
00000000
,
00001000
00001000
00010000
00010000
,
00001000
00010000
01000000
10000000
,
00100000
00100000
00100000
00100000
,
10000000
00010000
10000000
00010000
,
01000000
01000000
00001000
00001000
,
00010000
00001000
00000100
00000001
,
00000011
00000000
00000110
00000000
,
00001010
00000000
00011000
00000000
,
00000000
00000000
00000000
00000000
;

//---------------dance-double - ----------------
#NOTES:
     dance-double:
     :
     Medium:
     8:
     :
00000000
00000000
00000000
00000000
,
00000000
00000000
00000000
00000000
,
00000000
00000000
00000000
00000000
,
00000000
00000000
00000000
00000000
,
00000000
00000000
00000000
00000000
,
00001001
00000000
00000000
00000000
00000000
00000000
00000000
00000010
,
00001000
00000000
00000000
00000000
,
00010000
00100000
10000000
01000000
,
00010000
00001000
00010000
00000000
00001000
00100000
00001000
00100000
,
00002000
00000000
00000000
00000000
,
00000000
00000000
00003000
00011000
,
00000010
00001000
00000100
00000001
,
00000100
00000000
00001000
00000000
00000010
00001000
00010000
00000000
,
00100000
00010000
01000000
10000000
,
01000000
00000000
00010000
00000000
00100000
00010000
00001000
00000000
,
00000010
00000001
00000100
00001000
,
00010000
00100000
01000000
10010000
,
01000000
00010000
00001000
00001000
,
00000100
00000001
00000100
00000000
00000100
00001000
00000100
00000000
,
00000020
00000100
00000000
00000130
,
00002000
00010000
00000000
01003000
,
02200000
00300000
00020000
00030000
,
00002000
00003000
03010000
10010000
,
01000000
00000000
00010000
00000000
00001000
00000000
00000010
00000001
,
00000100
00001000
00100000
01000000
,
10000000
01000000
00010000
00000000
00010000
00001000
00000010
00001000
,
00020000
00000000
00000000
00030000
,
00100000
01010000
00100000
00100000
,
00010000
11000000
00010000
00010000
,
01000000
00110000
00000000
00101000
,
00010000
00000100
00000010
00000001
,
00000010
00001100
00000000
00000010
,
00001000
00000101
00001000
00001000
,
00000100
00001010
00000000
00010010
,
00001000
00010000
01000000
00000000
,
10000000
00000000
01000000
00000000
00010000
00000000
01000000
00010000
,
00001000
00000000
00010000
00000000
00000010
00000000
00000100
00000001
,
00000010
00000110
00000000
00001001
,
00000100
00010000
00001000
00100000
,
01000000
10000000
00100000
00010000
,
01000000
00000000
00100000
00000000
00001000
00000000
00010000
01000000
,
10000000
01000000
00100000
00001000
,
00010000
00000000
00000100
00000100
,
00000001
00000001
00000010
00000010
,
00001000
01000000
00010000
00001000
,
00000001
00000100
00001000
00000000
00010000
01000000
10000000
00000000
,
02000000
00000000
00000000
00000000
,
03000000
00110000
01000000
01000000
,
00001000
00001010
00010000
00010000
,
00100000
01010000
00000000
01001000
,
00010000
00000010
00000100
00000001
,
00000100
00001010
00000000
00000100
,
00010000
00110000
00001000
00001000
,
00000010
00001100
00000000
00010100
,
00001000
00010000
00100000
00000000
,
10000000
00000000
00100000
00000000
00010000
00000000
00100000
00010000
,
00001000
00000000
00010000
00000000
00000100
00000000
00000010
00000001
,
00000100
00000110
00000000
00001001
,
00000010
00010000
00001000
01000000
,
00100000
10000000
01000000
00010000
,
00001000
00000000
00000010
00000000
00000100
00000000
00010000
00100000
,
10000000
00100000
01000000
00001000
,
00010000
00000000
00000010
00000110
,
00002000
00000001
00000010
00003100
,
00020000
00001000
00000010
00030100
,
00010000
01000000
10000000
00000000
00100000
00010000
00001000
00000000
,
00000010
00000001
00000100
00001000
00010000
00000000
00000000
00000000
,
00000000
00000000
00000000
00000000
;

//---------------dance-double - ----------------
#NOTES:
     dance-double:
     :
     Hard:
     10:
     :
00000000
00000000
00000000
00000000
,
00000000
00000000
00000000
00000000
,
00000000
00000000
00000000
00000000
,
00000000
00000000
00000000
00000000
,
00000000
00000000
00000000
00000000
,
00001001
00000000
00000000
00000000
00000000
00000000
00000000
00010000
,
00010100
00000000
00000000
00000000
,
00100000
00000000
10000000
00000000
01000000
00010000
00001000
00000100
,
00000010
00000100
00001000
00010000
01000000
00100000
01000000
00010000
,
00002000
00000000
00000000
00000000
,
00000000
00000000
00003000
00011000
,
00000010
00000000
00000110
00000000
00000001
00000100
00001000
00000000
,
00010000
00000000
01100000
00000000
10000000
00100000
01000000
00000000
,
00010000
00000000
10010000
00000000
01000000
00010000
00001000
00000000
,
00000100
00000000
00001001
00000000
00000010
00001000
00010000
00000000
,
00000010
00000000
00010000
00000000
00001000
01000000
00100000
00000000
,
10000000
00000000
00010000
00000000
01000000
00001000
00100000
00000000
,
02000000
10000000
03100000
00010000
,
00000020
00000000
00001000
00000000
00000031
00000000
00000100
00000010
,
00000100
00000110
00000000
00010100
,
00000000
00101000
00000000
01100000
,
10000000
00000000
00000000
10000000
00000000
00000000
10000000
00000000
00010000
00000000
00000000
00010000
00000000
00000000
00010000
00000000
,
00001000
00000000
00000000
00001000
00000000
00000000
00001000
00000000
00000001
00000000
00000000
00000000
00001000
00000000
00000000
00000000
,
00002002
00000000
00003003
00000000
00000000
00000100
00000010
00000100
,
00000001
00000000
00000100
00000010
00000010
00000000
00000010
00001000
,
00010000
00100000
01000000
10000000
01000000
00100000
00010000
01000000
,
00020000
00000000
00000000
00030000
,
00100000
11000000
00110000
01010000
,
00100000
01001000
00011000
00010100
,
00000010
00000001
00000100
00000000
00000010
00001000
00000100
00000000
,
00000010
00010100
00011000
00110000
,
00100000
00000000
10000000
00000000
01000000
00000000
00010000
00001000
,
00010000
01000000
00100000
00000000
10000000
00000000
01000000
00010000
,
00001000
00000100
00000001
00000100
,
00001100
00000101
00002002
00003003
,
00000010
00000101
00001010
00001100
,
00000010
00010100
00001000
01001000
,
00100000
10000000
01000000
00000000
00100000
00010000
01000000
00000000
,
00100000
00000000
01001000
00000000
00010000
00001000
00000100
00000001
,
00000010
00000000
00000001
00000010
00000100
00000000
00001000
00001000
,
00010000
00000000
00100000
00010000
01000000
00000000
10000000
10000000
,
01000000
00010000
01000000
10000000
,
00010000
00000000
00100000
00000000
01000000
10000000
01000000
00100000
,
00010000
01001000
00010000
00011000
,
00000100
00000000
00010100
00000000
00000010
00000000
00000010
00000100
,
00001000
00000001
00000100
00001000
00010000
01000000
10000000
00100000
,
02000000
00000000
00000000
00000000
,
03000000
11000000
00110000
01010000
,
00100000
01001000
00010000
00010100
,
00000010
00000100
00000001
00001000
00000010
00001000
00000100
00000000
,
00000010
00010000
00000100
00010000
00001000
00100000
00010000
00000000
,
00100000
00000000
10000000
00000000
01000000
00000000
00010000
00001000
,
00010000
01000000
00100000
00000000
10000000
00000000
01000000
00010000
,
00001000
00000100
00000001
00000100
,
00001100
00000101
00002002
00003003
,
00000010
00000101
00001010
00001100
,
00000010
00010100
00001000
01001000
,
00100000
01000000
10000000
00010000
00100000
00010000
01000000
00000000
,
00100000
00001000
01000000
00001000
00010000
00000010
00000100
00000001
,
00000010
00000000
00000001
00000010
00000100
00000000
00001000
00001000
,
00010000
00000000
00100000
00010000
01000000
00000000
10000000
10000000
,
01000000
00010000
01000000
10000000
,
00010000
01000000
10000000
01000000
00010000
00001000
00000100
00000000
,
00000001
00001100
00000010
00011000
,
00100000
01010000
10000000
01100000
,
10010000
00000000
00000000
10000000
00000000
00000000
01000000
00000000
00100000
00000000
00000000
00010000
00000000
00000000
00001000
00000000
,
00000100
00000000
00000000
00000010
00000000
00000000
00000001
00000000
00001001
00000000
00000000
00000000
00000000
00000000
00000000
00000000
,
00000000
00000000
00000000
00000000
;
