#TITLE:Firestarter;
#ARTIST:The Prodigy;
#BANNER:Firestarter-bn.png;
#BACKGROUND:Firestarter-bg.png;
#JACKET:Firestarter-jacket.png;
#MUSIC:Firestarter.ogg;
#OFFSET:1.222;
#SAMPLESTART:54.75;
#SAMPLELENGTH:20;
#LASTBEATHINT:0.505;
#DISPLAYBPM:142;
#BPMS:0=141.5;
#BGCHANGES:;

//---------------dance-single - ----------------
#NOTES:
     dance-single:
     :
     Beginner:
     2:
     :
0000
0000
0000
0000
,
0000
0000
0000
0000
,
0000
0000
0000
0000
,
0000
0000
0000
0000
,
0000
0000
0000
0000
,
0100
0000
0000
0000
,
0000
0000
0000
0000
,
0100
0000
0000
0000
,
0000
0000
0000
0000
,
0010
0000
0000
0000
,
1000
0000
0000
0000
,
0100
0000
0000
0000
,
1000
0000
0000
0000
,
0001
0000
0000
0000
,
0010
0000
0000
0000
,
0001
0000
0000
0000
,
0100
0000
0000
0000
,
0010
0000
0000
0000
,
1000
0000
0000
0000
,
0010
0000
0000
0000
,
1000
0000
0000
0000
,
0100
0000
0000
0000
,
0010
0000
0000
0000
,
0100
0000
0000
0000
,
1000
0000
0000
0000
,
0001
0000
0000
0000
,
0010
0000
0000
0000
,
0001
0000
1000
0000
,
0010
0000
1000
0000
,
0100
0000
0000
0000
,
0010
0000
0000
0000
,
0100
0000
1000
0000
,
0001
0000
1000
0000
,
0010
0000
0000
0000
,
1000
0000
0000
0000
,
0001
0000
0001
0000
,
1000
0000
1000
0000
,
0100
0000
0000
0000
,
0010
0000
0000
0000
,
0100
0000
0010
0000
,
0100
0000
1000
0000
,
0001
0000
0000
0000
,
1000
0000
0000
0000
,
1001
0000
0000
0000
,
0010
0010
0010
0000
,
0110
0000
0000
0000
,
0001
0001
0001
0000
,
0010
0000
0100
0000
,
1000
0000
0010
0000
,
1000
0000
1000
0000
,
0001
0000
0001
0000
,
0100
0000
0010
0000
,
1000
0000
0010
0000
,
0100
0000
0001
0000
,
0010
0000
0001
0000
,
1000
0000
1000
0000
,
0100
0000
1000
0000
,
0010
0000
1000
0000
,
0001
0000
0001
0000
,
0001
0000
0100
0000
,
0001
0000
0010
0000
,
1000
0000
0100
0000
,
1000
0000
0001
0000
,
0100
0000
0000
0000
,
0001
0001
0000
0000
;

//---------------dance-single - ----------------
#NOTES:
     dance-single:
     :
     Easy:
     6:
     :
0000
0000
0000
0000
,
0000
0000
0000
0000
,
0000
0000
0000
0000
,
0000
0000
0000
0000
,
0000
0000
0000
0000
,
0100
0010
0100
0010
,
1000
0001
0000
0000
,
0100
0010
0100
0010
,
1000
0001
0000
0000
,
1001
0000
0010
1000
,
0110
0000
0100
0001
,
1001
0000
0001
0010
,
0110
0000
0100
1000
,
1001
0000
0010
0100
,
0110
0000
0001
1000
,
1001
0000
1000
0100
,
0110
0001
1000
0001
,
1001
0010
1000
0100
,
0110
0100
0010
0001
,
1001
0010
1000
0100
,
0110
0001
0100
0010
,
1001
1000
0100
1000
,
0110
1000
0010
1000
,
1001
0100
0001
0100
,
0110
0001
0010
0001
,
1001
0010
1000
0100
,
0000
0010
0001
0100
,
0110
0010
0010
0010
,
0000
0100
0100
0100
,
0000
0001
0010
1000
,
0000
0100
1000
0001
,
0000
1000
1000
1000
,
0000
0001
1000
0001
,
1001
0000
0010
1000
,
0100
0000
1000
0001
,
0110
0010
0010
0010
,
0000
0001
1000
0001
,
1001
1000
0100
0010
,
0110
0100
0010
0001
,
1001
0100
0100
0100
,
0110
0001
1000
0001
,
1001
0000
0100
0001
,
0010
0001
0100
0010
,
0110
0001
1000
0000
,
0010
1000
0100
0001
,
1001
0010
0100
0000
,
0010
1000
0100
0001
,
0110
0000
0010
0100
,
1000
0010
1000
0001
,
1001
1000
1000
1000
,
0110
0001
0001
0001
,
1001
0010
0000
0100
,
0110
0001
0000
1000
,
1001
0100
0100
0100
,
0110
0001
1000
0001
,
1001
0010
1000
0001
,
0000
1000
0100
0001
,
0110
0001
0001
0001
,
1001
0001
1000
0001
,
0110
0010
0100
1000
,
0000
0010
1000
0001
,
0000
0010
0010
0010
,
0000
0001
1000
0001
,
0100
0010
0100
0010
,
1000
0001
0000
0000
;

//---------------dance-single - ----------------
#NOTES:
     dance-single:
     :
     Medium:
     8:
     :
0000
0000
0000
0000
,
0000
0000
0000
0000
,
0000
0000
0000
0000
,
0000
0000
0000
0000
,
0000
0000
0000
0000
,
0100
0010
0010
0010
,
1000
0001
0001
0000
0000
0000
0000
0000
,
0100
0010
0010
0010
,
1000
0001
0001
0000
1000
0000
1000
0000
,
1001
0010
0001
0100
,
0110
0010
1000
0100
,
0110
0001
0010
1000
,
1001
0100
1000
0001
,
0011
0010
0001
0100
,
1010
0100
1000
0001
,
0101
0010
0001
0100
,
1000
1100
1100
1100
,
1001
0010
1000
0001
,
0110
0001
0010
0100
,
0110
0010
0001
0100
,
1001
1000
0010
0001
,
1100
0010
1000
0100
,
0011
0010
0100
1000
,
1010
0100
1000
0001
,
0101
0010
0001
0100
,
1001
0010
1000
0001
,
0110
0010
1000
0100
,
1100
0000
0000
0000
0001
0001
0001
0001
,
0001
0000
0000
0000
1000
1000
1000
1000
,
1000
0010
1000
0100
,
0010
0001
0100
0010
,
0101
0000
0000
0010
0010
0010
0010
0010
,
0010
1010
1010
1010
,
1001
0000
1000
0100
1000
0000
0001
0000
,
0011
0000
0010
0001
0100
0000
0010
0000
,
1010
0000
0000
0100
0100
0100
0100
0100
,
0100
0101
0101
0101
,
0110
0000
0001
1000
0001
0000
0100
0000
,
0101
0000
0010
1000
0001
0000
0100
0000
,
1001
0000
0010
0010
0010
0010
0010
0000
,
1001
0011
0011
0011
,
1001
0000
0100
0010
1000
0000
0001
0000
,
1100
0000
0010
1000
0100
0000
0001
0000
,
1001
0000
0010
0000
0001
1000
0000
0001
,
1000
0000
0010
0000
0100
0010
1000
0000
,
0110
0000
0001
0000
0100
0010
0000
0100
,
0010
0000
1000
0000
0001
1000
0100
0000
,
0011
0001
0100
1000
,
1010
0100
1000
0001
,
1100
0000
1000
1000
1000
1000
1000
1000
,
1000
0000
0001
0001
0001
0001
0001
0001
,
0001
0000
0010
0001
0100
0000
0110
0000
,
1001
0000
0010
1000
0100
0000
1100
0000
,
0101
0000
0010
0010
0010
0010
0010
0010
,
0010
0110
0110
0110
,
1001
0000
0010
0001
1000
0000
0100
0000
,
1010
0000
0100
0010
0001
0000
1000
0000
,
0101
0000
0100
0100
0100
0100
0100
0100
,
0100
1001
1001
1001
,
0110
0000
0001
0010
0001
0000
1000
0000
,
1010
0000
0100
1000
0010
0000
0100
0000
,
0110
0000
0001
0001
0001
0001
0001
0001
,
0001
1100
1100
1100
,
0100
0010
0010
0010
,
1000
0001
0001
0000
0000
0000
0000
0000
;

//---------------dance-single - ----------------
#NOTES:
     dance-single:
     :
     Hard:
     10:
     :
0000
0000
0000
0000
,
0000
0000
0000
0000
,
0000
0000
0000
0000
,
0000
0000
0000
0000
,
0000
0000
0000
0000
,
0100
0010
0100
0010
0100
0010
0100
0010
,
1000
0001
0001
0000
0000
0000
0000
0000
,
0100
0010
0100
0010
0100
0010
0100
0010
,
1000
0001
0001
0000
1000
0100
1000
0000
,
1001
0000
0000
0000
0010
0000
0000
1000
0000
0000
0100
0000
0001
0000
0000
0000
,
0110
0000
0000
0000
0001
0000
0000
0010
0000
0000
1000
0000
0100
0000
0000
0000
,
1100
0000
0000
0000
0010
0000
0000
0100
0000
0000
0001
0000
1000
0000
0000
0000
,
0101
0000
0000
0000
1000
0000
0000
0100
0000
0000
0010
0000
0001
0000
0000
0000
,
0011
0000
0000
0000
1000
0000
0000
0001
0000
0000
0010
0000
0100
0000
0000
0000
,
1010
0000
0000
0000
0001
0000
0000
0100
0000
0000
0010
0000
1000
0000
0000
0000
,
0110
0000
0000
0000
0010
0000
0000
0001
0000
0000
0100
0000
1000
0000
0000
0000
,
1001
1100
0101
1100
,
1001
0000
0000
0000
0010
0000
1000
0001
0000
0000
0010
0000
0100
0000
0000
0000
,
0110
0000
0000
0000
1000
0000
0010
0100
0000
0000
0001
0000
1000
0000
0000
0000
,
0101
0000
0000
0000
0100
0000
0010
0100
0000
0000
0001
0000
1000
0000
0000
0000
,
1010
0000
0000
0000
0100
0000
0010
0001
0000
0000
1000
0000
0100
0000
0000
0000
,
1100
0000
0000
0000
1000
0000
0001
0010
0000
0000
0001
0000
0100
0000
0000
0000
,
0011
0000
0000
0000
1000
0000
0001
1000
0000
0000
0100
0000
0010
0000
0000
0000
,
1100
0000
0000
0000
0010
0000
0100
0010
0000
0000
0100
0000
0010
0000
0000
0000
,
0101
0000
0000
0000
1000
0000
0001
1000
0000
0000
0001
0000
1000
0000
0000
0000
,
1001
0000
0000
0000
0010
0000
1000
0000
0100
0000
0000
0010
0000
0000
0001
0000
,
0011
0000
0000
0000
0010
0000
0001
0000
0100
0000
0000
0010
0000
0000
1000
0000
,
1010
0000
0000
0001
1000
0001
1000
0001
,
0101
0000
0000
1000
0001
1000
0001
1000
,
1001
0000
0000
0000
0010
0000
1000
0000
0100
0000
0000
1000
0000
0000
0001
0000
,
0100
0000
0001
0000
0010
0000
0001
0000
1000
0000
0000
1000
0000
0000
1000
0000
,
1100
0000
0100
0010
0100
0010
0100
0010
,
0110
0000
0001
0100
1000
0100
0001
0100
,
1001
0000
0010
1000
0100
0010
0001
1000
,
0000
0000
0010
1000
0010
0100
0001
1000
,
1010
0000
1000
0100
1000
0100
1000
0100
,
1100
0000
0001
0100
1000
0100
0001
0100
,
1001
0000
0000
0000
0001
0000
0010
0000
0001
0000
0000
0100
0000
0000
1000
0000
,
0000
0000
1000
0000
0010
0000
1000
0000
0100
0000
0000
0010
0000
0000
0001
0000
,
0011
0000
0100
0001
0100
0001
0100
0001
,
0101
0000
1000
0100
0001
0100
1000
0100
,
0110
0000
0010
0001
0100
0010
1000
0001
,
1001
0000
1000
0010
1000
0100
0010
0001
,
0101
0000
0000
0000
0010
0000
0000
1000
0000
0000
0001
0000
0000
0000
0100
0000
,
0100
0000
0000
0000
0010
0000
0000
1000
0000
0000
0001
0000
1000
0000
0001
0000
,
0100
0000
0000
0000
0001
0000
0000
0010
0000
0000
0001
0000
0000
0000
1000
0000
,
1000
0000
0000
0000
0010
0000
0000
0100
0000
0000
0001
0000
0011
0000
0000
0000
,
1100
0000
0010
1000
0100
1000
0001
0010
,
0011
0000
0010
0100
0010
0001
1000
0100
,
1010
0000
1000
0010
1000
0010
1000
0010
,
1010
0000
0001
0010
0001
0010
0001
0010
,
0110
0000
0010
0001
0100
0000
0001
1000
,
0101
0000
0000
0000
0010
0000
1000
0000
0001
0000
0000
0010
0000
0000
0100
0000
,
0110
0000
0010
0001
0010
0001
0010
0001
,
0011
0000
1000
0100
0001
0100
1000
0100
,
1001
0000
0000
0000
0010
0000
1000
0000
0100
0000
0000
0001
0000
0000
0001
0000
,
0101
0000
0000
0000
0010
0000
0001
0000
0100
0000
0000
1000
0000
0000
1000
0000
,
1010
0000
0001
1000
0001
1000
0001
1000
,
1001
0000
1000
0100
0001
0100
1000
0100
,
0110
0000
0010
0001
0100
0000
0001
1000
,
0000
0000
0010
1000
0100
1000
0010
1000
,
1010
0000
0100
0010
0100
0010
0100
0010
,
1001
1100
0101
1100
,
0100
0010
0100
0010
0100
0010
0100
0010
,
1000
0001
0001
0000
0000
0000
0000
0000
;

//---------------dance-single - ----------------
#NOTES:
     dance-single:
     :
     Challenge:
     13:
     :
0000
0000
0000
0000
,
0000
0000
0000
0000
,
0000
0000
0000
0000
,
0000
0000
0000
0000
,
0000
0000
0000
0000
,
0100
0010
0010
0010
0010
0010
0010
0010
,
1000
0001
0001
0000
0000
0000
0000
0000
,
0100
0010
0010
0010
0010
0010
0010
0010
,
1000
0000
0001
0000
0001
0000
0000
0000
1000
0100
1000
0100
1000
0000
0000
0000
,
1001
0000
0000
0000
0010
0000
1000
0100
0000
1000
0100
0000
1000
0100
0000
0000
,
0110
0000
0000
0000
0010
0000
0001
0100
0000
0001
0100
0000
0001
0100
0000
0000
,
0101
0000
0000
0000
0010
0000
0001
1000
0000
0001
1000
0000
0001
1000
0000
0000
,
1010
0000
0000
0000
0100
0000
1000
0001
0000
1000
0001
0000
1000
0001
0000
0000
,
0011
0000
0000
0000
0010
0000
0100
0010
0000
0100
0010
0000
0100
0010
0000
0000
,
1100
0000
0000
0000
1000
0000
0001
1000
0000
0001
1000
0000
0001
1000
0000
0000
,
0110
0000
0000
0000
0010
0000
1000
0010
0000
1000
0010
0000
1000
0010
0000
0000
,
1001
1100
0101
1100
,
1001
0000
0000
0000
0001
0000
0100
0010
0000
0010
1000
0000
0001
1000
0001
0000
,
0011
0000
0000
0000
0100
0000
0001
0010
0000
0010
0100
0000
1000
0001
1000
0000
,
1010
0000
0000
0000
0010
0000
1000
0100
0000
0100
0010
0000
0001
1000
0001
0000
,
0101
0000
0000
0000
1000
0000
0001
0010
0000
0010
0100
0000
1000
0001
1000
0000
,
1100
0000
0000
0000
0010
0000
0100
0001
0000
0001
1000
0000
0100
0010
0100
0000
,
0110
0000
0000
0000
0010
0000
0100
1000
0000
1000
0010
0000
0100
0001
0100
0000
,
0101
0000
0000
0000
0010
0000
0001
1000
0000
1000
0010
0000
1000
0100
1000
0000
,
1100
0000
0000
0000
0010
0000
0100
0001
0000
0100
0001
0000
1000
0010
1000
0000
,
1001
0000
0000
0000
1000
0000
0100
0000
0010
0001
0000
0100
0000
0000
0010
0000
,
0110
0000
0000
0000
0100
0000
0001
0000
0010
0000
0001
1000
0000
1000
0100
0000
,
1100
0000
0001
0001
0001
0001
0001
0001
,
0011
0000
1000
1000
1000
1000
1000
1000
,
1010
0000
0000
0000
0010
0000
0100
0000
0010
1000
0000
0001
0000
0100
0000
0000
,
0110
0000
0001
0000
0010
0000
1000
0000
0001
0100
0000
0010
0000
1000
0000
0000
,
1100
0000
0010
0010
0010
0010
0010
0010
,
0110
0000
0000
0000
0001
0100
0001
0000
1000
0100
1000
0000
0001
0100
0001
0000
,
0011
0000
0000
0000
0100
0000
1000
0000
0010
1000
0000
0001
0000
0100
0010
0000
,
1000
0000
0100
0000
1000
0000
0001
0000
0010
0001
0000
0100
0000
0001
0010
0000
,
1001
0000
0100
0100
0100
0100
0100
0100
,
0101
0000
0000
0000
1000
0010
1000
0000
0001
0010
0001
0000
1000
0010
1000
0000
,
1100
0000
0000
0000
0010
0000
0001
0000
0100
0010
0000
1000
0001
0000
0100
0000
,
0010
0000
1000
0000
0001
0000
1000
0000
0100
0010
0000
0010
0001
0000
0100
0000
,
1010
0000
0001
0001
0001
0001
0001
0001
,
1001
0000
0000
0000
1000
0100
1000
0000
0001
0100
0001
0000
1000
0100
1000
0000
,
1100
0000
0000
0000
0010
0000
0100
0000
1000
0010
0000
0100
0001
0000
1000
0000
,
0110
0000
0000
0000
0010
0000
0100
0000
0010
1000
0000
1000
0001
0000
0100
0000
,
1001
0000
0000
0000
0010
0000
1000
0100
0000
1000
0100
0000
0000
0010
0001
0000
,
0001
0000
0000
0100
0010
0000
0000
1000
0000
0000
0100
0000
0100
0000
1000
0001
,
1000
0000
0000
0010
0100
0000
0000
0001
0000
0000
1000
0000
0000
0001
0100
0000
,
0010
0000
0000
1000
0001
0000
0100
0010
0000
1000
0001
0000
0100
0000
0000
0000
,
0110
0000
0000
0000
0010
0000
1000
0001
0000
0010
0000
0001
0000
1000
0100
0000
,
0011
0000
0000
0000
0100
0000
0010
0000
0100
0000
0001
0010
0000
0001
1000
0000
,
1100
0000
0010
0010
0010
0010
0010
0010
,
0101
0000
1000
1000
1000
1000
1000
1000
,
1010
0000
0000
0000
0001
0000
0010
0000
0001
0100
0001
0000
1000
0000
0010
0000
,
1001
0000
0000
0000
0100
0000
0001
0000
0010
0000
0100
1000
0000
1000
0010
0000
,
0101
0000
0100
0100
0100
0100
0100
0100
,
0110
0000
0000
0000
0001
0010
0001
0000
1000
0010
1000
0000
0001
0010
0001
0000
,
1001
0000
0000
0000
0100
0010
0000
0000
1000
0001
0000
0010
0000
0001
0000
0000
,
0010
0000
0001
0000
1000
0000
1000
0000
0100
0010
0000
0001
0000
0000
0100
0000
,
0110
0000
0001
0001
0001
0001
0001
0001
,
0010
0000
0000
0000
0001
0100
0001
0000
1000
0100
1000
0000
0001
0100
0001
0000
,
0011
0000
0000
0000
1000
0010
0000
0000
0100
0001
0000
0010
0000
0001
1000
0000
,
0100
0000
0010
0000
0001
0000
0001
0000
1000
0010
0000
0100
0001
0000
1000
0000
,
1100
0000
0010
0010
0010
0010
0010
0010
,
1001
1100
0101
1100
,
0100
0010
0010
0010
0010
0010
0010
0010
,
1000
0001
0001
0000
0000
0000
0000
0000
;
