#TITLE:Fegrix;
#ARTIST:Xceon vs DJ Command (Eurobeat Union);
#BANNER:Fegrix-bn.png;
#BACKGROUND:Fegrix-bg.png;
#JACKET:Fegrix-jacket.png;
#MUSIC:Fegrix.ogg;
#SAMPLESTART:72.687;
#SAMPLELENGTH:20;
#DISPLAYBPM:175;
#BPMS:0=175;
#STOPS:35.75=1.372,76=1.029,283.75=0.343;
#BGCHANGES:;

//---------------dance-single - ----------------
#NOTES:
     dance-single:
     :
     Beginner:
     5:
     :
0000
0000
0000
0000
,
0000
0000
0000
0000
,
0000
0000
0000
0000
,
0000
0000
0000
0000
,
0000
0000
0000
0000
,
1001
0000
0000
0000
,
0000
0000
0001
0001
,
0001
0000
0000
0000
,
1001
0000
0110
0000
,
1000
0000
0001
0000
,
0010
0010
0010
0000
,
0001
0000
0100
0000
,
1000
0000
0001
0001
,
0001
0000
1000
0000
,
0010
0010
0010
0000
,
0100
0000
0001
0000
,
1000
0000
0001
0000
,
0110
0000
0000
0000
,
0000
0000
0010
0010
,
0010
1000
1000
1000
,
0000
0001
0000
0100
,
0000
0220
0000
0330
,
0000
0110
0000
1001
,
0000
0001
0000
0100
,
0100
0100
0000
0010
,
0010
0010
0000
1000
,
0000
0001
0000
1001
,
0000
0010
0000
1000
,
1000
1000
0000
0100
,
0100
0000
0110
0000
,
1001
0000
0000
1001
,
0000
0001
0001
0001
,
0000
0100
0100
0100
,
0000
0010
0000
1000
,
0000
0100
0000
0001
,
0000
0110
0000
0000
,
0000
0000
0000
0000
,
0000
0000
0000
0000
,
0000
0000
0000
0000
,
0000
0001
0001
0000
,
1000
0000
0010
0000
,
0100
0000
0010
0000
,
1000
0000
0100
0000
,
0000
1000
0000
0001
,
0000
0010
0000
0001
,
0000
0100
0000
0010
,
0000
1000
0000
0100
,
0000
0010
0000
0001
,
0000
0100
0000
0010
,
0000
1000
0000
0100
,
0000
1000
0000
0001
,
0001
0001
0000
0100
,
0000
1000
0000
0010
,
0010
0010
0000
0100
,
0000
0001
0001
0001
,
0000
1000
0000
0001
,
0000
0010
0000
0100
,
0100
0100
0000
1000
,
0000
1000
1000
1000
,
0000
0001
1000
0001
,
0000
1001
0000
0110
,
0000
0100
0010
0100
,
0000
0110
0000
1001
,
0000
0001
0010
0001
,
0000
1001
0000
0110
,
0000
1000
0100
1000
,
0000
0110
0000
1001
,
0000
0001
0001
0001
,
0000
0010
0001
0100
,
0000
0010
0000
1000
,
0000
0001
0100
1000
,
0010
0000
1000
0000
,
0100
1000
0100
0000
,
0010
0000
0001
0000
,
1000
0010
1000
0010
,
0000
0000
0000
0000
,
0100
0000
0001
0000
,
0010
0000
0001
0000
,
0100
0000
0010
0000
,
1000
0000
0100
0000
,
1000
0000
0010
0000
,
1000
0000
0001
0000
,
0010
0000
0100
0000
,
1000
0000
0001
0000
,
0110
0000
1001
0000
;

//---------------dance-single - ----------------
#NOTES:
     dance-single:
     :
     Easy:
     10:
     :
0000
0000
0000
0000
,
0000
0000
0000
0000
,
0000
0000
0000
0000
,
0000
0000
0000
0000
,
0000
0000
0000
0000
,
1001
0010
0001
0100
,
0010
0000
1000
0000
0001
0000
0100
0010
,
1000
0001
1000
0100
,
0011
0100
1010
0001
,
0110
0001
1000
0010
,
1000
0000
0001
0000
0010
0100
1000
0000
,
0001
0000
0010
0000
0001
0000
1000
0001
,
0100
0000
0010
0000
1000
0001
1000
0001
,
0100
0000
0010
0000
1000
0000
0001
0010
,
0001
0000
0100
0000
0010
1000
0001
0000
,
0010
0000
0001
0000
0100
0010
1000
0001
,
1000
0000
0100
0000
1000
0100
0010
0000
,
1001
0110
1010
0101
,
0011
0000
1100
0000
1000
0010
0100
0001
,
1000
0000
0010
0000
0100
0000
0001
0010
,
1000
0000
0100
0010
0001
0000
0100
0010
,
1000
0220
0000
0000
,
0030
0320
0200
0000
0000
0030
0301
0100
,
0001
1000
0100
0000
0010
0001
1000
0000
,
0101
0000
0010
0000
1000
0000
0001
0100
,
0001
0100
0010
0000
1000
0001
1000
0000
,
0010
0100
0001
0000
0011
0000
1100
0000
,
0000
0010
0100
0001
1000
0000
1010
0000
,
0101
0000
0010
0001
0100
0000
1000
1000
,
1000
0000
0010
1000
0002
0000
0013
0001
,
2000
0000
3010
0100
0010
1000
0100
0010
,
0002
0000
1003
1000
1000
0000
1100
0000
,
0101
0000
0010
0001
0100
0000
0010
1000
,
0001
0000
0010
0100
1000
0000
1001
0000
,
0001
0100
0010
1000
0001
0000
0101
0000
,
1100
0202
0000
0000
,
0300
2000
0003
0002
,
3000
0020
0000
0000
,
0003
0200
0000
0000
,
0030
1300
0001
0000
0100
0000
0010
0000
,
1000
0100
0010
0001
,
0100
0001
1000
0010
,
1000
0100
0010
0001
,
0100
0010
0000
1000
0000
0001
0000
1000
,
0000
0001
0000
0010
0000
0001
0000
0100
,
0020
0000
0030
1000
0000
0100
0000
0010
,
0000
0001
0000
0100
0000
0010
0000
1000
,
1000
1000
0000
0001
0000
0100
0000
0001
,
0000
1000
0000
0010
0000
0100
0002
0000
,
2003
0000
3010
1000
0000
0100
0000
0010
,
0000
0001
1000
0000
0001
0000
0011
0000
,
1010
0000
0100
0000
0001
0000
0010
0100
,
1000
0001
0000
0100
0010
1000
0000
0001
,
1000
0001
0010
0000
0001
0000
1000
0001
,
1000
0100
0010
0000
0011
0000
1100
0000
,
1000
0001
0100
0000
0010
0000
1000
0010
,
1000
0001
0000
0010
0001
0100
0000
0001
,
1000
0010
0100
0000
0010
0000
1000
0100
,
0010
0001
0100
0010
0100
0000
0001
0000
,
1000
0010
1000
0000
0001
0000
0010
0001
,
0100
0010
0000
1000
0100
0001
0000
0010
,
0100
1000
0010
0000
1000
0000
0001
0010
,
0001
0100
0010
0000
1001
0000
0110
0000
,
1000
0001
1000
0000
0100
0000
0010
0001
,
1000
0001
0000
0100
0010
0100
0000
0001
,
0010
1000
0100
0000
0010
0000
0001
0100
,
1000
0000
0010
1000
0010
1000
0100
0010
,
0001
1000
0001
0010
,
0100
1000
0010
1000
,
0001
0000
0100
0001
0010
0000
0101
0000
,
1010
0000
1000
0001
1000
0000
0020
0230
,
0301
0010
0001
1000
,
0100
0000
0010
0000
0001
0100
1000
0000
,
0010
0000
1000
0000
0100
0000
1000
0010
,
0001
0000
0100
0000
0010
1000
0010
1000
,
0000
1001
0000
0110
,
1000
0001
1000
0100
,
0010
0001
0100
0010
,
1000
0001
0010
0100
,
1000
0010
1000
0001
,
0100
0010
0100
0001
,
0010
0100
1000
0010
,
1000
0001
0100
0010
,
1000
0001
1000
0100
,
1001
0000
0000
0110
0000
0000
0000
0000
;

//---------------dance-single - ----------------
#NOTES:
     dance-single:
     :
     Medium:
     13:
     :
0000
0000
0000
0000
,
0000
0000
0000
0000
,
0000
0000
0000
0000
,
0000
0000
0000
0000
,
0000
0000
0000
0000
,
1001
1000
0000
0100
0000
0010
0000
0001
,
0000
0100
0000
0010
1000
0001
1000
0010
,
0110
0000
0001
1000
0000
0010
0000
0100
,
0102
0000
0000
0000
1003
0000
0000
0000
2100
0000
0000
0000
3001
0000
0100
0010
,
1000
0000
0000
0100
0000
0000
1000
0000
0010
0000
0100
0000
0001
0000
0010
0000
,
0001
0000
0000
0100
0000
0000
0010
0000
1000
0000
0000
0001
0000
0000
0010
0000
,
0100
0000
0000
1000
0000
0000
0001
0000
1000
0000
0010
0000
1000
0000
0001
0000
,
0100
0000
0000
0010
0000
0000
1000
0000
0001
0000
0010
0000
0001
0000
0100
0000
,
0001
0000
0000
1000
0000
0000
0010
0000
1000
0000
0100
0000
0010
0000
0001
0000
,
0100
0000
0000
0010
0000
0000
1000
0000
0001
0000
0000
0010
0000
0000
0100
0000
,
1000
0000
0000
0010
0000
0000
1000
0000
0100
0000
0010
0000
0001
0000
0100
0000
,
0001
0000
0000
0010
0000
0000
0001
0000
0100
0000
0000
0010
0000
0000
1000
0000
,
0002
0000
0000
0023
0000
0000
0230
0000
0000
2300
0000
0000
3020
0000
0000
0230
,
0000
0000
0302
0000
0000
2003
0000
0000
3001
0000
1000
0000
0010
0000
0100
0000
,
0110
0000
1000
0100
0001
0000
0010
0001
,
0100
0000
0010
1000
0001
1000
0100
0010
,
0001
0220
0000
0000
,
0300
0130
0010
0000
0220
0000
0000
0000
0000
0300
0031
1000
0001
0000
0100
0000
,
0010
1000
0100
0010
0001
0100
0001
0010
,
1000
0000
0000
0000
1100
0000
0000
0001
0000
0000
1000
0000
0010
0000
0100
0000
,
0010
0100
0001
0010
0001
1000
0010
0100
,
0001
0000
1000
0000
0100
0000
0010
0000
0001
1000
0000
0001
0010
0000
0000
0000
,
0000
0001
0100
0010
1000
0100
1000
0001
,
0010
0000
0001
0100
0010
1000
1010
1010
,
1010
0000
0000
0000
0001
1000
0001
0000
0202
0000
0000
0300
1003
0001
1000
0000
,
2200
0000
0000
0300
3010
0000
0100
0000
0010
0000
1000
0000
0100
0000
0010
0000
,
0022
0000
0000
0030
1003
0000
1000
0000
1000
0000
0000
0000
0010
0000
0100
0000
,
0001
0000
0010
0001
1000
0100
0001
0010
,
1000
0000
0100
1000
0010
1000
0100
0010
,
0001
0000
1000
0000
0010
0000
0000
0010
0000
0000
0010
0000
1000
0000
0000
0001
,
0000
1000
1001
0000
0000
0010
0000
0010
,
0000
1000
0000
0001
0000
1000
0000
0100
,
0000
0010
0000
0001
0000
0100
0000
0001
,
0000
1000
0000
0001
0000
0100
0000
0010
,
0000
0110
0110
0000
1000
0100
0001
0000
,
0010
0100
1000
0000
0001
1000
0100
0000
,
1000
0010
0100
0001
1000
0000
0001
0010
,
0001
1000
0100
0010
0001
0100
1000
0000
,
0010
0100
0010
0100
0010
0000
1010
0000
0000
0000
1100
0000
0000
0000
0011
0000
,
0000
0000
0101
0000
0000
0000
1001
0000
0000
0000
0110
0000
0000
0000
0001
1000
,
0002
0000
0003
0011
0000
0110
0000
1100
,
0000
1010
0000
1001
0000
0101
0000
0011
,
0011
0011
0000
1001
0000
0101
0000
1010
,
0000
0000
1100
0000
0000
0000
0011
0000
0000
0000
0110
0000
1000
0000
0000
1000
,
0000
1000
0000
1100
0000
0110
0000
0011
,
0000
0000
1001
0000
1000
0000
0010
0000
1000
0000
0001
0000
0010
0000
0000
0010
,
0000
0010
0001
0100
0010
1000
0100
0010
,
0002
0000
1003
0001
0200
0000
0310
1000
,
0002
0000
0013
0001
0100
0001
0010
0100
,
2000
0000
3100
1000
0002
0000
0013
0001
,
0200
0000
0310
1000
0001
0010
0001
0100
,
2000
0000
3100
1000
0020
0000
1030
0001
,
0200
0000
0301
1000
0001
0010
0001
0100
,
0020
0000
0000
0000
1030
0000
0001
0000
1000
0000
0010
0000
0100
0000
0000
0001
,
0000
1000
0001
0010
0001
0100
1000
0010
,
0002
0000
0013
0001
2000
0000
3100
0010
,
0001
1000
0001
0100
0001
1000
0100
0010
,
0200
0000
0000
0000
1300
0000
0000
0001
0000
0000
1000
0000
0010
0000
0000
0100
,
0000
0001
0010
0001
0100
0010
1000
0001
,
2000
0000
3001
0010
0002
0000
1003
0001
,
1000
0000
0010
0000
0100
0000
0000
0001
0000
0000
1000
0000
0001
0000
0010
0000
,
0200
0000
1300
0010
2000
0000
3001
0010
,
0002
0000
0103
0101
0000
0011
0000
0110
,
0000
1100
1000
0001
1000
0010
0100
0001
,
0100
1000
0010
0110
0000
1001
0000
0101
,
0000
1010
1000
0001
1000
0001
0100
0020
,
1030
0000
0000
0100
0000
0000
1000
0000
0001
0000
0010
0000
0001
0000
0100
0000
,
0010
0000
0000
1000
0000
0000
0001
0000
0010
0000
0000
0001
0000
0000
0100
0000
,
1000
0000
0000
0010
0000
0000
1000
0000
0001
0000
0010
0000
0001
0000
0100
0000
,
0010
0000
0000
1000
0000
0000
0001
0000
0010
0000
0100
0000
1000
0000
0001
0000
,
0000
0000
1000
0001
0000
0100
0010
0100
,
0001
0010
0001
1000
,
0010
0000
0100
0000
0010
1000
0001
0000
,
0010
0001
0100
0010
,
1000
0100
1000
0000
0001
0100
0001
0000
,
1001
0000
0001
0000
1000
0010
1000
0001
,
0100
0010
1000
0000
0001
0000
0010
0001
,
0100
0010
1000
0010
0100
0010
1000
0010
,
0100
0001
1000
0001
0010
0100
1000
0001
,
0011
0000
0000
1001
0000
0000
0101
0000
0000
0000
0000
0000
0000
0000
0000
0000
;

//---------------dance-single - ----------------
#NOTES:
     dance-single:
     :
     Hard:
     16:
     :
0000
0000
0000
0000
,
0000
0000
0000
0000
,
0000
0000
0000
0000
,
0000
0000
0000
0000
,
0000
0000
0000
0000
,
1001
1000
0000
0010
0000
0100
0000
0001
,
0000
0000
0010
0000
0000
0000
0001
1000
0001
0010
0100
1000
0100
0010
0001
0000
,
1001
0000
0100
0001
0000
1000
0000
0010
,
1010
0000
0000
1000
0100
0000
0010
0000
0011
0000
0000
0001
1000
0000
0010
0100
,
0002
0000
0000
0023
0000
0000
0031
0000
1000
0100
1000
0020
0000
0000
0130
0001
,
0100
0000
0010
0000
1000
0000
0001
0000
0010
0001
0010
0200
0000
0000
1300
0000
,
0020
0000
0000
0230
0000
0000
0301
0000
1000
0100
0010
0000
0001
0000
0100
0010
,
0100
0000
0001
1000
0000
1000
0001
0010
0100
0000
1100
0000
0110
0000
0011
0000
,
2001
0000
0000
3020
0000
0000
0130
0000
0001
0010
0001
0000
1000
0100
1000
0000
,
0010
0000
1000
0100
0000
0100
1000
0000
0001
0010
0100
0010
0001
0000
1000
0000
,
0020
0000
0000
0230
0000
0000
0301
0000
1000
0001
0010
0000
0001
0100
0010
1000
,
0001
0000
0010
0100
0000
0000
1000
0001
1000
0000
0010
0100
0001
0000
1000
0000
,
1100
0000
0000
0101
0000
0000
1100
0000
0000
0101
0000
0000
1010
0000
0000
0011
,
0000
0000
1010
0000
0000
0011
0000
0000
1001
0000
1001
0000
0110
0000
0110
0000
,
1001
0000
0000
0000
0010
1000
0010
1000
0100
0000
0010
0000
0001
1000
0001
0100
,
0020
0000
0000
0000
1030
0000
0100
0010
0000
0010
0001
0000
0100
0000
0001
1000
,
0000
1000
0100
0000
0120
0000
0001
0000
0000
0000
1000
0000
0000
0000
0001
0000
,
0000
0130
0010
0000
0210
0000
0001
0000
0000
0000
1300
0000
1001
0000
0010
0000
,
0100
0000
0001
0000
1000
0000
0100
1000
0001
0000
0100
0010
0000
0000
1000
0001
,
0020
0000
0000
0000
0031
0000
0100
0010
0000
1000
0000
0001
1000
0000
0010
0000
,
0100
0000
0001
0000
0010
0001
0010
0000
0000
0000
0100
1000
0000
0001
1000
0000
,
0010
0000
0100
0000
0001
1000
0001
0000
0100
0010
0000
1000
0001
0000
0100
0000
,
0010
0000
1000
0000
0001
0000
0010
0000
0001
0000
1000
0010
0000
0100
0000
0001
,
1000
0000
0000
0000
0100
1000
0000
0001
0000
1000
0000
0010
0100
0001
0100
0010
,
0100
0000
0001
0000
1000
0100
1000
0100
0020
0000
0000
0000
0031
0100
0001
0100
,
0020
0000
0000
0000
1030
0000
0001
0100
0000
0010
0000
0100
0000
0001
0000
1000
,
0020
0000
0000
0000
0130
0000
0110
0000
1001
0000
0000
1000
0010
0100
0001
0000
,
0020
0000
0000
0000
0031
0100
0000
0010
0000
1000
0000
0001
0010
0000
0001
1000
,
0100
0000
0010
0100
1000
0000
0010
0000
0100
0001
0100
0010
0000
1000
0001
0000
,
0010
0001
0100
0000
0010
0000
1010
0000
0000
0101
0000
1000
0001
0000
0010
0100
,
1000
0000
0010
0100
0001
0000
1000
0000
0000
0000
0010
0000
1000
0000
0100
0000
,
0000
0010
0001
0100
0000
0001
1000
0010
,
0000
1000
0100
0001
0000
0010
0001
0100
,
0000
0010
1000
0001
0000
0100
0010
1000
,
0000
1100
0101
0000
1000
0010
1000
0001
,
0010
0100
0010
0100
0010
0000
0001
0000
0000
1000
0000
0001
0100
0000
0000
0000
,
0010
1000
0010
1000
0010
0000
0100
0001
0000
0100
0001
0000
0010
0100
0010
0001
,
1000
0001
1000
0100
0000
0000
0110
0000
0001
1000
0000
1000
0010
0000
0000
0000
,
0100
0001
0100
0001
0100
0000
0001
0000
0010
0000
1000
0000
0010
0000
0100
0000
,
0010
0000
0001
0000
0100
0000
1000
0000
0100
0000
0010
0000
0100
0000
0001
1000
,
0100
0010
1000
0010
0001
0010
0100
0001
,
0100
0010
1000
0010
0100
0010
0001
0100
,
1000
0000
0100
0010
0100
0000
0001
0000
0010
0000
1000
0000
0010
0000
0100
0000
,
0010
0000
1000
0000
0010
0000
0001
0000
0100
0010
0000
0010
1000
0000
0000
1100
,
0000
0101
1000
0001
0010
0100
0001
0100
,
1000
0000
0010
0000
0100
0001
0100
0001
0100
0001
0100
0001
0100
0000
0010
1000
,
0000
1000
0001
0000
0010
0000
0001
1000
0000
0001
0100
0000
0010
1000
0010
0100
,
0001
0000
1000
0000
0100
0000
1100
0000
1001
0000
1010
0000
0100
0001
0010
0001
,
0100
0000
0010
1000
0001
0000
0010
0100
0000
0100
1000
0010
1000
0000
0001
0000
,
0100
0001
0000
0010
0001
0000
0000
0011
0000
0000
0110
0000
0000
1100
0000
0000
,
1000
0010
1000
0001
0100
0000
0010
1000
0000
0010
0100
0001
1000
0100
0010
0001
,
0100
0000
0010
0000
1000
0000
1001
0000
0101
0000
0011
0000
0010
0001
0010
0100
,
1000
0010
1000
0001
0100
0010
0100
0010
0000
1000
0001
0000
0010
0001
1000
0001
,
0100
0001
0000
0100
0010
0000
1000
0001
0000
1000
0001
0000
0100
0000
0010
0100
,
0000
0010
0100
0000
0001
0000
0010
0100
0000
1000
0010
1000
0002
0000
0203
0000
,
0320
0000
2030
0000
3100
0000
2000
0000
3002
0000
0023
0000
0031
0100
0010
0100
,
0010
0100
0001
1000
0100
0000
0010
0001
0000
1000
0001
0010
0100
0000
1000
0010
,
1000
0100
0010
0001
0100
0000
0000
0110
0000
0000
1001
0000
0000
1000
0100
0010
,
0001
0010
0100
1000
0001
0000
0100
0010
0000
0100
0001
0010
0002
0000
2003
0000
,
3020
0000
0130
0000
0001
0000
2000
0000
3002
0000
0203
0000
0310
1000
0010
1000
,
0100
0010
0001
0000
1000
0000
0010
0100
0000
0000
0001
0010
0001
1000
0100
0010
,
0002
0000
0000
0103
0010
0000
1000
0001
0000
1000
0001
0000
0100
0000
0010
0100
,
0000
0010
0100
0000
0001
0000
0010
0100
0000
0000
1000
0010
0000
0000
1000
0001
,
0010
0000
0001
1000
0100
0000
0010
0001
0000
0000
1000
0001
0000
0000
1000
0100
,
0000
0000
1000
0010
1000
0000
0100
0000
0001
0000
0100
0000
0010
0000
1000
0000
,
0010
0000
0001
0000
0100
0000
0010
1000
0000
0010
1000
0010
0000
0000
0000
1010
,
1002
0000
0000
0023
0000
0000
0031
0000
1000
0100
1000
0000
0010
0000
0100
0001
,
0020
0000
0000
0230
0000
0000
1300
0000
0001
0100
0001
2000
0000
0000
3010
0100
,
0020
0000
0000
2030
0000
0000
3100
0010
0001
0000
0100
0000
0010
1000
0001
1000
,
0010
0000
0100
0001
0000
0100
0001
0000
0010
0000
0001
1000
0100
0000
0010
0000
,
0001
0000
0100
0000
0101
0000
1000
0000
0000
0000
0010
0100
0010
0100
0010
0000
,
1000
0100
0010
0001
0100
0010
0100
1000
,
0100
0001
0010
1000
0010
0100
0010
1000
,
0010
0001
0100
0010
0001
0010
1000
0001
,
0100
1000
0100
0010
0100
0001
0010
1000
,
0010
0100
0001
0100
1000
0010
1000
0001
,
0100
0010
0001
0010
0100
1000
0100
0001
,
0010
1000
0010
0100
0010
1000
0010
0001
,
0100
0010
0001
0010
1000
0100
0001
0100
,
1100
0000
0000
0101
0000
0000
1100
0000
0000
0000
0000
0000
0000
0000
0000
0000
;

//---------------dance-single - ----------------
#NOTES:
     dance-single:
     :
     Challenge:
     18:
     :
0000
0000
0000
0000
,
0000
0000
0000
0000
,
0000
0000
0000
0000
,
0000
0000
0000
0000
,
0000
0000
0000
0000
,
1001
0000
0100
1000
0000
0000
0100
0010
0000
0000
0010
0001
0000
0000
1000
0001
,
0000
0000
0100
0001
0000
0000
1000
0010
1000
0100
0010
0001
0010
0100
1000
0000
,
1001
0000
0010
0001
0000
0000
0100
0010
0000
0000
1000
0100
0000
1000
0001
0000
,
0011
0000
0100
0010
0100
0000
0001
0000
1010
0000
0100
0010
1000
0001
0010
0100
,
0110
0000
0000
0002
0000
0000
0103
0010
1000
0010
1000
0200
0000
0000
0310
0001
,
1000
0000
0010
0000
0001
0000
0010
0000
1000
0100
1000
0010
0000
0000
0100
0001
,
0010
0001
0010
0100
0000
0000
1000
0010
1000
0001
0100
0000
0001
0010
0100
1000
,
0001
0000
0100
0010
0000
0010
0100
0000
0001
1000
0010
1000
0100
0000
0010
0000
,
0002
0000
0000
2003
0000
0000
3010
1000
0100
0010
0001
0000
1000
0001
0100
0010
,
0100
0000
0001
1000
0000
1000
0100
0000
0010
0001
0010
0100
1000
0001
0010
0000
,
0100
0010
0100
1000
0000
0000
0010
1000
0100
0010
0001
0000
1000
0001
0010
0001
,
0100
0000
0010
0000
0010
0000
0100
0000
0110
0000
1000
0001
0100
0001
1000
0000
,
1100
0000
0000
0110
0000
0000
0011
0000
0000
0101
0000
0000
1001
0000
0000
1010
,
0000
0000
1100
0000
0000
1001
0000
0000
0101
0000
0110
0000
1010
0000
1001
0000
,
0011
0000
0000
0000
1001
0000
1000
0001
1000
0000
0100
0010
0001
0010
0001
0100
,
0010
0000
0000
0000
1000
0000
0100
0010
0000
0010
0001
0000
0100
0000
0001
1000
,
0000
1000
0010
0000
0120
0000
0001
0000
0000
0000
1000
0000
0000
0000
0001
0000
,
0000
0130
0010
0000
0210
0000
1000
0000
0000
0000
0301
0000
1001
0000
1000
0100
,
0010
0100
1000
0000
0001
0000
0100
0010
0100
0001
0000
1000
0100
0000
0010
0001
,
1000
0000
0001
1000
0100
0010
0100
1000
0000
0001
0000
0100
0010
1000
0001
0000
,
1000
0100
0001
0000
0011
0000
0011
0000
0000
0000
1000
0100
0001
0100
1000
0000
,
0010
0000
0100
0000
0101
0000
1000
0001
1000
0100
0000
0010
0001
0000
0200
0000
,
0320
0000
1030
0000
1001
0000
0010
0000
1000
0100
0010
0001
0000
0100
0000
0010
,
1000
0000
0000
0000
0001
1000
0100
0010
0000
0100
0000
1000
0010
1000
0001
0010
,
0001
0000
0100
0000
0010
1000
0010
1000
0002
0200
0000
0300
0013
0001
0010
0001
,
2000
0200
0000
0300
3010
1000
0001
0100
0000
0101
0000
0101
0000
1000
0100
0010
,
0001
2000
0002
3000
0013
0000
1001
0000
0110
0000
0010
1000
0000
0001
0100
0000
,
1010
0000
0000
0000
1000
0100
0000
0010
0000
0100
0000
1000
0001
0000
0010
0001
,
0100
0000
0000
0000
1010
0000
1010
0000
1000
0001
1000
0100
0000
0100
0010
0000
,
0001
0000
0100
0000
0010
1000
0001
0000
0010
0001
0000
1000
0010
0000
1000
0001
,
0000
0100
0010
0000
1010
0000
0000
0000
0000
0001
0100
0001
0100
0010
1000
0100
,
1000
0001
0010
0001
0000
0100
0001
1000
0010
0100
0010
1000
0001
1000
0100
0010
,
0001
0100
0010
0100
0001
1000
0001
1000
0000
0010
1000
0010
1000
0001
0100
0010
,
1000
0100
1000
0001
0000
0010
0001
1000
0001
0100
0010
1000
0000
1000
0100
1000
,
0001
0010
0001
0000
0000
0000
0100
0001
0000
0010
0100
0000
1000
0001
0000
0100
,
0010
1000
0010
0100
0001
0000
0011
0000
0000
0001
0000
1000
0010
0000
0000
1000
,
0100
0010
0100
0010
0001
0000
1000
0100
0001
0100
1000
0000
0010
0100
0001
1000
,
0100
0010
0001
0100
0000
0000
0000
0000
0010
1000
0100
0010
0001
0100
1000
0000
,
0001
0100
0001
0100
0001
0000
1000
0100
1000
0000
0001
0100
0001
0000
1000
0010
,
1000
0000
0001
0010
0001
0000
0100
0010
0100
0000
0001
1000
0001
0000
0100
0010
,
2000
0000
0000
0000
3001
0000
1000
0010
1000
0000
0001
0100
0001
0000
1000
0100
,
1000
0000
0001
0010
0001
0000
1000
0001
1000
0000
0010
0100
0010
0000
0110
0000
,
0110
0000
0110
0000
1001
0000
1000
0100
1000
0001
0000
0100
0010
1000
0000
0000
,
0100
1000
0001
0010
0000
0000
1100
0000
1000
0001
0000
0100
0020
0000
0000
0000
,
1030
0100
1000
0100
0010
0001
0000
0100
0000
0010
1000
0010
1000
0100
0010
0001
,
0100
0010
0100
0001
1000
0100
1000
0100
1000
0100
1000
0100
1000
0000
0000
0010
,
0000
0010
0100
0010
1000
0000
0100
0010
0000
0010
0001
1000
0001
0100
1000
0100
,
0002
0000
0000
0000
0013
0100
1000
0100
0020
0000
0000
0000
0031
1000
0100
1000
,
0002
0000
0000
0000
0103
0000
0010
1000
0000
1000
0001
0010
0001
0100
1000
0100
,
0002
0000
0000
0000
0103
0001
0010
0001
0200
0000
0000
0000
0310
1000
0100
1000
,
0020
0000
0000
0000
0130
0000
0001
1000
0000
0100
0010
0100
1000
0001
0010
0001
,
2000
0000
0000
0000
3100
0010
0001
0010
0200
0000
0000
0000
1300
0010
0001
0010
,
2000
0000
0000
0000
3100
0000
0010
0001
0000
1000
0001
0010
1000
0010
0100
0010
,
0002
0000
0000
0000
0103
0010
0100
0001
0000
1000
0100
0000
1000
0010
1000
0001
,
0000
0001
0010
0000
0100
0000
1000
0010
0000
0100
0001
0000
0010
0100
0010
0001
,
2000
0000
0000
0000
3100
0010
0001
1000
0020
0000
0000
0000
1030
0100
0010
0001
,
0200
0000
0000
0000
0310
0000
1000
0001
0000
0010
0001
0000
0100
1000
0100
0001
,
0020
0000
0000
0000
0130
1000
0001
0010
0000
0001
0100
0000
0010
1000
0100
0010
,
0000
0001
1000
0000
0010
0000
1000
0001
0000
0010
0100
0000
1000
0010
0100
0001
,
2000
0000
0000
0000
3100
0010
0001
1000
0002
0000
0000
0000
0103
0001
0010
0001
,
0010
0100
1000
0001
1000
0010
0100
0001
0000
0010
0001
1000
0010
0001
0010
1000
,
0200
0000
0000
0000
0310
0001
0100
0010
0000
1000
0001
0000
0100
0010
0001
1000
,
0000
1000
0100
0000
0110
0000
0001
0100
0000
0010
1000
0002
0000
1003
0100
0010
,
0001
0010
0001
1000
0010
0000
0100
0010
0000
1000
0100
1000
0000
0001
0010
0001
,
0000
0100
0010
1000
0100
0010
0001
0010
0001
0010
0100
0000
1000
0010
1000
0001
,
1000
0010
0100
0000
0001
1000
0001
1000
0000
0010
0100
0001
0000
0000
0000
1010
,
1001
0000
0000
0020
0000
0000
1030
0100
1000
0001
0010
0000
0001
0100
0001
1000
,
0010
0000
0100
0001
0000
0001
0010
0100
1000
0010
1000
0002
0000
0000
0103
0010
,
1000
0100
0010
0001
0000
1000
0010
1000
0001
0010
0100
0000
1000
0010
1000
0001
,
0010
0000
0001
0100
0000
0001
0100
0000
0010
1000
0001
1000
0010
0100
0001
0000
,
1000
0001
1000
0001
0100
0000
0100
0000
0000
0000
0010
1000
0010
1000
0010
0000
,
0100
0000
0001
0000
0010
0000
0100
0000
1000
0000
0010
0000
1000
0001
0010
0001
,
1000
0000
0100
0000
0010
0001
0000
0000
0100
0010
0100
0001
0000
1000
0100
1000
,
0000
0001
0100
0010
1000
0000
0100
1000
0001
0000
0010
0001
0100
0001
1000
0000
,
0010
1000
0010
0100
0010
0001
0010
0000
0010
0001
0010
0100
0010
1000
0010
0000
,
1001
0000
0000
0000
0100
0010
0001
0100
0001
0000
0010
0000
0100
1000
0001
1000
,
0100
0000
0010
0001
0000
0000
0000
0000
1000
0010
1000
0010
1000
0100
0010
0001
,
0000
0000
1000
0100
0001
0000
1000
0010
0001
0000
1000
0100
0001
0000
1000
0010
,
0001
0000
0100
0010
0100
0001
1000
0000
0100
0010
0001
0010
0001
1000
0100
0000
,
1100
0000
0000
0110
0000
0000
0011
0000
0000
0000
0000
0000
0000
0000
0000
0000
;
