#VERSION:0.83;
#TITLE:Feel The Beat;
#SUBTITLE:;
#ARTIST:Master Source;
#TITLETRANSLIT:;
#SUBTITLETRANSLIT:;
#ARTISTTRANSLIT:;
#GENRE:;
#ORIGIN:;
#TAGS:;
#CREDIT:;
#BANNER:Feel The Beat-bn.png;
#BACKGROUND:Feel The Beat-bg.png;
#PREVIEWVID:;
#JACKET:Feel The Beat-jacket.png;
#CDIMAGE:;
#DISCIMAGE:;
#LYRICSPATH:Feel The Beat.lrc;
#CDTITLE:;
#MUSIC:Feel The Beat.ogg;
#OFFSET:-0.528000;
#SAMPLESTART:13.693000;
#SAMPLELENGTH:20.000000;
#SELECTABLE:YES;
#BPMS:0.000000=139.000000;
#STOPS:;
#DELAYS:;
#WARPS:;
#TIMESIGNATURES:0.000000=4=4;
#TICKCOUNTS:0.000000=4;
#COMBOS:0.000000=1;
#SPEEDS:0.000000=1.000000=0.000000=0;
#SCROLLS:0.000000=1.000000;
#FAKES:;
#LABELS:0.000000=Song Start;
#BGCHANGES:;
#KEYSOUNDS:;
#ATTACKS:
;

//---------------dance-single - ----------------
#NOTEDATA:;
#CHARTNAME:;
#CHARTHASH:1895613937:
#STEPSTYPE:dance-single;
#BANNER:;
#DESCRIPTION:;
#CHARTSTYLE:;
#DIFFICULTY:Beginner;
#METER:3;
#METERF:0.000000;
#RADARVALUES:0.144379,0.195938,0.029725,0.019817,0.000000,102.000000,99.000000,3.000000,2.000000,0.000000,0.000000,0.000000,0.000000,0.000000,0.144379,0.195938,0.029725,0.019817,0.000000,102.000000,99.000000,3.000000,2.000000,0.000000,0.000000,0.000000,0.000000,0.000000;
#CREDIT:;
#NOTES:
0000
0000
0000
0000
,
0000
0000
0000
0000
,
0000
0000
0000
0000
,
0000
0000
0000
0000
,
0001
0000
1000
0000
,
0001
0000
1000
0000
,
0010
0000
0100
0000
,
0010
0010
0010
0000
,
0100
0000
0100
0000
,
0001
0000
1000
0000
,
0010
0000
0010
0000
,
1000
0000
0001
0000
,
1000
0000
1000
0000
,
0100
0000
0010
0000
,
0001
0000
0001
0000
,
0100
0000
0010
0000
,
0010
0000
0100
0000
,
0001
0000
1000
0000
,
1000
0000
0001
0000
,
1000
0000
1001
0000
,
0001
0000
1000
0000
,
0010
0000
0100
0000
,
0100
0000
0010
0000
,
1000
0000
0001
0000
,
0000
0000
0000
0000
,
0010
0000
0100
0000
,
0010
0000
0100
0000
,
1000
0000
0001
0000
,
1000
1000
1000
0000
,
0001
0000
0000
0000
,
0100
0000
0000
0000
,
0010
0000
0000
0000
,
1000
0000
0000
0000
,
0100
0000
0000
0000
,
0010
0000
0000
0000
,
0001
0000
0000
0000
,
1000
0000
0000
0000
,
0001
0000
0010
0000
,
0001
0000
0010
0000
,
0100
0000
1000
0000
,
0001
0001
0001
0000
,
1000
0000
0010
0000
,
1000
0000
0010
0000
,
0100
0000
0001
0000
,
1000
1000
1000
0000
,
2002
0000
3003
0000
,
0001
0000
1000
0000
,
1000
0000
0001
0000
,
0010
0000
0100
0000
,
0010
0000
0110
0000
,
0100
0000
1000
0000
,
0001
0000
0001
0000
,
1000
0000
0010
0000
,
1000
0000
0001
0000
,
0100
0000
0010
0000
,
0100
0000
0010
0000
,
1000
0000
0001
0000
;

//---------------dance-single - ----------------
#NOTEDATA:;
#CHARTNAME:;
#CHARTHASH:2147483647:
#STEPSTYPE:dance-single;
#BANNER:;
#DESCRIPTION:;
#CHARTSTYLE:;
#DIFFICULTY:Easy;
#METER:6;
#METERF:0.000000;
#RADARVALUES:0.284511,0.341838,0.188259,0.178350,0.000000,201.000000,182.000000,19.000000,18.000000,0.000000,0.000000,0.000000,0.000000,0.000000,0.284511,0.341838,0.188259,0.178350,0.000000,201.000000,182.000000,19.000000,18.000000,0.000000,0.000000,0.000000,0.000000,0.000000;
#CREDIT:;
#NOTES:
0000
0000
0000
0000
,
0000
0000
0000
0000
,
0000
0000
0000
0000
,
0000
0000
0000
0000
,
1000
0000
0001
0001
,
0100
0000
0010
0010
,
1000
0000
0100
0100
,
0000
1000
0001
0000
,
0001
1000
1001
0000
,
0010
0100
0110
0000
,
1000
0100
0010
0001
,
2000
0000
3001
0000
,
0010
1000
1001
0000
,
0001
0100
0110
0000
,
0010
0100
0001
1000
,
0100
0010
0001
1000
,
1001
0001
1000
1000
,
0001
0010
0001
0100
,
1000
0100
0001
0010
,
1000
0010
0110
1001
,
0110
0100
0001
0001
,
0100
0010
1000
0100
,
0001
0100
1000
0001
,
0010
0001
1000
1001
,
0000
0000
0000
0000
,
0100
0010
1000
0000
,
0100
0010
0001
0000
,
1000
0001
0100
0000
,
0010
0100
0010
0000
,
2000
0000
3002
0000
,
0023
0000
0230
0000
,
1300
1000
0001
0001
,
0100
0100
0010
0010
,
0200
0000
0302
0000
,
2003
0000
3020
0000
,
0031
0001
0010
0010
,
1000
1000
0100
0100
,
0010
0001
2000
3001
,
0001
0100
0020
0130
,
0100
0001
2000
3001
,
0001
1000
0200
1300
,
1000
0100
0020
0130
,
0100
0010
0002
0013
,
0010
0001
0200
0301
,
0001
0010
2000
3010
,
0200
0000
0310
0000
,
1001
0010
0100
0100
,
0010
1000
0100
0001
,
1000
0001
0100
1000
,
0001
1000
0110
1001
,
0110
0001
1000
1000
,
0001
0010
0001
1000
,
0010
0100
0001
1000
,
0100
0010
0100
1001
,
0110
0000
0100
0010
,
1001
0000
0001
1000
,
0110
0000
0100
0010
,
0000
1001
0110
0000
;

//---------------dance-single - ----------------
#NOTEDATA:;
#CHARTNAME:;
#CHARTHASH:2147483647:
#STEPSTYPE:dance-single;
#BANNER:;
#DESCRIPTION:;
#CHARTSTYLE:;
#DIFFICULTY:Medium;
#METER:10;
#METERF:0.000000;
#RADARVALUES:0.469939,0.484270,0.138717,0.069358,0.000000,332.000000,318.000000,14.000000,7.000000,0.000000,0.000000,0.000000,0.000000,0.000000,0.469939,0.484270,0.138717,0.069358,0.000000,332.000000,318.000000,14.000000,7.000000,0.000000,0.000000,0.000000,0.000000,0.000000;
#CREDIT:;
#NOTES:
0000
0000
0000
0000
,
0000
0000
0000
0000
,
0000
0000
0000
0000
,
0000
0000
0000
0000
,
0010
0000
0001
1000
0100
0000
0100
0000
,
1000
0000
0010
0100
0001
0000
0001
0000
,
0100
0000
0001
1000
0010
0000
0010
0000
,
0100
0001
1000
0001
1000
0000
0010
0100
,
0001
0000
0010
0100
1000
0000
0010
0100
,
0001
1000
0100
0010
0001
0000
1000
0001
,
0000
1000
0000
1000
0000
0001
1000
0001
,
2000
0000
0100
0000
3010
0000
0001
0100
,
0010
0000
1000
0100
0010
0000
0001
0100
,
0010
1000
0001
0010
0100
0000
1000
0001
,
0000
0001
0000
0001
0000
1000
0001
1000
,
0001
0000
1000
0000
0100
0010
0100
0000
,
1001
0000
0010
0001
1000
0000
0100
1000
,
0001
0000
1000
0100
0010
1000
0010
0001
,
1000
0000
0010
0001
0010
0100
0010
1000
,
0100
0001
0100
0010
0110
0000
1001
0000
,
0110
0000
0001
1000
0100
0000
0100
0010
,
0001
0000
0001
0010
1000
0010
0001
0100
,
1000
0000
0100
0001
0100
0010
0100
1000
,
0100
0000
0001
1000
0100
0000
0020
0002
,
0000
0000
0000
0033
,
0100
0000
0100
1000
0001
0000
0010
0000
,
0001
0000
0001
0100
0010
0000
1000
0000
,
0010
0000
0010
0100
0001
0000
1000
0000
,
0000
0100
0010
0010
0100
0000
0001
0000
,
0100
1000
0001
0100
0020
0000
0130
0001
,
2000
0000
3100
0010
0002
0000
0103
0020
,
0000
1000
0000
1030
0000
0100
0001
0001
,
0100
0000
0010
0000
1000
0000
0001
0100
,
0001
0010
0001
1000
0001
0000
1000
0010
,
1000
0100
1000
0001
1000
0000
0001
1000
,
1000
0001
0001
1000
1000
0010
0010
0100
,
0100
0000
0001
0000
1000
0000
0010
1000
,
0100
0001
0100
1000
0000
0001
0100
1000
,
0100
0001
0010
1000
0000
0001
0100
1000
,
0001
0100
1000
0100
0000
0010
1000
0100
,
0010
0001
0100
0010
0000
1000
0001
0100
,
0010
1000
0010
0100
0000
0001
0010
0001
,
1000
0001
0100
0001
0000
1000
0010
0100
,
0001
1000
0100
0010
0000
0001
0100
1000
,
0100
0010
1000
0001
0000
0010
0100
0010
,
0000
0001
1000
1000
0001
0000
0000
0000
,
0110
0000
0001
0100
1000
0000
0100
0010
,
1000
0000
0100
0010
0001
1000
0010
0100
,
0001
0000
0010
0001
0100
1000
0100
0001
,
0010
0001
1000
0100
0011
0000
1100
0000
,
1001
0000
0010
0100
0001
0000
0010
0100
,
1000
0000
0001
0100
1000
0100
0010
0001
,
0010
0000
1000
0100
0001
0100
1000
0010
,
0001
0000
1000
0100
0001
0000
1000
0001
,
1001
0000
0000
0001
1000
0000
0110
0000
,
1001
0000
0000
1000
0001
0000
1001
0000
,
0110
0000
0000
0010
0100
0000
1001
0000
,
0000
0100
0010
1000
0001
0000
0000
0000
;

//---------------dance-single - ----------------
#NOTEDATA:;
#CHARTNAME:;
#CHARTHASH:1189371150:
#STEPSTYPE:dance-single;
#BANNER:;
#DESCRIPTION:;
#CHARTSTYLE:;
#DIFFICULTY:Hard;
#METER:12;
#METERF:0.000000;
#RADARVALUES:0.533635,0.569730,0.208075,0.178350,0.089175,377.000000,356.000000,21.000000,18.000000,0.000000,0.000000,0.000000,0.000000,0.000000,0.533635,0.569730,0.208075,0.178350,0.089175,377.000000,356.000000,21.000000,18.000000,0.000000,0.000000,0.000000,0.000000,0.000000;
#CREDIT:;
#NOTES:
0000
0000
0000
0000
,
0000
0000
0000
0000
,
0000
0000
0000
0000
,
0000
0000
0000
0000
,
0001
0000
0000
0000
0010
0000
0100
0000
1000
0100
0010
0000
0001
0000
1000
0000
,
0010
0000
0000
0000
0100
0000
0001
0000
1000
0001
0100
0000
0010
0000
0100
0000
,
1001
0000
0000
0000
0100
0000
0010
0000
1000
0001
1000
0000
0010
0000
0100
0000
,
1001
0001
1000
1000
0001
0100
0010
1000
,
0101
0000
0010
0001
1100
0000
0010
1000
,
0001
0100
0010
0100
1001
0000
0100
0020
,
0000
1000
0000
0031
0000
1000
0001
0001
,
1000
0000
0100
0000
0010
0000
0000
0001
0000
0000
1000
0000
0010
0000
0100
0000
,
0001
0000
1000
0001
0010
0000
0100
0010
,
0001
1000
0010
0100
0001
0000
1000
0200
,
0000
0001
0000
0310
0000
1000
0001
0001
,
1000
0000
0010
0000
0001
0000
0000
1000
0000
0000
0100
0000
0001
0000
0000
0000
,
0011
0000
0001
0010
1100
0000
0001
0100
,
1010
0000
0001
0100
1000
0001
0010
1000
,
0001
0000
0100
0010
1000
0100
0010
1000
,
0010
0100
1000
0010
0101
0000
0110
0000
,
1010
0000
0001
0100
0011
0000
1000
0100
,
1010
0000
0100
0001
0010
0100
1000
0010
,
0001
0000
0001
0010
1000
0001
0010
1000
,
0001
0000
0100
1000
0010
0000
0100
0001
,
1000
0000
0100
0000
0010
0000
0001
0100
0001
0100
0001
0000
1000
0100
1000
0000
,
0001
0000
1000
0000
0100
0000
0000
1000
0000
0000
0001
0000
0010
0000
0000
0001
,
0000
0000
1000
0000
0010
0000
0000
1000
0000
0000
0001
0000
0100
0000
0000
0001
,
0000
0000
0010
0000
0001
0000
0000
0100
0000
0000
0010
0000
1000
0000
0000
0100
,
0000
0000
0001
0000
0100
0000
0000
1000
0000
0000
0010
0000
0001
0000
0010
0000
,
1000
0100
0001
0100
2000
0000
3001
0100
,
2000
0000
3001
0010
2000
0000
3001
0200
,
0000
0010
0000
1300
0000
0100
0001
0001
,
0020
0000
1030
0020
0000
0000
0031
0100
,
1000
0100
0010
1000
0001
0000
0001
1000
,
0100
0001
0100
0010
0001
0000
1000
0010
,
0010
0100
0100
0001
0001
1000
1000
0100
,
0200
0000
1300
0200
0000
0000
0301
0100
,
1000
0010
0001
0020
0000
0130
0001
1000
,
0100
0001
1000
0002
0000
0013
0001
1000
,
0010
0001
0100
2000
0000
3001
0010
0100
,
1000
0010
0001
0200
0000
1300
0100
0001
,
0010
0100
0001
0020
0000
0130
1000
0010
,
0001
1000
0010
0200
0000
0301
0010
0100
,
1000
0010
0001
0200
0000
0310
1000
0100
,
0010
1000
0100
0001
0000
0001
0010
2000
,
0000
3001
0100
1000
0010
0000
0000
0000
,
1001
0000
0010
0100
1001
0000
0100
0010
,
1001
0000
0001
0100
0010
0001
1000
0100
,
0010
0000
1000
0100
0001
1000
0001
0100
,
1000
0001
1000
0010
0101
0000
1010
0000
,
0110
0000
0001
1000
0110
0000
1000
0001
,
0110
0000
1000
0100
0010
1000
0001
0100
,
0010
0000
0001
0010
1000
0001
1000
0010
,
0001
0000
1000
0010
0001
0000
1000
0100
,
0001
0000
0000
1000
0100
0000
0010
0000
0000
0000
0100
0000
1000
0000
0001
0000
,
0100
0000
0000
0010
1000
0000
0001
0000
0000
0000
1000
0000
0010
0000
0100
0000
,
0010
0000
0000
1000
0001
0000
0100
0000
0000
0000
0001
0000
1000
0000
0010
0000
,
0000
1000
0001
0001
1000
0000
0000
0000
;

//---------------dance-double - ----------------
#NOTEDATA:;
#CHARTNAME:;
#CHARTHASH:1592882518:
#STEPSTYPE:dance-double;
#BANNER:;
#DESCRIPTION:;
#CHARTSTYLE:;
#DIFFICULTY:Easy;
#METER:6;
#METERF:0.000000;
#RADARVALUES:0.284511,0.341838,0.188259,0.178350,0.000000,201.000000,182.000000,19.000000,18.000000,0.000000,0.000000,0.000000,0.000000,0.000000,0.284511,0.341838,0.188259,0.178350,0.000000,201.000000,182.000000,19.000000,18.000000,0.000000,0.000000,0.000000,0.000000,0.000000;
#CREDIT:;
#NOTES:
00000000
00000000
00000000
00000000
,
00000000
00000000
00000000
00000000
,
00000000
00000000
00000000
00000000
,
00000000
00000000
00000000
00000000
,
10000000
00000000
00010000
00010000
,
01000000
00000000
00001000
00001000
,
00010000
00000000
00000100
00000100
,
00000000
00001000
00000001
00000000
,
00000010
00000100
00000110
00000000
,
00000001
00001000
00001001
00000000
,
00000001
00000100
00000010
00010000
,
00002000
00000000
00013000
00000000
,
00100000
00010000
10010000
00000000
,
10000000
01000000
01100000
00000000
,
00100000
01000000
00010000
10000000
,
01000000
00100000
00010000
10000000
,
10010000
10000000
00010000
00010000
,
10000000
00100000
10000000
01000000
,
00010000
00001000
00000100
00000010
,
00001000
00000100
00001001
00000110
,
00001001
00000100
00000010
00000010
,
00000100
00000010
00000001
00000100
,
00001000
01000000
00010000
10000000
,
01000000
00100000
00010000
10010000
,
00000000
00000000
00000000
00000000
,
01000000
00100000
00001000
00000000
,
00010000
00000100
00001000
00000000
,
00000001
00001000
00000010
00000000
,
00000100
00000010
00000100
00000000
,
00000002
00000000
00002003
00000000
,
00003200
00000000
00000320
00000000
,
00001030
00001000
00010000
00010000
,
01000000
01000000
10000000
10000000
,
00200000
00000000
02300000
00000000
,
03020000
00000000
20030000
00000000
,
30010000
00010000
00100000
00100000
,
00001000
00001000
00010000
00010000
,
00000010
00001000
00000002
00001003
,
00001000
00000100
00020000
00031000
,
00001000
00010000
00002000
01003000
,
01000000
00010000
20000000
30010000
,
00010000
01000000
00200000
01300000
,
01000000
00100000
00020000
00031000
,
00001000
00010000
00002000
00003100
,
00000100
00000010
00002000
00003010
,
00000200
00000000
00000310
00000000
,
00001001
00000010
00000100
00000100
,
00000010
00000001
00000100
00001000
,
00010000
00001000
01000000
00010000
,
00100000
01000000
10010000
01100000
,
10010000
00010000
10000000
10000000
,
00010000
00100000
00001000
00010000
,
00000010
00001000
00000100
00010000
,
00001000
01000000
00010000
10010000
,
01100000
00000000
01000000
00100000
,
10010000
00000000
00001000
00010000
,
00011000
00000000
00000100
00000010
,
00000000
00001001
00000110
00000000
;

//---------------dance-double - ----------------
#NOTEDATA:;
#CHARTNAME:;
#CHARTHASH:2147483647:
#STEPSTYPE:dance-double;
#BANNER:;
#DESCRIPTION:;
#CHARTSTYLE:;
#DIFFICULTY:Medium;
#METER:10;
#METERF:0.000000;
#RADARVALUES:0.469939,0.484270,0.138717,0.069358,0.000000,332.000000,318.000000,14.000000,7.000000,0.000000,0.000000,0.000000,0.000000,0.000000,0.469939,0.484270,0.138717,0.069358,0.000000,332.000000,318.000000,14.000000,7.000000,0.000000,0.000000,0.000000,0.000000,0.000000;
#CREDIT:;
#NOTES:
00000000
00000000
00000000
00000000
,
00000000
00000000
00000000
00000000
,
00000000
00000000
00000000
00000000
,
00000000
00000000
00000000
00000000
,
00000010
00000000
00000001
00001000
00000100
00000000
00000100
00000000
,
00010000
00000000
00000010
00000100
00001000
00000000
00001000
00000000
,
01000000
00000000
00010000
10000000
00100000
00000000
00100000
00000000
,
01000000
00010000
10000000
00010000
10000000
00000000
00100000
01000000
,
00010000
00000000
00100000
01000000
10000000
00000000
00100000
01000000
,
00001000
00010000
00000100
00000010
00000001
00000000
00001000
00000001
,
00000000
00001000
00000000
00001000
00000000
00000001
00001000
00000001
,
00002000
00000000
00000100
00000000
00003010
00000000
00000001
00000100
,
00000010
00000000
00001000
00000100
00000010
00000000
00000001
00000100
,
00000010
00010000
00001000
00100000
01000000
00000000
10000000
00010000
,
00000000
00010000
00000000
00010000
00000000
10000000
00010000
10000000
,
00010000
00000000
10000000
00000000
01000000
00100000
01000000
00000000
,
10010000
00000000
00100000
00001000
00010000
00000000
00000100
00010000
,
00001000
00000000
00000010
00000100
00000010
00001000
00000010
00000001
,
00001000
00000000
00000010
00000001
00000010
00001000
00000100
00010000
,
00001000
00100000
00010000
10000000
10010000
00000000
01100000
00000000
,
10010000
00000000
00010000
10000000
01000000
00000000
01000000
00100000
,
00001000
00000000
00010000
00100000
10000000
00100000
00010000
00001000
,
00000010
00000000
00000100
00001000
00000100
00000010
00000100
00000001
,
00000100
00000000
00001000
00000001
00000100
00000000
00000020
00002000
,
00000000
00000000
00000000
00003030
,
00000100
00000000
00000100
00000001
00001000
00000000
00000010
00000000
,
00010000
00000000
00010000
00001000
00100000
00000000
01000000
00000000
,
00100000
00000000
00100000
00001000
01000000
00000000
00010000
00000000
,
00000000
01000000
00100000
00100000
01000000
00000000
10000000
00000000
,
01000000
00010000
10000000
01000000
00200000
00000000
01300000
00010000
,
00002000
00000000
00003100
00001000
00020000
00000000
01030000
00200000
,
00000000
10000000
00000000
10300000
00000000
01000000
00010000
00010000
,
01000000
00000000
00010000
00000000
00001000
00000000
00010000
00000100
,
00010000
00000010
00010000
00001000
00010000
00000000
00001000
00000010
,
00001000
00010000
00001000
00000100
00001000
00000000
00010000
00001000
,
00001000
00010000
00010000
00000100
00000100
00001000
00001000
00000001
,
00000001
00000000
00001000
00000000
00000100
00000000
00000010
00000001
,
00000100
00001000
00000100
00000001
00000000
00000010
00001000
00010000
,
01000000
10000000
00100000
00010000
00000000
10000000
01000000
00010000
,
10000000
01000000
00010000
01000000
00000000
00100000
00001000
00010000
,
00000100
00001000
00000010
00000100
00000000
00000001
00001000
00000100
,
00000010
00000001
00000010
00000100
00000000
00010000
00001000
00010000
,
00000010
00010000
00000100
00010000
00000000
00001000
00100000
00010000
,
01000000
00100000
10000000
00010000
00000000
10000000
01000000
00010000
,
01000000
00100000
00010000
10000000
00000000
00100000
01000000
00100000
,
00000000
10000000
00010000
00010000
10000000
00000000
00000000
00000000
,
01100000
00000000
10000000
01000000
00010000
00000000
01000000
00100000
,
00010000
00000000
00100000
00001000
00010000
00000100
00000010
00000001
,
00001000
00000000
00000010
00001000
00000100
00000001
00000100
00010000
,
00001000
00100000
01000000
10000000
00110000
00000000
11000000
00000000
,
10010000
00000000
00100000
01000000
00010000
00000000
00100000
01000000
,
10000000
00000000
00010000
01000000
10000000
01000000
00100000
00010000
,
00001000
00000000
00010000
00001000
00000100
00000010
00000001
00000010
,
00001000
00000000
00000001
00000100
00001000
00000000
00000100
00000010
,
00000110
00000000
00000000
00000001
00001000
00000000
00000110
00000000
,
00001001
00000000
00000000
00010000
00001000
00000000
00011000
00000000
,
01100000
00000000
00000000
00100000
01000000
00000000
10010000
00000000
,
00000000
01000000
00100000
10000000
00010000
00000000
00000000
00000000
;

//---------------dance-double - ----------------
#NOTEDATA:;
#CHARTNAME:;
#CHARTHASH:234970570:
#STEPSTYPE:dance-double;
#BANNER:;
#DESCRIPTION:;
#CHARTSTYLE:;
#DIFFICULTY:Hard;
#METER:12;
#METERF:0.000000;
#RADARVALUES:0.522311,0.541243,0.138717,0.208075,0.089175,369.000000,355.000000,14.000000,21.000000,0.000000,0.000000,0.000000,0.000000,0.000000,0.522311,0.541243,0.138717,0.208075,0.089175,369.000000,355.000000,14.000000,21.000000,0.000000,0.000000,0.000000,0.000000,0.000000;
#CREDIT:;
#NOTES:
// measure 0
00000000
00000000
00000000
00000000
,  // measure 1
00000000
00000000
00000000
00000000
,  // measure 2
00000000
00000000
00000000
00000000
,  // measure 3
00000000
00000000
00000000
00000000
,  // measure 4
00000001
00000000
00000000
00000000
00000010
00000000
00000100
00000000
00001000
00000100
00001000
00000000
00000100
00000000
00010000
00000000
,  // measure 5
00001000
00000000
00000000
00000000
00100000
00000000
00001000
00000000
00010000
00001000
00010000
00000000
00001000
00000000
01000000
00000000
,  // measure 6
00100000
00000000
00000000
00000000
10000000
00000000
00010000
00000000
00100000
01000000
00100000
00000000
00010000
00000000
10000000
00000000
,  // measure 7
00000000
00010000
10000000
10000000
00010000
01000000
00100000
10000000
,  // measure 8
01010000
00000000
00100000
00010000
11000000
00000000
00100000
10000000
,  // measure 9
00010000
01000000
00001000
00100000
00010000
00000000
01000000
00002000
,  // measure 10
00000000
00010000
00000000
00003100
00000000
00000001
00001000
00001000
,  // measure 11
00000001
00000000
00000100
00000000
00000010
00000000
00000000
00001000
00000000
00000000
00000001
00000000
00000010
00000000
00000100
00000000
,  // measure 12
00001000
00000000
00000001
00001000
00000010
00000000
00000100
00000010
,  // measure 13
00010000
00001000
00100000
01000000
10000000
00000000
00010000
02000000
,  // measure 14
00000000
10000000
00000000
03100000
00000000
00010000
10000000
10000000
,  // measure 15
00010000
00000000
00100000
00000000
00010000
00000000
00000000
10000000
00000000
00000000
01000000
00000000
00010000
00000000
00000000
00000000
,  // measure 16
00011000
00000000
00010000
00001000
00100000
00000000
00001000
00010000
,  // measure 17
00000100
00000000
00001000
00000100
00000001
00001000
00000010
00000001
,  // measure 18
00001000
00000000
00000001
00000100
00000010
00000001
00000010
00001000
,  // measure 19
00000100
00010000
00001000
00100000
00011000
00000000
01010000
00000000
,  // measure 20
10100000
00000000
00010000
01000000
00100000
00000000
10000000
01000000
,  // measure 21
00100000
00000000
00001000
00010000
01000000
00100000
00001000
00010000
,  // measure 22
00000010
00000000
00000001
00000010
00001000
00000001
00000010
00001000
,  // measure 23
00010000
00000000
00000100
00010000
00000010
00000000
00010000
00001000
,  // measure 24
00100000
00000000
00010000
00000000
01000000
00000000
00001000
00010000
00001000
00010000
00001000
00000000
00010000
00001000
00010000
00000000
,  // measure 25
00000100
00000000
00001000
00000000
00000010
00000000
00000000
00000100
00000000
00000000
00000001
00000000
00001000
00000000
00000000
00000010
,  // measure 26
00000000
00000000
00000100
00000000
00000001
00000000
00000000
00001000
00000000
00000000
00000100
00000000
00010000
00000000
00000000
00001000
,  // measure 27
00000000
00000000
00100000
00000000
00010000
00000000
00000000
01000000
00000000
00000000
00100000
00000000
10000000
00000000
00000000
01000000
,  // measure 28
00000000
00000000
00010000
00000000
01000000
00000000
00000000
10000000
00000000
00000000
00100000
00000000
00010000
00000000
00001000
00000000
,  // measure 29
00000100
00000010
00000100
00001000
00020000
00000000
01030000
00010000
,  // measure 30
00002000
00000000
00003010
00001000
00020000
00000000
00130000
00020000
,  // measure 31
00000000
00001000
00000000
00030100
00000000
00001000
00000001
00000001
,  // measure 32
00002000
00000000
00003010
00002000
00000000
00000000
00003100
00010000
,  // measure 33
00000010
00001000
00000100
00010000
00002000
00000000
00103000
00010000
,  // measure 34
01000000
00001000
00010000
00000100
00002000
00000000
00003010
00000100
,  // measure 35
00000100
00000001
00000001
00000010
00000010
00001000
00001000
00010000
,  // measure 36
00020000
00000000
00030100
00020000
00000000
00000000
00030010
00001000
,  // measure 37
00000001
00000100
00001000
00020000
00000000
01030000
00100000
00001000
,  // measure 38
00010000
00000010
00000100
00002000
00000000
00013000
00100000
01000000
,  // measure 39
00010000
00100000
00001000
00020000
00000000
01030000
10000000
00100000
,  // measure 40
00010000
00001000
00000010
00000002
00000000
00001003
00000100
00000001
,  // measure 41
00001000
00000010
00000100
00020000
00000000
00030010
00001000
00000100
,  // measure 42
00010000
00001000
00100000
00020000
00000000
10030000
00100000
00010000
,  // measure 43
00001000
01000000
00010000
00200000
00000000
00301000
00010000
00000100
,  // measure 44
00001000
00000001
00000010
00002000
00000000
00013000
00100000
20000000
,  // measure 45
00000000
31000000
00010000
00001000
00000010
00000000
00000000
00000000
,  // measure 46
00001001
00000000
00000010
00000100
00001001
00000000
00000100
00000010
,  // measure 47
00001001
00000000
00000010
00010000
00001000
01000000
00001000
00010000
,  // measure 48
00000010
00000000
00010000
00000100
00000010
00001000
00010000
01000000
,  // measure 49
00100000
00001000
00010000
00000100
00001100
00000000
00011000
00000000
,  // measure 50
00110000
00000000
10000000
00010000
01100000
00000000
00010000
10000000
,  // measure 51
01100000
00000000
00010000
00100000
00001000
00010000
00000100
00001000
,  // measure 52
00000001
00000000
00000010
00001000
00010000
00000010
00001000
00000100
,  // measure 53
00010000
00000000
00001000
00100000
00010000
00000000
10000000
01000000
,  // measure 54
00010000
00000000
00000000
01000000
10000000
00000000
00100000
00000000
00000000
00000000
10000000
00000000
01000000
00000000
00010000
00000000
,  // measure 55
00001000
00000000
00000000
01000000
00010000
00000000
00100000
00000000
00000000
00000000
00001000
00000000
00010000
00000000
00000100
00000000
,  // measure 56
00000010
00000000
00000000
00000001
00001000
00000000
00000100
00000000
00000000
00000000
00001000
00000000
00000001
00000000
00000010
00000000
,  // measure 57
00000000
00001000
00010000
00010000
00001000
00000000
00000000
00000000
;

//---------------dance-single - ----------------
#NOTEDATA:;
#CHARTNAME:;
#CHARTHASH:0:
#STEPSTYPE:dance-single;
#BANNER:;
#DESCRIPTION:;
#CHARTSTYLE:;
#DIFFICULTY:Challenge;
#METER:14;
#METERF:0.000000;
#RADARVALUES:0.719063,0.769135,0.535051,0.059450,0.287342,508.000000,454.000000,54.000000,6.000000,0.000000,0.000000,0.000000,0.000000,0.000000,0.719063,0.769135,0.535051,0.059450,0.287342,508.000000,454.000000,54.000000,6.000000,0.000000,0.000000,0.000000,0.000000,0.000000;
#CREDIT:;
#NOTES:
0000
0000
0000
0000
,
0000
0000
0000
0000
,
0000
0000
0000
0000
,
0000
0000
0000
0000
,
1001
0000
0100
0000
0010
0000
1000
0100
0010
0001
0100
0000
0010
0000
1000
0000
,
0001
0000
0010
0000
0100
0000
1000
0001
0010
0100
1000
0000
0010
0000
0100
0000
,
0001
0000
1000
0000
0100
0000
0010
1000
0010
0001
0100
0000
0010
0000
1000
0000
,
0001
0101
1000
1100
1001
0100
0010
1000
,
0002
0103
0010
1000
1100
0100
1000
0001
,
0010
0010
0001
0100
0110
0010
1000
0001
,
0000
0000
0010
0000
0100
0000
1000
0010
0000
1000
0001
0000
0001
0000
0100
0000
,
0000
0000
0010
0000
1000
0000
0100
0010
0000
0001
1000
0000
0001
0000
0100
0000
,
0020
1030
0100
0010
0011
0001
1000
0010
,
1000
1000
0100
0010
0011
0001
0100
0010
,
0000
1000
0001
0000
0010
0000
0100
1000
0000
1000
0001
0000
0010
0000
0100
0000
,
0000
1000
0001
0000
0001
0000
0010
0100
0000
0100
1000
0000
1010
0000
0000
0000
,
0011
0000
0000
0100
0010
0000
1000
0000
1100
0000
0100
0000
0010
0000
0001
0000
,
0101
0001
1000
0010
1000
0100
0010
0001
,
0100
0010
0000
0010
1000
0000
0001
0000
0100
0000
0100
0000
0010
0000
1000
0000
,
0001
0000
0001
0000
0001
0000
0100
0000
0010
1000
0010
0100
0001
0000
0000
0000
,
1001
0000
0000
1000
0010
0000
0100
0000
0110
0000
0010
0000
1000
0000
0001
0000
,
0011
0000
0100
0000
0001
0000
1000
0000
0010
0100
0010
0000
1000
0000
0001
0000
,
0101
0000
0000
1000
0001
0000
0010
0000
0001
0000
0100
0000
0010
0000
1000
0000
,
0100
0000
0100
0000
0010
0000
0001
0000
1000
0100
1000
0000
1100
0000
0101
0000
,
0000
0000
0010
0000
0010
0000
0001
0100
0000
0001
1000
0000
1000
0100
0010
0001
,
0100
0000
0010
0000
1000
0000
0001
0010
1000
0010
0001
0000
0100
0000
0000
0000
,
0010
0000
1000
0000
0001
0000
1000
0100
0001
0100
0010
0000
0001
0000
0000
0000
,
0100
0000
0001
0000
1000
0000
0100
0010
0001
1000
0001
0000
0100
0000
0000
0000
,
0010
1010
0001
0011
1001
0100
0010
1000
,
0001
0001
0001
0100
0110
0010
1000
0001
,
1000
1000
1000
0010
1010
0100
0110
1001
,
0000
1000
0100
0010
0001
0011
1000
1100
,
1002
0000
0203
0310
0000
0000
1000
0001
,
0010
0001
0100
0010
0001
0010
1000
0100
,
0001
0100
0010
0100
1000
0010
0110
1001
,
1000
0001
0010
0100
1000
1010
0001
0101
,
0120
0000
2030
3100
0000
0010
0011
0100
,
0001
0100
0010
0100
1000
0100
0010
1000
,
0100
0001
0100
0010
0001
0100
0010
0001
,
0010
0100
0010
0001
0010
1000
0001
1000
,
0100
0010
0001
0100
0010
1000
0100
0001
,
0100
1000
0100
0010
0001
0100
1000
0100
,
1000
0100
0010
0100
1000
0100
0001
0010
,
1000
0010
0100
0001
0100
0010
0001
0100
,
0010
0001
0010
1000
0100
0010
0001
0100
,
0000
0000
0101
0000
1100
0000
0101
0000
1100
0000
0001
1000
0000
0001
1000
0000
,
1001
0000
0000
0001
0010
0000
0100
0000
1100
0000
0010
0000
1000
0000
0001
0000
,
0011
0000
0100
0000
0010
0000
1000
0000
0001
0010
0100
0000
1000
0000
0001
0000
,
0110
0000
0000
0100
1000
0000
1000
0000
1000
0000
0010
0000
0100
0000
0001
0000
,
0010
0000
0010
0000
0010
0000
0010
0000
0001
0100
1000
0100
0001
0000
0000
0000
,
0101
0000
0000
0010
1000
0000
0100
0000
0110
0000
0001
0000
0100
0000
1000
0000
,
1010
0000
0001
0000
1000
0000
0100
0000
0010
0001
0010
0000
0001
0100
0010
0000
,
1001
0000
0000
0001
0010
0000
0010
0000
0010
0000
0100
0000
1000
0000
0001
0000
,
1010
0001
0010
0100
1100
0001
1001
0110
,
0010
1000
0010
1000
0010
0000
0100
1000
0100
0001
0100
0000
0010
0000
1000
0000
,
0100
0010
0100
0010
0100
0000
1000
0001
0010
0001
1000
0000
0100
0000
0001
0000
,
0100
1000
0100
1000
0100
0000
0010
0001
1000
0001
0010
0000
0100
0000
1000
0000
,
0000
1010
0101
1010
0101
0000
0000
0000
;
