#TITLE:Far east nightbird;
#ARTIST:猫叉Master;
#ARTISTTRANSLIT:Nekomata Master;
#BANNER:Far east nightbird.png;
#BACKGROUND:Far east nightbird-bg.png;
#JACKET:Far east nightbird-jacket.png;
#MUSIC:Far east nightbird.ogg;
#SAMPLESTART:87.633;
#SAMPLELENGTH:20;
#DISPLAYBPM:180;
#BPMS:0=180;
#BGCHANGES:;

//---------------dance-single - ----------------
#NOTES:
     dance-single:
     :
     Beginner:
     4:
     :
0000
0000
0000
0000
,
0000
0000
0000
0000
,
0000
0000
0000
0000
,
0000
0000
0000
0000
,
0001
0000
0000
0000
,
0010
0000
0100
0000
,
1000
0000
0000
0000
,
0001
0000
0000
0000
,
1000
0000
0000
0000
,
0010
0000
0100
0000
,
0001
0000
0000
0000
,
0010
0000
0000
0000
,
0100
0000
0000
0000
,
1000
0000
0000
0000
,
0001
0000
1000
0000
,
0010
0000
0000
0000
,
0100
0000
0000
0000
,
0001
0000
0000
0000
,
1000
0000
0001
0000
,
0010
0000
0000
0000
,
0100
0000
0000
0000
,
1000
0000
0000
0000
,
0001
0000
1000
0000
,
0010
0000
0000
0000
,
0100
0000
0000
0000
,
0001
0000
0000
0000
,
1000
0000
0001
0001
,
0001
0000
0000
0000
,
0010
0000
0000
0000
,
0100
0000
0000
0000
,
1000
0000
0001
0000
,
0000
0000
0000
0000
,
0100
0000
0001
0000
,
0000
0000
0000
0000
,
0000
0000
1000
1000
,
1000
0000
0000
0000
,
0010
0000
0000
0000
,
0100
0000
0000
0000
,
0001
0000
1000
0000
,
0000
0000
0000
0000
,
0100
0000
0000
0000
,
0010
0000
0000
0000
,
0000
0000
0000
0000
,
0001
0000
0000
0010
,
0000
0000
0000
0000
,
0100
0000
0000
1000
,
0000
0000
0000
0000
,
0010
0000
0000
0100
,
0000
0000
0000
0000
,
0001
0000
0000
0010
,
0000
0000
0000
0000
,
0100
0000
1000
0000
,
0010
0000
0000
0000
,
0100
0000
0001
0000
,
0010
0000
0000
0000
,
0100
0000
1000
0000
,
0010
0000
0000
0000
,
0100
0000
0001
0000
,
0010
0000
0000
0000
,
0100
0000
0000
0000
,
0000
0000
0000
0000
,
1000
0000
0000
0000
,
0001
0000
0000
0000
,
0010
0000
0000
0000
,
0100
0000
0000
0000
,
0000
0000
0000
0000
,
1000
0000
0000
0000
,
0001
0000
0000
0000
,
0100
0000
0000
0000
,
0001
0000
0001
0000
,
1000
0000
0000
0000
,
0001
0000
0000
0000
,
0100
0000
0000
0000
,
0001
0000
1000
0000
,
0001
0000
0000
0000
,
1000
0000
0000
0000
,
0100
0000
0000
0000
,
1000
0000
1000
0000
,
0001
0000
0000
0000
,
1000
0000
0000
0000
,
0100
0000
0000
0000
,
1000
0000
0001
0000
,
1000
0000
0000
0000
,
0001
0000
0000
0000
,
1000
0000
0000
1001
,
0000
0000
0000
0000
;

//---------------dance-single - ----------------
#NOTES:
     dance-single:
     :
     Easy:
     6:
     :
0000
0000
0000
0000
,
0000
0000
0000
0000
,
0000
0000
0000
0000
,
0000
0000
0000
0000
,
0001
0010
0000
0001
,
1000
0000
0001
0000
,
1000
0010
0000
1000
,
0001
0010
0000
0001
,
1000
0010
0000
1000
,
0001
1000
0001
1000
,
0100
0000
0000
0000
,
1000
0100
0010
0001
,
0000
0000
0100
0001
,
0001
0100
0010
1000
,
0000
0010
0100
0010
,
1000
0100
0010
0100
,
0000
0000
0100
0010
,
0001
0100
0010
1000
,
0000
0000
0100
1000
,
1001
0000
1000
0010
,
0000
0000
0100
0010
,
1000
0000
0010
0001
,
0001
0010
0100
1000
,
0001
0100
0010
1000
,
0000
0000
0100
0010
,
0001
0000
0100
0000
,
0010
0000
1000
0000
,
0001
0001
0000
1000
,
0100
0000
0000
0010
,
0001
0010
0000
0100
,
1000
0001
1000
0100
,
0000
0000
0000
1000
,
0001
0000
0010
0000
,
0100
0000
1000
0000
,
0001
0000
0100
0001
,
1000
1000
0000
0001
,
0100
0000
0000
0010
,
1000
0010
0000
0100
,
0001
1000
0001
0100
,
0001
0000
0000
0001
,
0001
0010
0000
1000
,
1000
0010
0000
0000
,
0001
0001
1000
0001
,
1000
1000
0000
0100
,
0100
0000
0010
0000
,
0001
0001
0000
0100
,
0100
0000
0010
0000
,
1000
1000
0000
0100
,
0100
0000
0010
0000
,
0001
0001
0000
0100
,
0100
0000
0001
0000
,
0001
0010
0100
1000
,
0010
0100
0001
0000
,
0001
0100
1000
0100
,
0001
0100
0001
0000
,
1000
0010
0100
0001
,
0010
0100
1000
0000
,
0001
0010
1000
0010
,
0001
0100
0001
0000
,
1001
0000
0000
0000
,
0000
0000
0000
0000
,
0001
0000
0010
0000
,
0100
0000
1000
0000
,
0010
0000
0100
0000
,
0001
0000
2000
0000
,
3001
0000
0000
0000
,
1000
0001
1000
0100
,
0000
1000
0100
1000
,
0001
0010
0100
1000
,
0000
0001
1000
0001
,
1001
0000
0110
0000
,
1001
1000
0100
0000
,
1000
1000
0100
0001
,
0001
0100
1000
0000
,
0001
1000
0001
0100
,
0000
0001
0100
0001
,
1000
0010
0100
0001
,
0000
1000
0001
1000
,
1001
0000
0110
0000
,
1001
0001
0100
0000
,
0001
0001
0100
1000
,
1000
0100
0100
0000
,
0001
0000
2000
0000
,
3200
0000
0320
0000
,
0032
0000
0000
1003
,
0000
0000
0000
0000
;

//---------------dance-single - ----------------
#NOTES:
     dance-single:
     :
     Medium:
     10:
     :
0000
0000
0000
0000
,
0000
0000
0000
0000
,
0000
0000
0000
0000
,
0000
0000
0000
0000
,
0001
0000
0010
0000
0000
0100
0010
0100
,
1000
1000
0010
0100
,
0001
0000
0010
0000
0000
0100
0010
0001
,
1000
0000
0010
0000
0000
0100
0010
1000
,
0001
0000
1000
0000
0000
0100
0010
0100
,
0010
0100
0010
0001
,
1001
0000
0000
0000
,
0001
0000
0100
0010
0100
0000
0001
0000
,
1100
0000
0100
0010
,
0001
0000
0100
0010
0100
0000
0001
0000
,
1000
0001
0000
0000
0010
0000
0100
0000
,
0100
1000
0000
1000
0000
0000
0100
1000
,
0001
0100
0010
0100
,
0001
0000
0010
0001
0100
0000
0000
0001
,
0000
1000
0000
0010
1000
0000
0100
0000
,
1000
0000
1000
0000
1000
0000
0100
0000
0000
1000
0000
0000
,
0001
0000
0100
0010
,
1000
0001
0100
0010
0100
0000
0001
0000
,
1000
0000
0000
1000
0010
0000
0100
0000
,
0001
1000
0100
0010
0100
0000
1000
0000
,
1000
0100
0010
0100
,
1000
0000
0010
1000
0100
0000
0000
1000
,
0000
0001
0000
0010
0001
0000
0100
0000
,
0001
0000
0001
0000
0001
0000
1000
0100
,
0000
0000
0100
0000
0100
0000
0010
0001
,
0000
0001
0001
0010
,
0100
0000
1000
0000
0010
1000
0010
0000
,
1000
0000
0100
0000
0001
0000
0100
1000
,
0100
0000
0010
0000
0100
0010
0001
0000
,
0100
0010
1000
0100
,
0001
0000
0000
0100
1000
0000
0001
0000
,
1000
0000
1000
0000
1000
0000
0001
0100
,
0000
0000
0100
0000
0100
0000
0010
1000
,
0000
0001
1000
0010
,
0100
0000
0001
0000
0010
0001
0010
0000
,
0001
0000
0100
0000
1000
0000
0100
0001
,
0000
0000
0010
0100
0000
0000
0010
0001
,
0100
0010
1000
0100
,
0001
0100
0000
1000
0000
0100
1000
0000
,
0001
0000
0001
0010
0000
0000
0100
0000
,
0100
1000
0000
0000
1000
0000
0010
0000
,
1000
0000
1000
0010
0000
0000
0100
0000
,
0100
0001
0000
0000
0010
0000
0100
0000
,
1000
0000
1000
0100
0000
0000
0010
0000
,
0010
0001
0000
0000
0001
0000
0100
0000
,
0001
0000
0001
0100
0000
0000
0010
0000
,
0010
1000
0000
0000
0001
0000
0100
0000
,
0001
0010
1000
0010
,
0001
0100
0001
0000
1000
0010
0000
0000
,
1000
0010
0100
0001
,
0010
0100
1000
0000
0100
1000
0010
0000
,
1000
0010
0001
0010
,
1000
0100
1000
0000
0100
0000
1000
0000
,
0001
0010
0100
1000
,
0010
0100
0001
0000
0100
0001
0010
0000
,
0011
0000
0000
0000
,
0000
0000
0000
0000
,
0012
0000
0013
0000
,
0120
0000
0130
0000
,
1200
0000
1300
0000
,
2010
0000
3010
0000
,
0011
0010
0110
0000
,
1000
0000
0010
0000
0100
0001
0010
0000
,
0000
0000
0001
0000
0010
1000
0010
0000
,
0001
0000
0010
0000
0100
1000
0010
0000
,
0000
0000
1000
0000
0010
0100
0001
0000
,
0012
0000
0000
1003
0000
0000
1010
0000
,
0000
1000
0010
0100
,
0001
0000
0010
0100
1000
0000
0001
0000
,
0010
0100
0010
0000
0001
0000
1000
0000
,
0001
0000
0010
0000
0100
1000
0010
0000
,
0000
0000
1000
0000
0010
0001
0010
0000
,
1000
0000
0010
0000
0100
0001
0010
0000
,
0000
0000
0000
0000
0000
0000
0010
0100
,
0110
0000
0000
1001
0000
0000
0011
0000
,
0000
0001
0010
0100
,
1000
0000
0010
0100
0001
0000
1000
0000
,
0010
0100
0010
0000
1000
0100
1000
0000
,
2000
0000
3010
0000
,
0120
0000
0130
0000
,
0101
0000
0000
1100
0000
0000
2002
0000
,
3003
0000
0000
0000
,
0000
0000
0000
0000
;

//---------------dance-single - ----------------
#NOTES:
     dance-single:
     :
     Hard:
     12:
     :
0000
0000
0000
0000
,
0000
0000
0000
0000
,
0000
0000
0000
0000
,
0000
0000
0000
0000
,
0001
0000
0010
0100
0000
0100
0010
0001
,
1000
0000
0010
0000
0100
0001
0010
0001
,
1000
0000
0010
1000
0000
1000
0010
1000
,
0001
0000
0010
0100
0000
0100
0010
0001
,
1000
0000
0010
0100
0000
0100
0010
1000
,
0002
0013
0200
1300
,
1001
0000
0000
0000
,
0001
0000
0000
0000
0100
0000
0001
0000
0010
0000
0000
0001
0000
0000
0100
0000
,
0001
0000
1000
0001
0100
0000
0010
0000
,
1000
0000
0000
0000
0100
0000
1000
0000
0010
0000
0000
0010
0000
0000
0100
0000
,
0001
0010
0000
0001
0010
0100
0010
0001
,
0010
0000
1000
0000
0010
0000
0100
0000
0010
0000
0000
0001
0000
0000
0100
0000
,
0000
0001
0000
1000
0010
0000
0101
0000
,
0001
0000
0000
0000
0100
0000
0001
0000
0010
0000
0000
0010
0000
0000
0100
0000
,
0000
1000
0000
0010
0001
0010
1000
0000
,
0010
0000
0000
0000
0000
0000
0000
0000
0100
0000
0000
0000
0000
0000
0000
0000
0101
0000
0000
0000
0000
0000
0000
0000
0001
0000
0000
0000
0000
0000
0000
0000
0000
0100
0000
0000
0000
0000
0000
0000
0000
0000
0001
0000
0000
0000
0000
0000
,
0100
0001
0000
1000
0100
0000
1100
0000
,
0001
0000
0010
0000
0001
0000
0100
0000
0010
0000
0000
1000
0000
0000
0100
0000
,
0000
1000
0001
1000
0100
1000
0010
0000
,
1000
0000
0010
0000
1000
0000
0100
0000
0010
0000
0000
0010
0000
0000
0100
0000
,
0000
1000
0000
0001
0100
0000
1100
0000
,
0001
0000
0000
0000
0100
0000
0001
0000
0100
0000
0000
0010
0000
0000
0100
0000
,
0000
0110
0000
0010
1000
0100
1000
0000
,
0001
0000
0010
0000
0100
0000
1000
0100
,
0001
0100
1000
0000
0010
0000
0100
0001
,
0100
1000
0100
0000
0001
0000
0010
0000
,
0100
0000
1000
0000
0010
1000
0010
0000
,
0100
0000
0001
0000
0010
0000
0001
1000
,
1000
0000
0010
0000
0100
0010
1000
0000
,
0100
0001
0100
1000
0100
0000
0001
0000
,
0100
1000
0000
0001
0010
1000
0010
0001
,
1000
0000
0100
0000
0010
0000
0001
0010
,
1000
0010
0001
0000
0100
0000
0010
1000
,
0010
0001
0010
0000
1000
0000
0100
0000
,
0010
0000
0001
0000
0100
0001
0100
0000
,
0010
0000
1001
0000
0100
0000
1000
0001
,
0100
0000
0001
1000
0100
0000
1001
0000
,
0010
1000
0010
0001
0010
0000
1000
0000
,
0010
1000
0000
1000
0100
0001
0100
1000
,
0001
1000
0001
0010
0000
0010
0100
1000
,
0100
1000
0000
1000
0100
0010
0001
0100
,
1000
0000
1000
0000
0100
0010
0100
0000
,
0100
0001
1000
0001
0000
0001
0010
0100
,
1000
0000
1000
0010
0000
0010
0100
0000
,
0100
0001
0000
0001
0010
0100
1000
0010
,
1000
0000
1000
0010
0000
0010
0100
0000
,
0100
0001
0000
0001
0000
0001
0010
0100
,
1000
0010
0100
0001
1000
0100
1000
0010
,
0100
0001
1000
0100
1000
0010
0000
0000
,
0000
0000
0100
0000
0000
0010
0000
0000
1000
0000
0010
0000
0100
0000
0010
0000
,
1000
0100
0001
0100
1000
0001
0010
0001
,
0000
0001
0010
0100
1000
0010
0100
0001
,
0010
0100
1000
0010
0100
0001
0000
0000
,
0000
0000
0010
0000
0000
0100
0000
0000
1000
0000
0010
0000
0100
0000
0010
0000
,
1000
0100
0001
0100
1000
0001
0010
0000
,
1001
0000
0000
0000
,
0000
0000
0000
0000
,
0001
0010
0001
0010
0100
0010
,
0100
1000
0100
1000
0010
0100
,
0001
0010
0001
0010
0100
0010
,
0100
1000
0100
1000
0010
0100
,
0201
0301
0011
0000
,
1000
0000
0010
0000
0100
0001
0100
0000
,
0000
0000
0001
0010
0100
1000
0010
0100
,
0001
0000
0010
0000
0100
1000
0100
0000
,
0000
0000
1000
0010
0100
0001
0100
0000
,
0012
0000
0000
1003
0000
0000
1010
0000
,
0000
0000
1000
0010
0100
0001
0010
0001
,
1000
0010
0001
0010
1000
0100
0001
0100
,
1000
0100
0010
0001
0100
0001
1000
0100
,
0100
0000
0010
0000
0100
1000
0100
0000
,
0000
0000
1000
0010
0100
0001
0010
0100
,
1000
0000
0010
0000
0100
0001
0200
0000
,
0010
0000
0301
0000
1000
0000
0010
1000
,
2010
0000
0000
3001
0000
0000
0011
0000
,
0000
0000
0001
0010
0100
1000
0010
1000
,
0001
0010
1000
0010
0001
0100
1000
0100
,
0001
0100
0010
1000
0100
1000
0001
0100
,
1000
0100
0001
0010
0100
0010
,
0100
1000
0100
1000
0010
1000
,
0011
0000
0000
1100
0000
0000
2002
0000
,
3003
0000
0000
0000
,
0000
0000
0000
0000
;

//---------------dance-single - ----------------
#NOTES:
     dance-single:
     :
     Challenge:
     16:
     :
0000
0000
0000
0000
,
0000
0000
0000
0000
,
0000
0000
0000
0000
,
0000
0000
0000
0000
,
1001
0000
0100
0010
1000
0001
1000
0100
,
1010
0000
0001
0000
0100
0000
0100
0000
0000
0010
1000
0000
1000
0000
0001
0000
,
0011
0000
0000
0000
0100
0000
0010
0000
1000
0001
1000
0000
0100
0000
0010
0000
,
0110
0000
0000
0000
1000
0000
0010
0000
0100
0001
0100
0000
0010
0000
1000
0000
,
0200
2000
0000
0000
0300
0000
3002
0200
0000
0000
0003
0000
0320
2000
0000
0000
,
0030
0000
3002
0020
0000
0000
0030
0000
2003
0002
3000
0000
0203
0020
0300
0000
,
1030
0000
0100
0010
0001
0000
0100
0000
0001
0010
0100
1000
0010
0100
0010
0100
,
0002
0000
0023
0001
0031
1000
0010
0100
,
0001
0000
0010
0000
0001
0000
0100
0010
2000
0000
0000
0000
3002
0000
0000
0000
,
0023
0000
0100
0000
0130
0000
1000
0000
1000
0001
0000
0100
0010
0000
1000
0000
,
0201
0000
0302
0000
0103
0000
0010
0000
1000
0001
1000
0000
0200
0000
0310
0001
,
0100
0000
2020
3000
0100
0030
2020
0030
0001
3000
0100
0010
1000
0000
0001
0000
,
0010
0000
0001
0000
0100
0000
1000
0010
2000
0000
0000
0000
3002
0000
0000
0000
,
2003
0000
0100
0000
3100
0010
0001
0000
0100
0000
0000
0001
0000
0000
1000
0000
,
0010
0000
0100
0000
0100
0000
0010
1000
0001
1000
0000
0001
1000
0000
0100
0000
,
1001
0000
0000
0000
0000
0000
0000
0000
0110
0000
0000
0000
0000
0000
0000
0000
1001
0000
0000
0000
0000
0000
0000
0000
1000
0000
0000
0100
0000
0000
0010
0000
0000
0000
0000
0000
0001
0000
0000
0000
0000
0000
1100
0000
0000
0000
0000
0000
,
0000
0000
1000
0000
0011
0000
0100
0010
2000
0020
0000
0030
3002
0200
0000
0300
,
2003
0000
0001
0000
3001
0000
0100
0000
0010
1000
0010
1000
0010
0000
0100
0000
,
0001
0000
0001
0000
1000
0000
1000
0000
0010
1000
0001
0000
0100
0000
0000
0010
,
1000
0000
0100
0000
1000
0000
0100
0000
0000
0000
0000
0000
0202
0000
0000
0000
0000
0300
0000
0000
1000
0000
0000
0000
1003
0000
0000
0000
0001
0000
0010
0000
,
0001
0000
0100
0000
0010
0000
1000
0000
2000
0002
0000
0003
3020
0200
0000
0300
,
2030
0000
3020
0000
0130
0000
0001
1000
0001
0000
0000
0010
0000
0000
0100
0000
,
1000
0010
1000
0000
0001
0000
0100
0000
0001
0000
0010
0001
0010
0000
0001
0100
,
0010
0000
1001
0010
1000
0100
1000
0001
,
0100
0000
0010
0000
1000
0000
0001
0100
0001
0000
0010
0000
1000
0000
0001
0100
,
0001
0000
0010
0000
0001
0000
0100
0010
1000
0000
0001
0000
0010
0000
0001
1000
,
0100
0000
0110
0000
0110
0000
0010
0000
0001
0100
0001
0000
1000
0000
0010
0100
,
0010
0000
2000
0000
3002
0000
0203
0000
0301
0000
0010
0000
0100
0000
1000
0010
,
2000
0000
0001
0000
3002
0000
0000
0000
0013
0100
1000
0000
0010
0000
0100
0001
,
2000
0000
0000
0000
3010
0000
0100
0000
0001
0000
0001
0000
1000
0100
0010
0000
,
0001
0000
0001
0000
0001
0000
1000
0100
1000
0000
0100
0010
0100
0000
1000
0010
,
1000
0000
0001
0000
0100
0000
0001
0010
0100
0010
0001
0000
1000
0000
0100
0000
,
0001
0000
0100
0000
0010
0000
0001
0100
0010
0000
1000
0000
0100
0000
1000
0001
,
0200
0000
0320
0000
1030
0000
0001
0000
2000
0000
3020
0000
0130
0000
0001
1000
,
0020
0000
2030
0000
3100
0000
0010
0000
0001
1000
0001
0000
0100
0000
0010
1000
,
0010
0000
0200
0000
0301
0000
1000
0000
0010
0000
0100
0000
0001
0000
1000
0100
,
0010
0000
0001
0000
0100
0000
0010
1000
0100
1000
0010
0000
0100
0000
0001
0000
,
0020
0000
1000
0000
1030
0000
0010
0000
0001
0000
0100
0000
0010
0000
1000
0001
,
0100
0000
0010
0000
0010
0000
1000
0000
0001
0100
0001
0100
0010
1000
0010
1000
,
0001
0000
0000
0000
0001
0000
0100
0000
1000
0000
0100
0000
0001
0000
0010
0100
,
1000
0000
0010
0000
0100
0000
0010
1000
0001
0000
0010
0000
0001
0100
0001
0100
,
0001
0000
0010
0000
1000
0000
0010
0000
0001
0100
0001
0000
1000
0000
0010
0100
,
0010
0000
1000
0000
0100
0000
1000
0001
1000
0000
0010
0000
0100
0001
0010
0001
,
0100
0000
0010
0000
1000
0000
0100
0000
0001
0000
0100
0000
1000
0000
0001
0010
,
0100
0000
1000
0000
0010
0000
1000
0100
1000
0000
0001
0000
0010
0001
0010
0100
,
1000
0000
0010
0000
0001
0000
0100
0000
0010
0000
1000
0000
0001
0100
0010
1000
,
0100
0000
0010
0000
0001
0000
1000
0100
1000
0000
0001
0010
0001
0010
0100
1000
,
0001
0000
0000
0000
1000
0100
1000
0000
0010
0000
1000
0100
1000
0000
0010
0000
,
1000
0100
1000
0000
0010
0000
1000
0100
1000
0000
0010
0000
0100
0000
0001
1000
,
0001
0000
0010
0000
0100
1000
0000
1000
0100
0000
0001
0010
0001
0000
0100
0000
,
0001
0010
0001
0000
0100
0000
0001
0010
0001
0000
0100
0000
0010
1000
0001
0100
,
0010
0000
1000
0100
1000
0000
0010
0000
1000
0100
1000
0000
0010
0000
1000
0100
,
1000
0000
0010
0000
1000
0100
1000
0000
0001
0000
0010
0000
0100
0000
1000
0001
,
0100
0000
0010
0000
1000
0001
0000
0001
1000
0000
0001
0010
0001
0000
0100
0000
,
0001
0010
0001
0000
0100
0000
0001
0010
0001
0000
1000
0000
0100
0010
0100
1000
,
0001
0000
0001
0000
0001
0000
0010
0000
0010
0000
0010
0000
,
0100
0000
0000
0000
0000
0000
0000
0000
0100
0000
0000
0000
0000
0000
0000
0000
0100
0000
0000
0000
0000
0000
0000
0000
1000
0000
0000
0000
0000
0000
0000
0000
1000
0000
0000
0000
0010
0000
0000
0100
0000
0000
0010
0000
0000
0100
0000
0000
,
0001
0000
0010
0000
0011
0000
1000
0000
1100
0000
0100
0000
,
0010
0000
0001
0010
0100
0010
0001
0000
1000
0001
1000
0100
,
0010
0000
0010
0000
0001
0100
0001
0000
1000
0000
0010
0100
,
0001
0000
0000
0000
0000
0000
0000
0000
1000
0000
0000
0000
0000
0000
0000
0000
0010
0000
0000
0000
0000
0000
0000
0000
1000
0000
0000
0000
0000
0000
0000
0000
0100
0000
0000
0000
0000
0000
0000
0000
0001
0000
0000
0000
0000
0010
0000
0000
,
0100
0000
0000
1000
0010
0000
0100
0000
0000
0001
1000
0000
0001
0010
0001
0010
,
0100
1000
0010
0100
0001
0010
1000
0000
,
0100
0000
0100
0000
0000
0000
0010
0001
1000
0000
0001
0000
0100
0000
0010
0000
,
1000
0000
0100
0000
0010
0001
0010
0001
0100
0010
1000
0001
0100
0000
0000
0000
,
0010
0000
0010
0000
1000
0000
0100
0010
0001
0000
1000
0000
0100
0000
1000
0001
,
0200
0010
0310
2000
0001
3001
0200
0010
,
0310
0100
0001
0010
1000
0100
1000
0001
,
0100
0000
0010
0000
1000
0100
1000
0000
0001
0000
0010
0000
0100
0010
0001
0000
,
1000
0010
1000
0000
0100
0000
0010
0001
1000
0000
0001
0000
0100
0000
0010
0000
,
1000
0001
0010
0100
1000
0010
0002
0000
,
0103
0000
0010
0000
1000
0000
0100
0000
0001
0000
0100
0000
1000
0010
1000
0000
,
0001
0000
0100
0000
1000
0000
0010
0000
1000
0001
0100
0010
1000
0000
0000
0000
,
0100
0000
0100
0000
1000
0010
1000
0000
0001
0000
0010
0000
0001
0000
0100
0010
,
1000
0000
0100
1000
0001
0000
0110
0000
0001
0010
0100
0000
0210
0000
0000
0000
,
0001
0000
0310
1000
0010
0100
0010
0001
,
1000
0000
0010
0000
0100
0001
0100
0001
0010
0000
0100
0000
1000
0000
0001
0000
,
0100
0010
0100
0010
0100
0000
0001
0000
1000
0000
0100
0000
1000
0001
0010
0000
,
0001
0000
1000
0000
0001
0000
0100
0000
0010
0000
1000
0000
,
0100
0000
0000
0000
0000
0000
0000
0000
1000
0000
0000
0000
0000
0000
0000
0000
0001
0000
0000
0000
0000
0000
0000
0000
0010
0000
0000
0000
0000
0000
0000
0000
0001
0000
0000
0000
1000
0000
0000
0010
0000
0000
0100
0000
0000
0010
0000
0000
,
1000
0000
0000
0010
0100
0000
0101
0000
0000
0000
0000
0000
1100
0000
0010
0000
,
0100
0000
0000
0000
;

//---------------dance-double - ----------------
#NOTES:
     dance-double:
     :
     Easy:
     6:
     :
00000000
00000000
00000000
00000000
,
00000000
00000000
00000000
00000000
,
00000000
00000000
00000000
00000000
,
00000000
00000000
00000000
00000000
,
01000000
00100000
00000000
00010000
,
00001000
00000000
00010000
00000000
,
00001000
00000010
00000000
00000001
,
00000100
00000010
00000000
00001000
,
00000100
00000010
00000000
00000001
,
00001000
00000010
00000100
00001000
,
00011000
00000000
00000000
00000000
,
00010000
01000000
10000000
01000000
,
00000000
00000000
00100000
01000000
,
10000000
00100000
01000000
00010000
,
00000000
00100000
00001000
00010000
,
00001000
00000100
00000001
00000100
,
00000000
00000000
00000010
00000100
,
00000001
00000010
00000100
00001000
,
00000000
00000000
00000100
00010000
,
00011000
00000000
00010000
00100000
,
00000000
00000000
10000000
00100000
,
10000000
01000000
00100000
00010000
,
00000000
01000000
00001000
00010000
,
00001000
00000100
00000001
00000100
,
00000000
00000000
00000010
00000100
,
00001000
00000000
00010000
00000000
,
00000000
00000000
00001000
00000000
,
00100000
00000000
00000000
00010000
,
00000000
00000000
00000000
10000000
,
00000000
00000000
00000000
00010000
,
00100000
00000000
00001000
00000000
,
00000000
00000000
00000000
00000000
,
00010000
00000000
00000100
00001000
,
00000010
00000000
00000100
00000000
,
00000001
00000000
00000010
00001000
,
00100000
00000000
00000000
00010000
,
00000000
00000000
00000000
10000000
,
00000000
00000000
00000000
01000000
,
00100000
00001000
00010000
00001000
,
00000000
00000000
00000000
00000010
,
00000000
00000001
00000000
00000100
,
00000000
00001000
00010000
01000000
,
10000000
00000000
00000000
00000000
,
01000000
01000000
00000000
00010000
,
00010000
00000000
00001000
00000000
,
00000100
00000100
00000000
00000001
,
00000001
00000000
00000010
00000000
,
00001000
00001000
00000000
00010000
,
00010000
00000000
00100000
00000000
,
10000000
10000000
00000000
01000000
,
01000000
00000000
00010000
00000000
,
00001000
00000100
00000001
00000010
,
00000001
00000100
00001000
00000000
,
00010000
01000000
10000000
00100000
,
01000000
00001000
00010000
00000000
,
00001000
00000010
00000001
00000100
,
00000010
00000100
00001000
00000000
,
00010000
00100000
10000000
01000000
,
00100000
00001000
00010000
00000000
,
00011000
00000000
00000000
00000000
,
00000000
00000000
00000000
00000000
,
00001000
00000000
00000010
00000000
,
00000001
00000000
00000100
00000000
,
00001000
00000000
00010000
00000000
,
01000000
00000000
10000000
00000000
,
10010000
00000000
00000000
00000000
,
10000000
00100000
01000000
00010000
,
00000000
00100000
01000000
00010000
,
00001000
00000100
00000001
00000010
,
00000000
00000001
00000100
00000000
,
00001000
00000000
00000000
00010000
,
00000000
00100000
10000000
01000000
,
00010000
00001000
00000100
00000001
,
00000010
00000001
00001000
00000000
,
00000001
00000010
00000100
00001000
,
00000000
00000010
00000100
00001000
,
00010000
01000000
10000000
00100000
,
00000000
00000000
00000000
00010000
,
00001000
00000000
00000000
00011000
,
00000000
00001000
00000010
00000000
,
00000001
00000100
00001000
00010000
,
01000000
10000000
01000000
00000000
,
00010000
00000000
00002000
00000000
,
00003200
00000000
00000302
00000000
,
00000023
00000000
00000000
00000130
,
00000000
00000000
00000000
00000000
;

//---------------dance-double - ----------------
#NOTES:
     dance-double:
     :
     Medium:
     10:
     :
00000000
00000000
00000000
00000000
,
00000000
00000000
00000000
00000000
,
00000000
00000000
00000000
00000000
,
00000000
00000000
00000000
00000000
,
00000001
00000000
00000010
00000000
00000000
00000100
00000010
00000100
,
00001000
00001000
00000010
00000100
,
00001000
00000000
00010000
00000000
00000000
01000000
00100000
00010000
,
10000000
00000000
00100000
00000000
00000000
00010000
00001000
00010000
,
00001000
00000000
00000010
00000000
00000000
00000001
00000010
00000100
,
00000010
00000100
00000010
00000001
,
00000110
00000000
00000000
00000000
,
00000001
00000000
00000100
00000010
00000100
00000000
00000001
00000000
,
00001100
00000000
00010000
00001000
,
00010000
00000000
01000000
00100000
01000000
00000000
00010000
00000000
,
10000000
01000000
00000000
00000000
00010000
00000000
00001000
00000000
,
00000100
00000010
00000000
00000001
00000000
00000000
00000010
00001000
,
00000001
00000100
00000010
00000100
,
00001000
00000000
00010000
00100000
01000000
00000000
00000000
00010000
,
00000000
10000000
00000000
00100000
10000000
00000000
01000000
00000000
,
00010000
00000000
00010000
00000000
00010000
00000000
00001000
00000000
00000000
00010000
00000000
00000000
,
00001000
00000000
00000100
00000010
,
00001000
00000001
00000100
00000010
00000100
00000000
00001000
00000000
,
00010000
00000000
00000000
01000000
00100000
00000000
01000000
00000000
,
10000000
00010000
01000000
00100000
01000000
00000000
00100000
00000000
,
00010000
00001000
00000010
00000100
,
00001000
00000000
00000010
00001000
00000100
00000000
00000100
00010000
,
00000000
00001000
00000000
00100000
00010000
00000000
01000000
00000000
,
00010000
00000000
00010000
00000000
00010000
00000000
10000000
01000000
,
00000000
00000000
01000000
00000000
01000000
00000000
00010000
00001000
,
00000000
00001000
00001000
00000010
,
00000100
00000000
00001000
00000000
00000010
00001000
00000010
00000000
,
00001000
00000000
00000100
00000000
00000001
00000000
00000100
00001000
,
00000100
00000000
00010000
00000000
00001000
00100000
00010000
00000000
,
01000000
00100000
10000000
01000000
,
00010000
00000000
00000000
00000100
00001000
00000000
00000001
00000000
,
00001000
00000000
00001000
00000000
00001000
00000000
00000001
00000100
,
00000000
00000000
00000100
00000000
00000100
00000000
00001000
00010000
,
00000000
00001000
00010000
00100000
,
01000000
00000000
00010000
00000000
00100000
00010000
00100000
00000000
,
00010000
00000000
01000000
00000000
10000000
00000000
01000000
00010000
,
00000000
00000000
00100000
00001000
00000000
00000000
00010000
00000010
,
00000100
00000010
00001000
00000100
,
00000001
00000100
00000000
00001000
00000000
00000100
00000010
00000000
,
00000001
00000000
00000001
00000010
00000000
00000000
00001000
00000000
,
00001000
00010000
00000000
00000000
00001000
00000000
00100000
00000000
,
00010000
00000000
00010000
00100000
00000000
00000000
01000000
00000000
,
01000000
10000000
00000000
00000000
00100000
00000000
01000000
00000000
,
10000000
00000000
10000000
01000000
00000000
00000000
00100000
00000000
,
00100000
00010000
00000000
00000000
00001000
00000000
00000100
00000000
,
00000001
00000000
00000001
00000100
00000000
00000000
00000010
00000000
,
00000010
00001000
00000000
00000000
00000010
00000000
00000100
00000000
,
00001000
00010000
01000000
00100000
,
00010000
01000000
00010000
00000000
10000000
00100000
00000000
00000000
,
00010000
00001000
00000100
00000001
,
00000010
00000100
00001000
00000000
00000100
00001000
00000010
00000000
,
00000001
00000010
00001000
00000010
,
00000100
00001000
00010000
00000000
01000000
00000000
10000000
00000000
,
00010000
00100000
01000000
10000000
,
00100000
01000000
00010000
00000000
00100000
00001000
00010000
00000000
,
00000110
00000000
00000000
00000000
,
00000000
00000000
00000000
00000000
,
00021000
00000000
00031000
00000000
,
01200000
00000000
01300000
00000000
,
00012000
00000000
00013000
00000000
,
00002010
00000000
00003010
00000000
,
00000011
00000010
00000110
00000000
,
00001000
00000000
00000010
00000000
00000100
00000001
00000010
00000000
,
00000000
00000000
00000001
00000000
00000010
00000100
00000010
00000000
,
00001000
00000000
00010000
00000000
01000000
10000000
00100000
00000000
,
00000000
00000000
10000000
00000000
00100000
01000000
00010000
00000000
,
00021000
00000000
00000000
00031000
00000000
00000000
00000110
00000000
,
00000000
00000001
00000100
00001000
,
00010000
00000000
00100000
01000000
10000000
00000000
10000000
00000000
,
01000000
00100000
01000000
00000000
00100000
00000000
00010000
00000000
,
00001000
00000000
00010000
00000000
00000100
00010000
00001000
00000000
,
00000000
00000000
00010000
00000000
00100000
01000000
00100000
00000000
,
00010000
00000000
00001000
00000000
00000100
00000001
00000010
00000000
,
00000000
00000000
00000001
00000000
00000010
00000100
00001000
00000000
,
00012000
00000000
00000000
00013000
00000000
00000000
01100000
00000000
,
00000000
10000000
01000000
00010000
,
00001000
00000000
00000010
00000100
00000001
00000000
00000001
00000000
,
00000100
00000010
00000100
00000000
00000010
00000000
00001000
00000000
,
00020000
00000000
00130000
00000000
,
01200000
00000000
01300000
00000000
,
01010000
00000000
00000000
00011000
00000000
00000000
00000220
00000000
,
00000330
00000000
00000000
00000000
,
00000000
00000000
00000000
00000000
;

//---------------dance-double - ----------------
#NOTES:
     dance-double:
     :
     Hard:
     13:
     :
00000000
00000000
00000000
00000000
,
00000000
00000000
00000000
00000000
,
00000000
00000000
00000000
00000000
,
00000000
00000000
00000000
00000000
,
00000100
00000000
00000001
00000100
00000000
00000100
00001000
00010000
,
01000000
10000000
00100000
00010000
,
00001000
00000000
00000010
00000001
00000000
00000001
00000100
00000001
,
00000010
00000000
00001000
00010000
00000000
00010000
00100000
10000000
,
01000000
00000000
10000000
01000000
00000000
01000000
00010000
00001000
,
00010000
00000100
00010000
00001000
,
00011000
00000000
00000000
00001000
,
00010000
00000000
00000000
00000000
01000000
00000000
10000000
00000000
00100000
00000000
00000000
10000000
00000000
00000000
01000000
00000000
,
10000000
00000000
00010000
10000000
01000000
00000000
00010000
00000000
,
00001000
00000000
00000000
00000000
00000100
00000000
00000001
00000000
00000010
00000000
00000000
00000010
00000000
00000000
00000100
00000000
,
00001000
00000010
00000000
00000001
00000010
00000100
00001000
00010000
,
00100000
00000000
10000000
00000000
00100000
00000000
01000000
00000000
00100000
00000000
00000000
10000000
00000000
00000000
01000000
00000000
,
00000000
00100000
00000000
01000000
00010000
00000000
00001000
00000000
,
00000100
00000000
00000000
00000000
00000010
00000000
00000001
00000000
00000010
00000000
00000000
00000010
00000000
00000000
00000100
00000000
,
00000000
00001000
00000000
00000100
00000001
00000100
00001000
00000000
,
00010000
00000000
00000000
00000000
00000000
00000000
00000000
00000000
00001000
00000000
00000000
00000000
00000000
00000000
00000000
00000000
00010000
00000000
00000000
00000000
00000000
00000000
00000000
00000000
01000000
00000000
00000000
00000000
00000000
00000000
00000000
00000000
00000000
00010000
00000000
00000000
00000000
00000000
00000000
00000000
00000000
00000000
00001000
00000000
00000000
00000000
00000000
00000000
,
00010000
00000000
00001000
00000000
00000100
00000000
00001000
00010000
,
00001000
00000000
00100000
00000000
01000000
00000000
10000000
00000000
00100000
00000000
00000000
00100000
00000000
00000000
01000000
00000000
,
00010000
00000000
01000000
10000000
01000000
00100000
00010000
00001000
,
00000010
00000000
00000001
00000000
00000010
00000000
00000100
00000000
00000010
00000000
00000000
00000001
00000000
00000000
00000100
00000000
,
00000000
00000010
00000000
00000100
00001000
00000000
00010000
00000000
,
01000000
00000000
00000000
00000000
00100000
00000000
10000000
00000000
00100000
00000000
00000000
00100000
00000000
00000000
01000000
00000000
,
00000000
00010000
00000000
00000000
00001000
00000100
00000001
00000000
,
00000001
00000000
00000010
00000000
00000100
00000000
00001000
00000100
,
00000001
00000100
00001000
00000000
00000010
00000000
00000100
00000001
,
00000100
00001000
00010000
00000000
00010000
00000000
00100000
00000000
,
01000000
00000000
10000000
00000000
01000000
10000000
01000000
00000000
,
00100000
00000000
00010000
00000000
00001000
00000000
00000100
00000010
,
00000010
00000000
00001000
00000000
00000001
00000010
00000100
00000000
,
00010000
00001000
01000000
00010000
01000000
00000000
00001000
00000000
,
00010000
00001000
00000000
00010000
00100000
01000000
00010000
00000000
,
10000000
00000000
00100000
00000000
01000000
00000000
00010000
01000000
,
10000000
01000000
00010000
00000000
00100000
00000000
01000000
10000000
,
01000000
00010000
00001000
00000000
00001000
00000000
00000010
00000000
,
00000100
00000000
00000001
00000000
00000100
00000001
00000100
00000000
,
00000010
00000000
00001000
00000000
00010000
00000000
00001000
00010000
,
01000000
00000000
00100000
00010000
01000000
00000000
00100000
10000000
,
01000000
00010000
00001000
00010000
00000100
00000000
00010000
00000000
,
00001000
00010000
00000000
00000000
00001000
00000100
00000001
00000000
,
00000001
00001000
00000001
00000010
00000000
00000010
00000100
00001000
,
00000100
00001000
00000000
00001000
00000100
00000010
00000001
00000100
,
00001000
00000000
00001000
00000000
00010000
00100000
00010000
00000000
,
00100000
01000000
10000000
01000000
00000000
00010000
00100000
01000000
,
00010000
00000000
00010000
00001000
00000000
00001000
00000100
00000000
,
00000100
00000001
00000000
00000001
00000010
00000100
00001000
00000010
,
00000100
00000000
00000100
00001000
00000000
00001000
00010000
00000000
,
00010000
01000000
00000000
00100000
00000000
01000000
00100000
01000000
,
10000000
00100000
01000000
00010000
10000000
01000000
00010000
00001000
,
00010000
00000100
00001000
00000100
00001000
00000010
00000000
00000000
,
00000000
00000000
00000100
00000000
00000000
00000010
00000000
00000000
00001000
00000000
00000010
00000000
00000100
00000000
00000010
00000000
,
00001000
00000100
00000010
00000100
00001000
00000100
00010000
00001000
,
00000000
00010000
00100000
01000000
10000000
01000000
00100000
00010000
,
00100000
01000000
10000000
01000000
00100000
00010000
00000000
00000000
,
00000000
00000000
00001000
00000000
00000000
00010000
00000000
00000000
00001000
00000000
00000100
00000000
00000010
00000000
00000100
00000000
,
00001000
00000100
00000010
00000100
00001000
00000100
00000001
00000000
,
00002200
00000000
00000000
00003300
,
00000000
00000000
00000000
00000000
,
00010000
00001000
00010000
00100000
01000000
00100000
,
01000000
10000000
01000000
00100000
00010000
00001000
,
00000100
00000010
00000100
00001000
00010000
00100000
,
01000000
10000000
01000000
00010000
00100000
00001000
,
00012000
00000000
00013000
00000000
00000110
00000000
00001000
00000100
,
00001000
00000000
00000010
00000000
00000100
00000001
00000100
00000000
,
00000000
00000000
00000001
00000010
00000100
00001000
00000010
00000100
,
00001000
00000000
00100000
00000000
01000000
10000000
01000000
00000000
,
00000000
00000000
10000000
00100000
01000000
00010000
01000000
00000000
,
00110000
00000000
00000000
00011000
00000000
00000000
00000110
00000000
,
00000000
00000000
00001000
00000010
00000100
00000001
00000010
00000001
,
00001000
00000010
00000001
00000010
00001000
00000100
00000001
00000100
,
00010000
00001000
00100000
00010000
01000000
00010000
10000000
01000000
,
00100000
00000000
01000000
00000000
01000000
10000000
01000000
00000000
,
00000000
00000000
10000000
00100000
01000000
00010000
00100000
01000000
,
00010000
00000000
00000010
00000000
00000100
00000001
00000200
00000000
,
00000010
00000000
00000301
00000000
00001000
00000000
00000100
00000010
,
00000110
00000000
00000000
00011000
00000000
00000000
01100000
00000000
,
00000000
00000000
00010000
00100000
01000000
10000000
00100000
10000000
,
00010000
00100000
10000000
00100000
00010000
01000000
10000000
01000000
,
00001000
00010000
00000010
00001000
00000100
00001000
00000001
00000100
,
00001000
00000100
00000001
00000010
00000100
00000010
,
00001000
00010000
01000000
10000000
00100000
10000000
,
00110000
00000000
00000000
00011000
00000000
00000000
00020200
00000000
,
00030300
00000000
00000000
00000000
,
00000000
00000000
00000000
00000000
;
