#TITLE:Fantastic Baby;
#ARTIST:BIGBANG;
#BANNER:Fantastic Baby-bn.png;
#BACKGROUND:Fantastic Baby-bg.png;
#JACKET:Fantastic Baby-jacket.png;
#MUSIC:Fantastic Baby.ogg;
#SAMPLESTART:99.668;
#SAMPLELENGTH:20;
#DISPLAYBPM:130;
#BPMS:0=130;
#STOPS:72=1.384,211=2.307;
#BGCHANGES:;

//---------------dance-single - ----------------
#NOTES:
     dance-single:
     :
     Beginner:
     3:
     :
0000
0000
0000
0000
,
0000
0000
0000
0000
,
0000
0000
0000
0000
,
0000
0000
0000
0000
,
1000
0000
0000
0000
,
0010
0000
0000
0000
,
0001
0000
0000
0000
,
0100
0000
0010
0000
,
1000
0000
0001
0000
,
0100
0000
0010
0000
,
1000
0000
0100
0000
,
0010
0000
0001
0000
,
0100
0000
0010
0000
,
1000
0000
0001
0000
,
0010
0000
0001
0000
,
1000
0000
0100
0000
,
1000
0000
1000
0000
,
0001
0000
0001
0000
,
0000
1001
0000
0000
,
0010
0010
0000
0000
,
0100
0100
0000
0001
,
0000
1000
0000
0010
,
0000
0110
0000
0000
,
1000
1000
0000
0000
,
0001
0001
0000
0100
,
0000
0010
0000
0000
,
0110
0000
1000
1000
,
0000
0000
0001
0001
,
0000
0000
0100
0100
,
0000
0010
0000
1000
,
0000
0000
0010
0010
,
0000
0000
0100
0100
,
0000
0000
0001
0001
,
0000
1000
0000
0001
,
0000
0100
0000
0010
,
0000
1000
1000
1000
,
0000
0001
0000
0010
,
0000
0100
0100
0100
,
0000
0010
0000
0001
,
0000
0100
0100
0100
,
0000
0010
0000
1000
,
0000
0001
0001
0001
,
0000
0010
0000
0001
,
0000
0100
0000
0010
,
0000
1000
0000
0100
,
0000
1000
0000
0001
,
0000
0010
0000
0001
,
0000
0010
0000
0100
,
0000
1000
0000
0010
,
0000
1000
0000
0001
,
0000
1001
0000
0000
,
0000
0010
0000
0100
,
0000
0001
0001
0001
,
1001
0000
0000
1000
,
1000
0000
0000
0001
,
0001
0000
0100
0000
,
0010
0000
1000
0000
,
0110
0000
0000
0010
,
0010
0000
0000
1000
,
1000
0000
0001
0000
,
0100
0000
0010
0000
,
1000
1000
1000
0000
,
0001
0001
0001
0000
,
0100
0100
0100
0000
,
0010
0000
1000
0000
,
0001
0001
0001
0000
,
1000
1000
1000
0000
,
0100
0100
0100
0000
,
0010
0000
0000
0000
;

//---------------dance-single - ----------------
#NOTES:
     dance-single:
     :
     Easy:
     7:
     :
0000
0000
0000
0000
,
0000
0000
0000
0000
,
0000
0000
0000
0000
,
0000
0000
0000
0000
,
1001
0000
0000
0000
,
0110
0000
0000
0000
,
1001
0000
0000
0000
,
0010
1000
0100
0110
,
0001
0010
0001
0100
,
0001
1000
0010
1000
,
0001
0100
0010
1000
,
0001
0010
1000
0010
,
0010
0001
1000
0010
,
0100
1000
0010
0010
,
0001
0100
0001
0010
,
0001
1000
0010
0100
,
0001
0001
0001
0001
,
1000
1000
1000
1000
,
0110
1001
0010
1000
,
1100
0101
0010
1000
,
0001
2000
3020
0230
,
0302
0013
0010
0001
,
1000
1001
0010
1000
,
1100
0101
0010
1000
,
0001
0020
0230
2300
,
3002
0103
0000
0010
,
0110
0000
0001
0010
,
0000
0011
0000
0000
1000
0000
0100
0000
,
0000
1100
0000
0000
0001
0000
0010
0000
,
0001
0100
0010
1000
,
0000
1001
0000
0000
0010
0000
1000
0000
,
0000
1010
0000
0000
0001
0000
0100
0000
,
0000
0101
0000
0000
0010
0000
1000
0000
,
0100
0010
0010
0010
,
0010
0001
0100
0001
,
1000
1100
0101
1100
,
0010
1000
0100
0001
,
0010
0011
1100
0011
,
0100
0010
0010
1000
,
1000
1100
0110
0011
,
0100
0001
0010
1000
,
0100
0010
0010
0010
,
0110
0001
0100
0001
,
0010
1000
0100
1000
,
0100
0001
0010
0001
,
0100
0001
0010
1000
,
0100
1000
0010
1000
,
0100
1000
0001
0010
,
0001
0100
0010
0100
,
0001
0010
0001
0100
,
0010
2000
0100
0100
,
3100
0002
0103
0020
,
1030
0020
0130
0110
,
1001
0001
0010
0011
,
1010
0100
1000
0001
,
0020
0032
2003
3200
,
0310
0001
0100
1000
,
1001
0010
1000
1010
,
0011
0100
0001
0010
,
0002
0203
2300
3020
,
0130
0001
0010
1000
,
1100
1100
1100
0000
,
0101
0101
0101
0000
,
0110
0110
0110
0000
,
2000
3002
2003
3001
,
0011
0011
0011
0000
,
1010
1010
1010
0000
,
1001
1001
1001
0000
,
0020
0000
0000
0000
,
0030
0000
0000
0000
;

//---------------dance-single - ----------------
#NOTES:
     dance-single:
     :
     Medium:
     10:
     :
0000
0000
0000
0000
,
0000
0000
0000
0000
,
0000
0000
0000
0000
,
0000
0000
0000
0000
,
1100
0001
0100
1000
,
0101
0010
1000
0100
,
1010
0001
1000
0100
,
1000
0010
1000
0010
0000
0100
0001
0000
,
0000
0001
0010
0100
1000
0000
0010
1000
,
0001
0000
1000
0100
0010
0000
0001
1000
,
0000
0010
1000
0010
1000
0100
0010
0001
,
0000
0000
0100
0020
0000
0000
1030
0001
,
0000
0010
0001
0100
0020
0000
1030
0100
,
1000
0000
0001
0100
0010
0100
0001
1000
,
0000
0010
1000
0100
0000
1000
0001
0010
,
0000
0011
0000
0110
0000
2002
0003
0000
,
3010
0000
1000
0100
1000
0000
1000
0000
,
0010
0000
0001
0100
0001
0000
0001
0000
,
0110
0000
1001
0000
0010
1000
0010
0100
,
0001
0010
0100
0000
0010
0001
1000
0010
,
1000
0001
0200
0000
0302
0000
0023
0000
,
0130
1000
0000
1100
0000
0001
1000
0010
,
1000
0100
0110
0000
0010
0001
1000
0001
,
0100
0010
1010
0000
0001
1000
0100
0010
,
0001
0100
0020
0000
2030
0000
3002
0000
,
1003
0100
0010
0000
0000
0001
1000
0010
,
0110
0000
0000
1000
0010
1000
0010
1000
,
0000
0101
0000
0010
1000
0010
1000
0010
,
0000
0101
0000
0001
0010
0001
0010
0100
,
1000
0100
1000
0010
0100
0010
1000
0001
,
1000
0100
0000
0010
0001
0100
0010
1000
,
0000
1100
0000
0001
1000
0100
0010
0001
,
0000
0011
0000
0100
0010
1000
0001
0100
,
0010
0000
1000
0000
1000
0100
0001
0000
,
0001
0000
0010
0001
0010
0100
1000
0010
,
1000
0001
0101
0000
1100
0000
0101
0000
,
0010
1000
0100
1000
0010
1000
0100
0010
,
0001
0100
0101
0000
1010
0000
0101
0000
,
0010
1000
0002
0000
0023
0000
0032
0000
,
0103
0010
2000
0000
3200
0000
0320
0000
,
0031
1000
0010
0010
0100
0100
1000
0001
,
1000
0001
0011
0000
1100
0000
0101
0000
,
1010
0000
0002
0000
2003
0000
3010
1000
,
0100
0020
0000
0032
0000
0003
1000
0001
,
1000
0200
0000
0320
0000
0030
0001
1000
,
0001
0200
0000
0320
0000
2030
0000
3001
,
2000
0000
3200
0000
0320
0000
0031
0100
,
0010
2000
0000
3002
0000
1003
0001
0010
,
0100
0020
0000
0032
0000
0003
1000
0001
,
0100
0020
0000
2030
0000
3200
0000
1300
,
0001
0200
0010
0000
0010
0000
0010
0000
,
0310
0000
1000
0010
0100
0010
1000
0100
,
0010
0100
1000
1000
1000
0001
0001
0000
,
1001
0000
0010
1000
0100
0010
0001
0100
,
0110
0000
0010
1000
0001
1000
0100
0010
,
0002
0000
2003
0000
3200
0000
0310
0001
,
0000
0101
0000
0010
1000
0100
1000
0001
,
1001
0000
0001
0010
0100
1000
0010
0100
,
0110
0000
0010
1000
0001
1000
0100
0010
,
0200
0000
0320
0000
0032
0000
0103
0010
,
1010
0000
0000
0001
1000
0100
1000
0001
,
0101
0000
0010
1000
0010
1000
0000
0000
,
1100
0000
0001
0100
0001
0100
0000
0000
,
0011
0000
0001
1000
0001
1000
0000
0000
,
0020
0000
2030
0000
3002
0000
1003
0100
,
0110
0000
0010
0001
0010
0001
0000
0000
,
0101
0000
1000
0100
1000
0100
0000
0000
,
1001
0000
0100
0010
0100
0010
0000
0000
,
0020
0000
0000
0000
,
0030
0000
0000
0000
;

//---------------dance-single - ----------------
#NOTES:
     dance-single:
     :
     Hard:
     14:
     :
0000
0000
0000
0000
,
0000
0000
0000
0000
,
0000
0000
0000
0000
,
0000
0000
0000
0000
,
1020
0000
1030
0100
0001
0100
1000
0000
,
0201
0000
0301
0100
1000
0100
0001
0000
,
0021
0000
1030
0010
0001
0010
1000
0000
,
0010
0001
0100
0020
0000
1030
1100
0000
,
0001
0010
1000
1000
0100
0100
0010
0001
,
0100
0001
0100
1000
0010
0010
0001
1000
,
0010
0001
1000
0001
0010
1000
0100
0100
,
1000
1000
0100
0010
0001
0001
0010
0100
,
0010
1000
1000
0001
0010
0001
0100
0100
,
0100
0001
0100
0010
0010
1000
0001
1000
,
0001
0001
0010
1000
1000
0010
0100
0100
,
0010
0100
1000
0001
0001
0010
1000
0100
,
0002
0000
0013
0100
2000
0000
3020
0000
,
0230
0000
0310
1000
0002
0000
0023
0000
,
0130
0000
0000
0000
1002
0000
0000
0000
1003
0010
0100
0000
0001
0000
0010
0000
,
0100
0000
1000
0001
0200
0000
0000
0000
0310
1000
0001
0000
0010
0000
0100
0000
,
0100
1000
0002
0100
2003
0100
3002
0100
,
2003
0100
3001
0110
0000
0010
1000
0001
,
1000
0000
0010
0000
2001
0000
0000
0000
3100
0010
0001
0000
1000
0000
0001
0000
,
0100
0000
0010
1000
0200
0000
0000
0000
0310
0001
1000
0000
0010
0000
0100
0000
,
0100
0001
2000
0010
3002
0010
2003
0010
,
3002
0000
0010
0000
1003
0000
0010
0100
0010
0000
1000
0000
1000
0000
0001
0000
,
0110
0000
0001
0010
0010
0001
1000
1000
,
0100
0000
0010
0001
0000
0000
0100
0000
0100
0000
0010
0000
0000
1000
0000
0001
,
0000
0000
1010
0000
0000
0000
1000
0100
0010
0000
0001
0000
0001
0000
0100
0000
,
0010
1000
1000
0001
0001
0100
0010
0101
,
1000
0000
0002
0000
0000
0000
0013
0001
0100
0000
0010
0000
1000
0000
0001
0000
,
0100
0000
1100
0000
0000
0000
0001
0000
0001
0000
1000
0000
0020
0100
0000
0130
,
0000
1000
0001
0100
0100
0001
0010
1000
,
1000
0000
0012
0000
0103
0010
2000
0000
,
3001
0000
0010
0100
1000
0000
1000
0000
0010
0000
0010
0100
0001
0000
1000
0100
,
0010
0001
0101
0000
1010
0000
0101
0000
,
1000
0001
1000
0000
0010
0000
0100
0001
0100
0000
0010
1000
0010
0000
1000
0100
,
1000
0001
0011
0000
1100
0000
0011
0000
,
0100
0001
1000
0000
0110
0000
0000
0000
1001
0000
0100
0000
0002
0000
0000
0000
,
0013
0001
1000
0000
0200
0000
0000
0000
2300
0000
0000
0000
3020
0000
0000
0000
,
0130
0001
0100
0001
0010
0000
0010
0000
0100
0000
0100
0000
1000
0001
1000
0001
,
1000
0100
0010
0001
0100
0000
0000
0000
0100
0000
0000
0000
0100
0000
0000
0000
,
0101
0000
2010
0000
3200
0000
1300
0010
,
0100
0001
0010
0100
1000
0000
0001
1000
,
0010
1000
0100
0010
0001
0000
0100
0010
,
1000
0001
0000
0011
0000
1001
0000
0100
,
0010
0000
2000
0000
3002
0000
0013
0001
,
0100
0010
1000
0100
0001
0010
0010
0001
,
1000
0010
1000
0100
0001
0000
0010
0100
,
0010
0001
1000
0010
0100
0002
0000
0013
,
0001
2000
0100
0000
0100
0000
0010
0000
,
3010
0000
0000
0000
1000
0000
0001
0100
0000
0010
0000
0100
0001
0000
1000
0000
,
0100
0010
0000
0010
0001
0000
1000
0001
0000
1000
0000
0010
0200
0000
0300
0000
,
1002
0000
0000
0000
0013
0001
1000
0000
0010
0000
1000
0000
0100
0000
0010
0001
,
0200
0000
0000
0000
0310
1000
0001
0000
1000
0000
0100
0000
0100
0000
0010
0000
,
0002
0010
2003
0010
3002
0010
2003
0010
,
3001
0110
0000
1000
1000
0010
0100
0001
,
2001
0000
0000
0000
3100
1000
0001
0000
0010
0000
0001
0000
0100
0000
0010
1000
,
0002
0000
0000
0000
0013
0001
1000
0000
0010
0000
0100
0000
0100
0000
0001
0000
,
2000
0100
3002
0100
2003
0010
3002
0010
,
1003
0110
0000
0001
0001
1000
0010
0100
,
0101
0000
0000
0000
1000
0000
1000
0000
0001
0000
0001
0000
0100
0000
0010
1000
,
0001
0000
0000
0000
0100
0000
0100
0000
0010
0000
0010
0000
1000
0000
0001
1000
,
0100
0000
0000
0000
1000
0000
1000
0000
0010
0000
0010
0000
0100
0000
0001
1000
,
0002
0010
2003
0010
3002
0100
2003
0100
,
3001
0000
0000
0000
1010
0000
0100
0000
0001
0000
0010
0000
0100
0000
1000
0001
,
1000
0000
0000
0000
0010
0000
1000
0000
0001
0000
1000
0000
0100
0000
0010
0001
,
0100
0000
0000
0000
0010
0000
0100
0000
0010
0000
1000
0000
0001
0000
1000
0100
,
0020
0000
0000
0000
,
0030
0000
0000
0000
;
