#TITLE:Fancy Like;
#SUBTITLE:;
#ARTIST:Walker Hayes;
#TITLETRANSLIT:;
#SUBTITLETRANSLIT:;
#ARTISTTRANSLIT:;
#GENRE:;
#CREDIT:;
#BANNER:Fancy Like-bn.png;
#BACKGROUND:Fancy Like-bg.png;
#LYRICSPATH:;
#CDTITLE:;
#MUSIC:Fancy Like.ogg;
#OFFSET:0.000000;
#SAMPLESTART:31.834999;
#SAMPLELENGTH:20.000000;
#SELECTABLE:YES;
#DISPLAYBPM:160.000000;
#BPMS:0.000000=160.000000
;
#STOPS:
;
#BGCHANGES:;
#KEYSOUNDS:;
#ATTACKS:;

//---------------dance-single - ----------------
#NOTES:
     dance-single:
     :
     Hard:
     11:
     0.550492,0.562616,0.393209,0.419423,0.000000,441.000000,396.000000,45.000000,48.000000,0.000000,0.000000,0.550492,0.562616,0.393209,0.419423,0.000000,441.000000,396.000000,45.000000,48.000000,0.000000,0.000000:
0000
0000
0000
0000
,
0000
0000
0000
0000
,
0000
0000
0000
0000
,
0000
0000
0000
0000
,
0000
0000
0000
0000
,
0000
0000
0000
0000
,
0000
0000
0000
0000
,
0000
0000
0000
0000
0000
0010
1000
0001
,
0020
0100
0130
0000
0000
1000
0001
0010
,
0200
1000
1300
0000
0000
0001
0100
0010
,
1000
0000
1010
0000
0101
0001
1000
0100
,
0020
0001
0031
0000
0000
0100
0010
1000
,
0002
1000
1003
0000
0000
0100
0010
0001
,
0200
0010
0310
0000
0000
1000
0001
1000
,
0010
0100
0001
1000
0002
0000
0103
0010
,
1000
0000
1001
0000
1001
0000
0100
0010
,
1000
0100
0001
0100
1000
0010
0100
0001
,
1000
0000
2200
0000
3300
0001
0100
0010
,
1000
0001
0100
0000
0110
0001
1000
0100
,
0010
0011
1000
0101
,
0010
1001
0100
1100
,
0001
0000
0100
0010
1000
0001
1000
0000
,
0010
0100
0202
0000
0303
0000
0001
1000
,
0010
0000
0100
0000
0110
0000
0001
1000
,
0001
0010
1000
0000
1200
0000
0301
0100
,
0010
0100
1000
0000
0201
0000
0310
0100
,
0001
0000
2020
0000
3030
0000
0100
0010
,
2000
3001
1100
0100
,
0120
0000
0031
0000
1002
0000
0103
1000
,
0010
0000
0010
0000
1000
0001
0100
0000
,
0001
1000
0200
0000
0310
0000
0001
0100
,
1000
0100
0002
0000
0013
0000
0100
1000
,
0010
0100
0001
1000
0100
0010
0001
0000
,
1000
0001
0100
0000
1010
0000
0100
0010
,
1000
0100
0001
0100
1000
0010
0001
0010
,
1000
0100
0010
0001
0100
0000
1001
0000
,
0000
0001
1000
0100
0020
0000
0031
0100
,
2000
0000
3001
0000
0100
0010
0110
0000
,
1001
0000
0001
0100
1000
0100
0001
0000
,
0010
0100
2000
0000
3001
0100
0001
0000
,
0011
0000
1000
0100
0001
0100
1000
0000
,
0010
0100
0002
0000
1003
0100
0010
0000
,
1100
0000
0010
1000
0001
1000
0100
0000
,
0010
0001
2000
0000
3010
0100
0001
0000
,
0101
0000
0010
0100
1000
0001
0100
0000
,
0001
0010
0100
2000
0000
3010
0100
0001
,
2000
0010
3010
0000
0000
0000
0100
0001
,
0020
0001
0031
0000
0000
0010
0100
1000
,
0020
0000
0130
0000
1010
0001
1000
0100
,
2000
0001
3001
0100
0010
0100
0010
1000
,
0002
0010
0013
0000
0000
0100
1000
0001
,
2000
0010
3010
0000
0000
0100
0001
1000
,
1200
0000
0301
0100
1000
0001
0100
0000
,
0110
0001
1000
0000
0200
0000
0300
0010
,
0100
1000
0010
0001
0010
1000
0001
0100
,
0010
0000
0220
0000
0330
0100
0001
1000
,
0100
0010
0001
0000
0011
0001
1000
0100
,
0010
1100
0010
0101
,
1000
1100
0001
0011
,
0100
0000
0001
0010
1000
0010
0001
0000
,
0100
0010
2002
0000
3003
0000
1000
0001
,
0010
0000
0100
0000
0110
0000
0001
1000
,
0010
0100
0001
0000
1020
0000
1030
0001
,
0010
0100
1000
0000
0021
0000
0031
0100
,
0001
0000
0022
0000
0033
0000
0100
0010
,
2000
3001
1010
0010
,
0210
0000
0301
0000
2001
0000
3100
0010
,
0001
0000
0001
0000
1000
0010
0100
0000
,
0001
0010
2000
0000
3001
0000
0100
0010
,
0001
0010
2000
0000
3100
0000
0010
0001
,
1000
0001
0100
0010
1000
0100
0010
0000
,
0001
0100
0010
0000
1010
0000
1000
0100
,
1000
0010
0001
0010
1000
0100
0001
0100
,
1000
0001
0010
0100
1000
0000
1001
0000
,
0000
0010
1000
0001
0200
0000
0310
1000
,
0002
0000
0103
0000
1000
0001
0110
0000
;

//---------------dance-single - ----------------
#NOTES:
     dance-single:
     :
     Medium:
     9:
     0.460616,0.529521,0.419423,0.498065,0.000000,369.000000,321.000000,48.000000,57.000000,0.000000,0.000000,0.460616,0.529521,0.419423,0.498065,0.000000,369.000000,321.000000,48.000000,57.000000,0.000000,0.000000:
0000
0000
0000
0000
,
0000
0000
0000
0000
,
0000
0000
0000
0000
,
0000
0000
0000
0000
,
0000
0000
0000
0000
,
0000
0000
0000
0000
,
0000
0000
0000
0000
,
0000
0000
0000
0000
0000
0010
1000
0001
,
0200
0000
0310
0000
0000
1000
0100
0010
,
0002
0000
1003
0000
0000
0010
0100
0001
,
1000
0000
1010
0000
0101
0000
0010
0100
,
0002
0000
1003
0000
0000
0010
1000
0100
,
2000
0000
3001
0000
0000
0010
0001
1000
,
0020
0000
0130
0000
0000
0100
0001
1000
,
0001
0010
0100
0000
1100
0000
0011
0000
,
0100
0000
1001
0000
1001
0000
0000
0010
,
1000
0001
1000
0001
0100
0000
0100
0010
,
1000
0000
1100
0000
0000
0001
0010
0100
,
2000
0000
3002
0000
1003
0010
0100
0001
,
0010
0011
0000
1100
,
0000
0101
0000
1010
,
0000
0000
0001
1000
0001
1000
0001
0000
,
0010
0100
2000
0000
3000
0000
1000
0001
,
0100
0000
1001
0000
0000
0000
0010
1000
,
0001
1000
0100
0000
1100
0000
0101
0000
,
0001
0010
0100
0000
0011
0000
1010
0000
,
0002
0000
2000
0000
3003
0000
0001
0100
,
0020
0200
0330
0110
,
1002
0000
0103
0000
2010
0000
3001
1000
,
0010
0000
0010
0000
1000
0001
0100
0000
,
2002
0000
3003
1000
0001
0100
0010
0000
,
0010
1000
0200
0000
0300
0000
1000
0001
,
2000
0000
3000
0010
1000
0001
0100
0000
,
0001
0100
0020
0000
0030
0000
1000
0001
,
0010
0011
0100
1100
,
0001
1000
0100
1000
0001
0000
1001
0000
,
0020
0000
0030
1000
0001
1000
0100
0000
,
0220
0000
0330
0000
0001
1000
0100
0000
,
0022
0000
0033
0001
1000
0100
0010
0000
,
0100
1000
0002
0000
0000
0000
0003
0000
,
2200
0000
3300
1000
0010
0100
0001
0000
,
1000
0001
0200
0000
0000
0000
0300
0000
,
2020
0000
3030
1000
0100
0010
0001
0000
,
0100
0001
2000
0000
0000
0000
3000
0000
,
0202
0000
0303
0001
1000
0100
1000
0000
,
0001
0010
0100
2000
0000
0000
3010
0100
,
0020
0000
1030
0000
0000
0000
0001
0100
,
0002
0000
0013
0000
0000
0001
1000
0100
,
2000
0000
3001
0000
1000
0010
0100
0001
,
2000
0000
3100
0000
0000
0010
0001
0010
,
0002
0000
1003
0000
0000
0100
1000
0010
,
2000
0000
3100
0000
0000
0010
0001
1000
,
0010
0000
1000
0100
0001
0000
0001
0000
,
0011
0000
1100
0000
0000
0000
0000
0010
,
1000
0001
1000
0001
0100
0000
0100
0010
,
1000
0000
1010
0000
0000
0001
0100
0010
,
2000
0000
3002
0000
1003
0010
0100
0001
,
0010
0011
0000
1100
,
0000
0101
0000
1010
,
0000
0000
1000
0001
1000
0001
1000
0000
,
0010
0100
0002
0000
0003
0000
1000
0001
,
0100
0000
0110
0000
0000
0000
0010
1000
,
0001
1000
0100
0000
0011
0000
1010
0000
,
0100
0010
1000
0000
1100
0000
0101
0000
,
2000
0000
0002
0000
3003
0000
1000
0100
,
0020
0200
0330
0110
,
1002
0000
0013
0000
2100
0000
3001
1000
,
0010
0000
0010
0000
1000
0001
0100
0000
,
0220
0000
0330
0001
0100
0010
1000
0000
,
1000
0100
0020
0000
0030
0000
0001
1000
,
0002
0000
0003
0010
0001
1000
0010
0000
,
1000
0001
0200
0000
0300
0000
0010
1000
,
0001
0101
1000
1100
,
0001
1000
0100
1000
0001
0000
1001
0000
,
0200
0000
0300
0010
1000
0001
1000
0000
,
0220
0000
0330
0000
0001
1000
0100
0000
;

//---------------dance-single - ----------------
#NOTES:
     dance-single:
     :
     Easy:
     6:
     0.342029,0.397141,0.401947,0.366995,0.000000,274.000000,228.000000,46.000000,42.000000,0.000000,0.000000,0.342029,0.397141,0.401947,0.366995,0.000000,274.000000,228.000000,46.000000,42.000000,0.000000,0.000000:
0000
0000
0000
0000
,
0000
0000
0000
0000
,
0000
0000
0000
0000
,
0000
0000
0000
0000
,
0000
0000
0000
0000
,
0000
0000
0000
0000
,
0000
0000
0000
0000
,
0000
0000
0000
0010
,
2000
3001
0000
1000
,
0020
0130
0000
0001
,
1000
1000
1001
0100
,
0110
0001
0000
1000
,
0200
0310
0000
0001
,
2000
3010
0000
0100
,
0001
0001
0001
0100
,
1000
1001
1001
0000
,
0010
0100
0001
1000
,
0010
0110
0000
0110
,
0001
0100
0001
0100
,
0010
0110
0000
1001
,
0000
0110
0000
1001
,
0000
0001
1000
0001
,
0100
0220
0330
0001
,
1000
1001
0000
0010
,
1000
0001
2000
3100
,
0010
0001
0200
0310
,
1000
2002
3003
0001
,
0100
0110
0000
0010
,
2000
3100
0020
0031
,
0100
0100
1001
0110
,
0020
2000
3030
0001
,
2000
0200
3300
0010
,
0001
0100
1000
0100
,
0001
1000
0100
0010
,
0001
1001
1000
1001
,
0010
0100
0110
0000
,
0000
0001
0100
0010
,
0110
0000
1000
1000
,
2200
0300
0001
3100
,
1000
1000
0010
0100
,
0202
0003
0010
0301
,
1000
1000
0100
0010
,
0022
0030
1000
0103
,
0010
0010
0001
0100
,
2020
3000
0100
1030
,
0001
0010
1000
0100
,
1002
0103
0000
0010
,
0210
0301
0000
1000
,
0002
0103
0020
1030
,
0200
0310
0000
0001
,
0020
0130
0000
1000
,
0002
0103
0000
0010
,
0110
0001
1001
1000
,
0020
0130
0000
0000
,
0001
0100
0010
1000
,
0100
0110
0000
0110
,
0001
0010
0001
1000
,
0010
1001
0000
1001
,
0000
0110
0000
1001
,
0000
0100
0010
0100
,
0001
2002
3003
0100
,
0010
0110
0000
1000
,
0100
0010
0002
0103
,
1000
0010
2000
3001
,
0100
0220
0330
0010
,
1000
1001
0000
0100
,
0001
0010
0001
0100
,
1000
1000
1001
0110
,
0002
0200
0303
0010
,
2000
0002
3003
0100
,
0001
0010
0100
1000
,
0010
0100
0010
1000
,
0001
1001
1000
1001
,
0010
0100
0110
0000
,
0000
0010
1000
0001
,
0110
0000
0110
1001
;

//---------------dance-single - ----------------
#NOTES:
     dance-single:
     :
     Beginner:
     3:
     0.162277,0.230901,0.052428,0.000000,0.000000,130.000000,124.000000,6.000000,0.000000,0.000000,0.000000,0.162277,0.230901,0.052428,0.000000,0.000000,130.000000,124.000000,6.000000,0.000000,0.000000,0.000000:
// measure 0
0000
0000
0000
0000
,  // measure 1
0000
0000
0000
0000
,  // measure 2
0000
0000
0000
0000
,  // measure 3
0000
0000
0000
0000
,  // measure 4
0000
0000
0000
0000
,  // measure 5
0000
0000
0000
0000
,  // measure 6
0000
0000
0000
0000
,  // measure 7
0000
0000
0000
0000
,  // measure 8
0010
0010
0000
0000
,  // measure 9
0100
0100
0000
0000
,  // measure 10
0001
0000
1000
0000
,  // measure 11
0001
0000
0000
0000
,  // measure 12
0010
0010
0000
0000
,  // measure 13
0100
0100
0000
0000
,  // measure 14
1000
0000
0001
0000
,  // measure 15
1000
0000
1001
0000
,  // measure 16
0010
0000
1000
0000
,  // measure 17
0001
0001
0000
0000
,  // measure 18
1000
0000
0100
0000
,  // measure 19
0010
0010
0000
0000
,  // measure 20
0000
0000
0000
0000
,  // measure 21
0000
0000
0110
0000
,  // measure 22
1000
1000
0000
0000
,  // measure 23
0001
0001
0000
0000
,  // measure 24
0100
0000
0100
0000
,  // measure 25
0010
0000
0010
0000
,  // measure 26
1000
1000
0000
0000
,  // measure 27
0100
0100
0000
0000
,  // measure 28
0010
0000
0001
0000
,  // measure 29
0100
0000
0110
0000
,  // measure 30
0100
0100
0000
0000
,  // measure 31
0001
0001
0000
0000
,  // measure 32
0010
0000
0001
0000
,  // measure 33
0100
0000
0100
0000
,  // measure 34
1000
1000
1000
0000
,  // measure 35
0001
0001
0001
0000
,  // measure 36
0000
0000
0100
0000
,  // measure 37
0010
0000
0100
0000
,  // measure 38
0001
0000
0001
0000
,  // measure 39
0001
0000
0000
0000
,  // measure 40
1000
0000
1000
0000
,  // measure 41
1000
0000
0000
0000
,  // measure 42
0010
0000
0010
0000
,  // measure 43
0010
0000
0000
0000
,  // measure 44
0100
0000
0000
0000
,  // measure 45
1001
0000
0000
0000
,  // measure 46
0001
0001
0000
0000
,  // measure 47
0010
0010
0000
0000
,  // measure 48
0001
0000
0100
0000
,  // measure 49
1000
0000
0000
0000
,  // measure 50
0010
0010
0000
0000
,  // measure 51
0100
0100
0000
0000
,  // measure 52
0010
0000
1000
0000
,  // measure 53
0100
0000
0000
0000
,  // measure 54
0010
0000
0001
0000
,  // measure 55
1000
1000
0000
0000
,  // measure 56
0100
0000
1000
0000
,  // measure 57
0010
0010
0000
0000
,  // measure 58
0000
0000
0000
0000
,  // measure 59
0000
0000
1001
0000
,  // measure 60
0001
0001
0000
0000
,  // measure 61
0010
0010
0000
0000
,  // measure 62
0001
0000
1000
0000
,  // measure 63
0001
0000
1000
0000
,  // measure 64
0010
0010
0000
0000
,  // measure 65
0100
0100
0000
0000
,  // measure 66
0010
0000
1000
0000
,  // measure 67
0100
0000
0110
0000
,  // measure 68
0100
0100
0000
0000
,  // measure 69
0010
0010
0000
0000
,  // measure 70
0001
0000
0100
0000
,  // measure 71
0010
0000
1000
0000
,  // measure 72
0010
0010
0010
0000
,  // measure 73
0100
0100
0100
0000
,  // measure 74
0000
0000
0001
0000
,  // measure 75
1000
0000
0001
0000
;
