#TITLE:Fame;
#SUBTITLE:;
#ARTIST:Irene Cara;
#TITLETRANSLIT:;
#SUBTITLETRANSLIT:;
#ARTISTTRANSLIT:;
#GENRE:;
#CREDIT:;
#BANNER:Fame-bn.png;
#BACKGROUND:Fame-bg.png;
#LYRICSPATH:;
#CDTITLE:;
#MUSIC:Fame.ogg;
#OFFSET:0.000000;
#SAMPLESTART:44.683998;
#SAMPLELENGTH:20.000000;
#SELECTABLE:YES;
#DISPLAYBPM:128.000000:133.000000;
#BPMS:0.000000=128.000000
,12.000000=130.000000
,24.000000=133.000000
,32.000000=131.000000
,40.000000=130.520004
,68.000000=129.000000
,80.000000=132.000000
,88.000000=129.875000
,108.000000=131.333328
,124.000000=130.100006
,144.000000=130.666672
,164.000000=130.789001
,172.000000=130.250000
,256.000000=130.572998
,260.000000=131.229996
;
#STOPS:
;
#BGCHANGES:;
#KEYSOUNDS:;
#ATTACKS:;

//---------------dance-single - ----------------
#NOTES:
     dance-single:
     :
     Hard:
     12:
     0.515298,0.500030,0.211294,0.120739,0.135832,478.000000,450.000000,28.000000,16.000000,0.000000,0.000000,0.515298,0.500030,0.211294,0.120739,0.135832,478.000000,450.000000,28.000000,16.000000,0.000000,0.000000:
0000
0000
0000
0000
,
0000
0000
0000
0000
,
0000
0000
0000
0000
,
0000
0000
0000
0000
,
0000
0000
0001
0100
2000
0000
3010
0110
,
0000
0101
0000
1100
0000
1020
1030
0000
,
2001
0000
3010
0200
0001
0000
1000
0000
,
0310
0000
0100
0000
1000
0000
0000
0000
0001
0000
0010
0000
0010
0000
0001
1000
,
0001
0000
0010
0000
0001
1000
0010
1000
,
0100
0001
0100
0010
0100
1000
0010
0000
,
0001
0000
1000
0010
1000
0100
0010
0001
,
0100
0010
0100
1000
0100
0001
0010
0000
,
0011
0000
1000
0001
0010
0100
1000
0001
,
0000
0100
0101
0000
1200
1000
1300
0000
,
1010
0000
0100
1000
0010
0100
0001
1000
,
0000
0000
0010
0000
1001
0000
0000
1000
0002
0000
0100
0000
0103
0000
0010
0000
,
0110
0000
0001
0000
1000
0010
0100
1000
,
0100
0000
0010
0000
1000
0000
0001
0000
0010
0000
0100
1000
0100
0000
0001
0000
,
0100
0000
0010
0001
1000
0001
1000
0200
,
0000
0000
0310
0000
0011
0000
0000
0001
1000
0000
1000
0000
0010
0000
0100
0000
,
0101
0000
1000
0001
0010
0100
1000
0010
,
0000
1000
1100
0000
0012
0010
0013
0000
,
0100
0000
0010
0000
1000
0000
2010
0000
0000
0000
0000
0000
3010
0100
0020
0000
,
0000
0001
0031
0100
0010
0010
1000
0001
,
0100
0000
0000
0000
1001
0000
0000
0010
1000
0000
0001
0000
0100
0000
0000
0000
,
0010
0001
0010
1000
0100
0010
0001
0100
,
1000
0000
0100
0000
0001
0000
0000
0001
0010
0000
0100
0000
1000
0000
0000
0000
,
0010
0100
0010
0001
0010
1000
0001
0100
,
1000
0000
0000
0000
0110
0000
0000
0010
0100
0000
0001
0000
1000
0000
0000
0000
,
0010
1000
0100
0001
0100
0010
0001
1000
,
0010
0000
0001
0000
0010
0000
0000
1000
0001
0000
1000
0000
0100
0000
0000
0000
,
0010
0100
0001
0100
0010
1000
0010
0001
,
0100
0000
0000
0000
1010
0000
0000
1000
0010
0000
0001
0000
0100
0000
0010
0000
,
1000
0100
0001
0100
1000
0010
0100
0001
,
0010
0000
0100
0000
1000
0000
0000
0001
1000
0000
0001
0000
0100
0000
0000
0000
,
0001
1000
0100
0010
1000
0010
0001
0100
,
0010
0000
0000
0000
0101
0000
0000
0001
1000
0000
0100
0000
0001
0000
0000
0000
,
0010
0001
0100
0001
0010
0100
1000
0010
,
1000
0000
0100
0000
0001
0000
0000
0010
0100
0000
1000
0000
0001
0000
0000
0000
,
1000
0010
0100
0001
0010
0100
1000
0000
,
0001
0100
0010
0100
1000
0100
0010
0100
,
0001
0100
0010
0100
1000
0100
0010
0100
,
0001
0010
0100
0010
1000
0010
0100
0010
,
0001
0010
0100
0010
1000
0010
0100
0010
,
0002
0000
0000
0000
0100
0000
0203
0000
0000
0000
0310
0000
1000
0001
1000
0000
,
0100
0000
0100
0000
0100
0000
1000
0000
1000
0000
1000
0000
,
0010
0000
0100
0000
0001
0000
0001
0000
0010
0100
0000
1000
,
0100
0000
0100
0010
0000
0010
0001
0000
0001
1000
0010
0200
,
0001
0000
0000
0000
0010
0000
0320
0000
0000
0000
1030
0000
0100
0010
0100
0000
,
0000
1000
0010
0001
0000
0100
0001
1000
,
0100
1000
0001
0011
0000
0010
0100
1000
,
0001
0100
0010
1010
0000
1100
0101
0000
,
0010
0000
0000
0000
0110
0000
0000
1000
0001
0000
0100
0000
0100
0000
0000
0000
,
1000
0001
1000
0100
0001
0100
0010
0100
,
1000
0000
0010
0000
0100
0000
0000
1000
0001
0000
0010
0000
0100
0000
0000
0000
,
1000
0010
1000
0001
0100
1000
0100
0010
,
1000
0000
0000
0000
1001
0000
0000
1000
0100
0000
0010
0000
0001
0000
0000
0000
,
0010
0001
0010
1000
0001
0100
1000
0100
,
0010
0000
1000
0000
0001
0000
0000
0010
0100
0000
0001
0000
1000
0000
0000
0000
,
0010
1000
0100
0010
0001
0100
0001
1000
,
0010
0000
0000
0000
1100
0000
0000
0001
1000
0000
0010
0000
1000
0000
0100
0000
,
0010
0001
0100
0001
0010
0100
1000
0001
,
0100
0000
0010
0000
0010
0000
0000
1000
0001
0000
0100
0000
0001
0000
0000
0000
,
0010
0001
0100
0010
1000
0100
1000
0001
,
0100
0000
0000
0000
0011
0000
0000
0100
0010
0000
1000
0000
0001
0000
0000
0000
,
1000
0001
1000
0010
0100
1000
0100
0010
,
1000
0000
0001
0000
0100
0000
0000
1000
0010
0000
0100
0000
0001
0000
0000
0000
,
0010
0100
1000
0001
0100
0010
2000
0000
,
0002
0000
0000
0000
,
0000
0000
0000
3003
;

//---------------dance-single - ----------------
#NOTES:
     dance-single:
     :
     Medium:
     9:
     0.370842,0.368443,0.181109,0.513142,0.026412,344.000000,320.000000,24.000000,68.000000,0.000000,0.000000,0.370842,0.368443,0.181109,0.513142,0.026412,344.000000,320.000000,24.000000,68.000000,0.000000,0.000000:
0000
0000
0000
0000
,
0000
0000
0000
0000
,
0000
0000
0000
0000
,
0000
0000
0000
0000
,
0000
0000
0001
0100
2000
0000
3010
0200
,
0000
0000
0000
0000
0000
0000
0000
0000
0320
0000
0000
0000
0000
0000
0000
0000
0000
0000
0000
0000
0000
0000
0000
0000
2030
0000
0000
0000
0000
0000
0000
0000
0000
0000
0000
0000
0000
0000
0000
0000
3002
0000
0000
0000
0000
0000
0000
0000
0000
0000
0000
0000
0000
0003
0000
0000
0000
0000
0000
0000
0000
0000
0000
0000
,
2001
0000
3020
0200
0000
0000
0030
0000
,
0302
0100
0103
0000
0020
1000
1030
0000
,
0101
0000
0001
0000
1000
1000
0000
0020
,
0000
0230
0000
0302
0000
1000
1003
0000
,
1100
0000
0001
0002
0000
0203
0000
0320
,
0000
2030
0001
0000
3200
0010
0310
0000
,
0011
0000
0100
0020
0000
2030
0000
3200
,
0000
1300
0001
0000
1020
0000
0130
0000
,
0110
0000
0010
2000
0000
3002
0000
0023
,
0000
0100
0230
0000
1300
0000
1100
0000
,
0011
0000
0100
0000
0010
0020
0000
2030
,
0001
0000
3010
0100
0002
0000
1003
0100
,
1000
0000
0010
0200
0000
0302
0000
0023
,
0000
0031
2000
0000
3010
0100
0010
0000
,
1001
0000
1000
0200
0000
2300
0000
3002
,
0000
0013
0001
0000
0201
0000
1300
0000
,
0000
0100
0001
2000
0000
0000
3010
0020
,
0000
0230
0000
0301
1000
0001
1000
0100
,
0000
2010
0001
3100
,
1000
0001
1000
0020
0000
0000
0130
0010
,
0000
1000
0002
0000
0100
0103
0000
0000
,
0001
0010
0001
0100
0000
0010
1000
0010
,
0000
0210
1000
0301
,
0010
0001
0010
0100
0000
1000
0010
2000
,
0000
3001
0200
0000
0010
0310
0000
0000
,
1000
0001
0010
0100
0000
0010
0001
1000
,
0000
0000
0102
0000
0010
0000
1003
0001
,
0000
0001
0010
0100
0000
1000
0001
1000
,
0000
3010
2000
0000
0001
3001
0000
0000
,
1000
0010
1000
0001
0000
0001
0010
0100
,
0000
2001
0100
3001
,
0010
0001
0100
0020
0000
0000
1030
0002
,
0000
0103
0020
0000
1000
1030
0000
0000
,
0001
1000
0001
1000
0000
0100
0100
0000
,
1000
0010
0100
0010
0000
0010
0100
0010
,
0000
0010
0100
0010
0000
0010
0100
0010
,
0000
0100
0010
0100
0000
0100
0010
0100
,
0000
0100
0010
0100
0000
0000
0000
0000
,
0002
0000
0000
0000
0000
0000
1003
0010
,
1000
0000
1000
0000
1000
0000
0001
0000
0001
0000
0001
0000
,
0100
0000
0100
0000
0100
0000
0010
0000
0000
1010
0000
0000
,
0001
0000
0011
0000
1000
0001
0010
0200
,
0000
0000
0000
0000
0000
1300
0001
1000
,
0000
0120
0000
0000
1030
0001
1000
0010
,
0100
0001
0100
0001
0000
1000
0100
0000
,
1000
0001
1000
0001
0000
0100
0100
0000
,
0101
1200
0001
1300
,
0010
1000
0001
2000
0000
0000
3100
0020
,
0000
0031
0100
0000
1000
1000
0000
0000
,
0010
1000
0010
1000
0000
0100
0010
0001
,
0000
0000
1020
0000
0001
0000
0130
0010
,
0000
0001
1000
0001
0000
0100
0010
2000
,
0000
3100
1000
0000
0001
0001
0000
0000
,
0010
0001
1000
0002
0000
0000
0013
0100
,
1000
0000
1002
0000
0010
0000
0103
0002
,
0000
1003
0001
0010
0000
0110
0000
0100
,
1000
0001
1000
0000
0000
1010
0000
0000
,
1000
0010
0100
0001
0000
0001
1000
0001
,
0000
0012
0100
1003
,
0010
0100
0010
2000
0000
0000
3001
0200
,
0000
0301
0010
0000
0100
0100
0000
0000
,
1000
0010
1000
0010
0000
0100
0200
0000
,
0002
0000
0000
0000
,
0000
0000
0000
0303
;

//---------------dance-single - ----------------
#NOTES:
     dance-single:
     :
     Easy:
     6:
     0.259805,0.289491,0.120739,0.196201,0.000000,241.000000,225.000000,16.000000,26.000000,0.000000,0.000000,0.259805,0.289491,0.120739,0.196201,0.000000,241.000000,225.000000,16.000000,26.000000,0.000000,0.000000:
0000
0000
0000
0000
,
0000
0000
0000
0000
,
0000
0000
0000
0000
,
0000
0000
0000
0000
,
0000
0001
0001
0100
,
0010
0010
1000
0001
,
1001
0220
0000
0300
,
2030
3100
0002
0103
,
0010
0010
0010
0010
,
1000
0001
1000
0000
,
0100
0100
0100
0100
,
0010
0001
1000
0000
,
1100
0010
1000
0001
,
0100
0100
0101
0000
,
1010
0010
0100
0001
,
1000
1000
0001
0001
,
0011
0000
0100
1000
,
0010
1000
0001
0000
,
1000
1000
1000
1000
,
0010
0100
0001
0000
,
0101
0001
0010
0100
,
1000
1000
1010
0000
,
0010
0100
0001
1000
,
0020
0000
2030
3001
,
0100
2002
0000
3003
,
0010
1000
0100
0010
,
0001
0001
0100
0100
,
0001
0010
0100
1000
,
0010
0220
0000
0330
,
1000
0001
0010
0100
,
1000
1000
0010
0010
,
1000
0100
0010
0001
,
0100
0202
0000
0303
,
1000
0001
0010
0100
,
0010
0010
0001
0001
,
0100
0010
1000
0001
,
1000
2200
0000
3300
,
0010
0100
0001
1000
,
0100
0100
1000
1000
,
0001
0010
0100
1000
,
0001
0010
1000
0010
,
0001
0010
1000
0010
,
0001
0100
1000
0100
,
0001
0100
1000
0100
,
0002
0000
0000
0013
,
1000
1000
0001
0001
,
0020
0031
0100
0100
,
0010
1000
0100
0001
,
2000
0010
0000
3100
,
0000
1000
0000
0001
,
0010
0100
1000
0001
,
0100
0010
1000
0001
,
0010
0022
0000
0033
,
1000
0001
1000
0100
,
0010
0001
0100
0010
,
1000
0001
1000
0100
,
0010
0220
0000
0330
,
0100
0010
0001
1000
,
0010
1000
0001
0010
,
0001
0100
0010
1000
,
0100
2200
0000
3300
,
0010
1000
0100
0001
,
1000
1000
0001
0001
,
0010
0001
1000
0010
,
0100
2002
0000
3003
,
1000
0001
0010
0001
,
0010
0100
1000
0001
,
1000
0010
0100
0100
,
0002
0000
0000
0000
,
0000
0000
0000
0003
;

//---------------dance-single - ----------------
#NOTES:
     dance-single:
     :
     Beginner:
     3:
     0.144456,0.179600,0.060370,0.000000,0.000000,134.000000,126.000000,8.000000,0.000000,0.000000,0.000000,0.144456,0.179600,0.060370,0.000000,0.000000,134.000000,126.000000,8.000000,0.000000,0.000000,0.000000:
// measure 0
0000
0000
0000
0000
,  // measure 1
0000
0000
0000
0000
,  // measure 2
0000
0000
0000
0000
,  // measure 3
0000
0000
0000
0000
,  // measure 4
0000
0001
0001
0000
,  // measure 5
1000
0000
0001
0000
,  // measure 6
0100
0100
0000
0000
,  // measure 7
0110
0000
1001
0000
,  // measure 8
0000
0000
1000
0000
,  // measure 9
0010
0000
0100
0000
,  // measure 10
0000
0000
0001
0000
,  // measure 11
0010
0000
0100
0000
,  // measure 12
1000
0000
1000
0000
,  // measure 13
0010
0010
0010
0000
,  // measure 14
0100
0000
0100
0000
,  // measure 15
0001
0001
0001
0000
,  // measure 16
1001
0000
0010
0000
,  // measure 17
1000
0000
0001
0000
,  // measure 18
0000
0000
1000
0000
,  // measure 19
0100
0000
0001
0000
,  // measure 20
0010
0000
0010
0000
,  // measure 21
0100
0100
0100
0000
,  // measure 22
0000
1000
0000
0001
,  // measure 23
0000
0000
0100
0100
,  // measure 24
0000
1001
0000
0000
,  // measure 25
0010
0000
0100
0000
,  // measure 26
0001
0001
0000
0000
,  // measure 27
1000
0000
0001
0000
,  // measure 28
0100
0100
0000
0000
,  // measure 29
0010
0000
0010
0000
,  // measure 30
0001
0001
0000
0000
,  // measure 31
1000
0000
0010
0000
,  // measure 32
1000
1000
0000
0000
,  // measure 33
0001
0000
0010
0000
,  // measure 34
0100
0100
0000
0000
,  // measure 35
0010
0000
0100
0000
,  // measure 36
0010
0010
0000
0000
,  // measure 37
0001
0000
0100
0000
,  // measure 38
1000
1000
0000
0000
,  // measure 39
0010
0010
0010
0000
,  // measure 40
0000
1000
0000
1000
,  // measure 41
0000
0100
0000
0100
,  // measure 42
0000
0010
0000
0010
,  // measure 43
0000
0001
0000
0000
,  // measure 44
0110
0000
0000
0000
,  // measure 45
1000
0000
0001
0000
,  // measure 46
0010
0000
0100
0000
,  // measure 47
0010
0000
0001
0000
,  // measure 48
0110
0000
0000
1000
,  // measure 49
0000
0001
0000
0000
,  // measure 50
0010
0000
0010
0000
,  // measure 51
0001
0000
1000
0000
,  // measure 52
0000
1001
0000
0000
,  // measure 53
0010
0000
1000
0000
,  // measure 54
0100
0100
0000
0000
,  // measure 55
0001
0000
0010
0000
,  // measure 56
1000
1000
0000
0000
,  // measure 57
0001
0000
0100
0000
,  // measure 58
0010
0010
0000
0000
,  // measure 59
1000
1000
1000
0000
,  // measure 60
0000
0110
0000
0000
,  // measure 61
0001
0000
0100
0000
,  // measure 62
0010
0010
0000
0000
,  // measure 63
1000
0000
0100
0000
,  // measure 64
0001
0001
0000
0000
,  // measure 65
0010
0000
0001
0000
,  // measure 66
0100
0100
0000
0000
,  // measure 67
1000
1000
1000
0000
,  // measure 68
0001
0000
0000
0000
;
