#TITLE:Face of Chaos;
#ARTIST:Aversion;
#BANNER:Face of Chaos-bn.png;
#BACKGROUND:Face of Chaos-bg.png;
#JACKET:Face of Chaos-jacket.png;
#MUSIC:Face of Chaos.ogg;
#SAMPLESTART:108.387;
#SAMPLELENGTH:20;
#DISPLAYBPM:155;
#BPMS:0=155;
#STOPS:177=2.323,202=1.161,303=1.162;
#BGCHANGES:;

//---------------dance-single - ----------------
#NOTES:
     dance-single:
     :
     Beginner:
     5:
     :
0000
0000
0000
0000
,
0000
0000
0000
0000
,
0000
0000
0000
0000
,
0000
0000
0000
0000
,
0000
0000
0000
0000
,
0000
0000
0000
0000
,
0000
0000
0000
0000
,
0000
0000
0000
0000
,
0110
0000
0000
0000
,
0000
0000
0000
0000
,
1001
0000
0000
0000
,
0000
0000
0000
0000
,
0001
0000
0001
0000
,
1000
0000
1000
0000
,
0010
0000
0010
0000
,
0100
0000
0100
0000
,
0001
0000
0001
0000
,
1000
0000
1000
0000
,
0010
0000
0010
0000
,
0100
0000
0100
0000
,
0001
0000
0000
0000
,
0000
0000
0000
0000
,
2000
0000
0000
3000
,
1000
1000
1000
0000
,
0002
0000
0000
0003
,
0001
0001
0001
0000
,
0010
0000
0001
0000
,
0100
0000
1000
0000
,
0010
0000
0100
0000
,
0110
0000
0000
0000
,
0001
0000
1000
0000
,
0010
0010
0010
0000
,
0100
0100
0100
0000
,
0001
0000
1001
0000
,
0010
0010
0010
0000
,
1000
0000
0100
0100
,
0100
0000
0110
0000
,
1001
0000
0000
0000
,
0001
0001
0001
0000
,
1000
1000
1000
0000
,
0010
0000
0100
0000
,
0010
0010
0010
0000
,
1000
1000
1000
0000
,
0100
0100
0100
0000
,
0001
0000
2000
0000
,
0000
0000
0000
0000
,
3000
0000
0020
0000
,
0000
0000
0000
0000
,
0030
0000
0200
0000
,
0300
0000
0002
0000
,
0003
0000
0010
0000
,
0000
0000
0000
0110
,
0000
0110
0000
0110
,
0000
0000
0000
1001
,
0000
1001
0000
1001
,
0000
0000
0000
0110
,
0000
1001
0000
0110
,
0000
0000
0000
1001
,
0000
0000
0000
0000
,
0000
0000
0000
0020
,
0000
0000
0030
0010
,
0010
0010
0000
0200
,
0000
0000
0300
0100
,
0100
0100
0000
0001
,
0000
0010
0000
1000
,
0000
0100
0000
1000
,
0000
0001
0000
0110
,
0000
0000
0000
0001
,
0000
1000
0000
0001
,
0001
0001
0000
0010
,
0010
0010
0000
0001
,
0000
1000
1000
1000
,
0000
0010
0000
0100
,
0100
0100
0000
0001
,
0001
0001
0000
0010
,
0000
1000
0000
1001
,
0000
0000
0000
0000
,
0010
0010
0010
0010
,
0010
0010
0010
0000
,
1000
1000
1000
1000
,
1000
1000
1000
0000
,
0001
0000
1000
0000
,
0001
0001
0001
0001
,
0001
0000
1000
0000
,
0110
0000
0000
0000
,
1001
0000
0000
0000
;

//---------------dance-single - ----------------
#NOTES:
     dance-single:
     :
     Easy:
     7:
     :
0000
0000
0000
0000
,
0000
0000
0000
0000
,
0000
0000
0000
0000
,
0000
0000
0000
0000
,
0000
0000
0000
0000
,
0000
0000
0000
0000
,
0000
0000
0000
0000
,
0000
0000
0000
0000
,
0220
0000
0000
0000
,
0000
0030
0302
1003
,
2002
0000
0000
3000
,
0020
0000
0000
0033
,
0001
0000
1000
0010
,
1000
0000
0100
0010
,
0001
0000
0100
0001
,
1000
0000
0010
0100
,
0001
0000
0010
0100
,
1000
0000
0010
1000
,
0001
0000
1000
0100
,
0001
0000
0010
0100
,
2000
0000
3020
0000
,
0230
0000
0302
0000
,
0013
0010
0010
0010
,
0010
0010
0010
0010
,
0100
0100
0100
0100
,
1000
1000
0001
0001
,
0200
0301
0200
1300
,
0020
0031
0020
1030
,
0001
1000
0010
0100
,
0110
0000
0001
1000
,
0010
0010
1000
1000
,
0100
0010
0001
0001
,
0001
1000
0010
1000
,
1001
0100
0100
1000
,
0010
0001
0100
0100
,
0001
1000
0010
1000
,
0100
0110
1001
0000
,
0002
2003
3002
2003
,
3010
0101
1000
0001
,
0100
0010
0010
1000
,
1100
0001
0001
0001
,
1000
0001
1100
0001
,
0100
0100
0001
1000
,
0010
0100
0101
1000
,
0002
0000
2000
3000
0013
0000
0000
0000
,
0010
0000
0100
0000
,
0100
0000
1000
0000
,
0001
0000
1000
0000
,
0001
0000
1001
0000
,
0000
0000
0110
0000
,
0000
0000
2000
0002
,
3000
0100
0103
0110
,
0000
0110
0000
0110
,
0000
0001
1000
1001
,
0000
1001
0000
1001
,
0000
0010
0100
0101
,
0000
1100
0000
0101
,
0000
1000
0100
0110
,
0000
0001
0000
0001
,
0000
0001
0000
2002
,
0000
0003
0001
0100
,
0001
0100
3001
2002
,
0000
3000
1000
0100
,
1000
0100
1003
0020
,
1030
0020
0031
0200
,
1300
0200
0301
0010
,
0001
0100
1000
0110
,
0000
2000
3002
0103
,
0100
0001
1000
1001
,
0110
1001
0000
0010
,
0010
1000
1000
0001
,
1000
0100
0010
0100
,
1000
1000
1000
0001
,
1000
1100
0001
0100
,
0010
0101
1000
0001
,
0001
1000
0010
0110
,
2000
0002
3000
0010
,
0013
0001
0100
1000
,
0010
0100
0001
1001
,
1000
1000
0100
0010
,
0001
0100
0001
1000
,
0010
0101
1100
0001
,
1000
1000
0001
0100
,
0101
0000
1100
0000
,
0101
0000
1000
0001
,
1001
0000
0000
0000
;

//---------------dance-single - ----------------
#NOTES:
     dance-single:
     :
     Medium:
     10:
     :
0000
0000
0000
0000
,
0000
0000
0000
0000
,
0000
0000
0000
0000
,
0000
0000
0000
0000
,
0000
0000
0000
0000
,
0000
0000
0000
0000
,
0000
0000
0000
0000
,
0000
0000
0000
0000
,
2020
0000
0000
0000
,
0000
0030
0001
3001
,
0202
0000
0000
0300
,
2003
0001
0002
3003
,
0010
0000
0000
0001
0000
0000
1000
0000
1000
0000
0010
0000
0100
0000
0000
0000
,
0001
0000
0000
1000
0000
0000
0100
0000
0100
0000
0010
0000
0001
0000
0000
0000
,
0100
0000
0000
0010
0000
0000
1000
0000
1000
0000
0001
0000
0100
0000
0000
0000
,
0010
0000
0000
1000
0000
0000
0100
0000
0100
0000
1000
0000
0001
0000
0000
0010
,
0001
0000
0000
0100
0000
0000
0010
0000
0010
0000
1000
0000
0001
0000
0000
1000
,
0100
0000
0000
0010
0000
0000
0001
0000
1000
0000
0000
0000
1000
0000
0100
0000
,
0001
0000
0000
0010
0000
0000
0001
0000
1000
0000
0100
0000
1000
0000
0001
0000
,
1000
0000
0000
0110
0000
0000
0000
0000
1001
0000
0000
0001
0100
0000
0010
0000
,
2000
0100
3200
0010
,
0320
0001
0032
1000
,
2003
3020
0230
0302
,
0013
0001
0010
0001
0010
0100
1000
0000
,
0002
0023
0230
2300
,
3010
1000
0010
1000
0200
0000
1300
0001
,
0021
0000
0031
0100
0201
0000
0310
1000
,
1020
0000
1030
0100
2100
0000
3001
0010
,
0001
0000
0000
1000
0000
0000
0100
0000
1000
0000
0000
0001
0000
0000
0100
0000
,
0020
0000
0000
1000
2030
0000
3002
0000
,
0013
0010
0001
1000
,
1001
0000
0110
0000
1000
0010
1000
0001
,
0100
0100
0010
1000
,
0002
0000
1003
0000
2100
0000
3001
1000
,
0010
1000
0100
0000
0011
0000
1000
0000
,
0001
0000
0001
0000
0001
0010
0100
1000
,
1001
0000
1000
0100
0220
0000
0300
0000
,
0001
0000
0000
0000
1000
0000
0000
0000
0001
0000
0000
0000
1030
0000
0010
0100
,
0010
0000
0000
0001
1000
0000
0000
0000
1100
0000
0000
0000
1100
0000
0000
0000
,
1100
0000
0001
1000
1000
0010
0100
0000
,
0102
1003
1010
1010
,
1000
0000
0100
0000
0020
0000
0000
0000
0000
0000
0000
0000
0031
1000
0000
0001
,
1000
0100
0100
0000
0011
0000
0011
0000
,
1001
0000
0110
0000
1000
0001
0010
0100
,
2000
0000
0002
0003
3020
0000
0030
0000
,
0020
0030
0200
0300
,
0200
0300
0002
0003
,
0002
0003
2000
3000
,
2000
3000
2200
0300
,
0000
3001
0022
0030
,
1003
0010
1000
0001
0200
0000
0020
0000
,
0000
0000
0300
1030
0100
0000
1100
0000
,
0000
1100
0000
1100
,
0000
0000
0001
1000
0001
1000
0101
0000
,
0000
0101
0000
0101
,
0000
0000
0010
0100
0010
0000
1100
0000
,
0000
0101
0000
1100
,
0000
0000
0001
1000
0010
0100
0002
0000
,
1000
0200
0300
2000
,
3000
0200
0303
2002
,
0000
0000
0003
0000
3001
1000
0010
0100
,
0001
1000
0010
0100
0000
0000
2002
0000
,
0000
0000
3000
0000
1003
0001
0100
0010
,
1000
0001
0100
0010
1000
0001
0020
0000
,
0031
1000
0002
0000
0013
0100
2000
0000
,
3001
0000
1000
0000
0200
0000
0000
0000
0310
0000
0001
0000
1000
0000
0000
0010
,
0000
0000
1000
0000
0001
0000
0000
0010
0000
0000
0001
0000
0202
0000
0000
0000
,
0300
1000
2003
0000
3002
0000
0013
0100
,
0010
0100
0010
0100
0010
0100
1000
0000
,
1000
1000
0000
1100
,
0110
0011
0101
1001
,
1010
0000
1000
0100
0010
0001
0101
0000
,
1010
0110
1001
1100
,
0011
0000
0000
1000
0001
0000
0100
0000
0001
0000
0100
0000
0010
0000
0000
1000
,
0100
1000
0001
0000
0001
0000
1001
0000
,
1001
0000
1000
0010
1000
0001
0200
0001
,
0302
0000
2003
0000
3020
0000
1030
0100
,
0010
0011
0101
1001
,
1010
0000
0000
0000
1100
0000
0000
0000
0110
0000
0000
0001
1000
0000
0001
0000
,
0100
0010
0010
0000
1001
0000
0110
0000
,
1001
0000
0110
0000
1000
0010
0001
0100
,
1000
0000
0000
0001
1000
0000
0100
0000
0010
0000
0000
0000
0001
0000
0000
0000
,
0101
0000
1100
0000
0001
1000
0001
0100
,
0020
1030
0020
0031
,
0020
0000
0000
1000
2030
0000
3002
0000
,
0203
0000
0000
0000
,
0000
0000
0000
0300
;

//---------------dance-single - ----------------
#NOTES:
     dance-single:
     :
     Hard:
     13:
     :
0000
0000
0000
0000
,
0000
0000
0000
0000
,
0000
0000
0000
0000
,
0000
0000
0000
0000
,
0000
0000
0000
0000
,
0000
0000
0000
0000
,
0000
0000
0000
0000
,
0000
0000
0000
0000
,
2020
0000
0000
0000
,
0000
0030
0001
3100
,
0202
0000
0000
0000
0000
0000
0300
1000
,
1003
0001
1000
0100
0010
0001
0100
0000
,
0110
0000
0001
1000
0000
0000
0100
0000
0100
0000
0010
0000
0001
0000
1000
0010
,
1000
0000
0000
0101
0000
0000
0010
0000
1000
0001
1000
0001
1000
0000
0100
0000
,
0010
0000
0001
1000
0000
0000
0010
0000
1000
0000
0100
0000
0100
0000
1000
0001
,
1000
0000
0000
0011
0000
0000
0001
0100
0001
0000
0000
0010
0100
0000
1000
0010
,
1000
0000
0100
0010
0000
0000
0001
0000
0001
0000
0100
0000
0010
0000
1000
0100
,
1000
0000
0000
0001
0000
0000
0010
0000
1001
0000
0000
0000
0100
0000
1000
0001
,
1000
0000
0010
0100
0000
0000
0001
0010
0001
0000
1000
0000
0010
0000
0100
0001
,
0100
0000
0000
1010
0000
0000
1000
0000
0011
0000
0000
0001
0100
0000
0010
1000
,
0010
0100
0020
0000
1030
0001
2000
0000
,
3100
0010
0200
0000
1300
0001
2000
0000
,
3020
2030
3200
0302
,
1003
1000
0001
0001
0010
0001
0100
0000
,
0020
0032
0203
2300
,
3001
0000
1000
0000
0010
0000
1000
0000
0100
0000
0010
0000
0001
0000
1000
0100
,
1000
0000
0000
0010
0100
0000
0001
0000
0010
0000
0000
0001
0100
0000
1000
0000
,
0001
0000
0000
1000
0100
0000
0010
0000
0100
0000
0000
1000
0001
0000
0010
0000
,
0001
0000
1000
0100
0000
1000
0100
0000
0010
0000
0001
1000
0000
0001
1000
0000
,
2200
0000
0300
0001
3001
0000
1000
0000
,
1001
0101
1010
1100
,
0110
0000
0000
0000
0011
0000
0000
0000
1000
0000
1000
0000
1000
0010
1000
0010
,
1000
0101
1010
1100
,
0002
0000
0000
0000
0023
0000
0000
0000
0230
0000
0000
0000
1300
0001
1000
0000
,
0010
0010
0100
0000
1001
0000
0110
0000
,
1010
0000
0000
0000
0101
0000
0000
0000
0010
0000
0010
0000
0010
0001
0010
0001
,
0010
0000
0000
0000
0001
0100
0001
0100
0002
0000
0000
0000
0003
0000
0000
0000
,
2000
0000
0000
0000
3200
0000
0000
0000
0310
0000
0001
1000
0001
1000
0001
1000
,
0001
0000
0000
1000
0100
0000
0000
0000
0011
0000
0000
0000
1100
0000
0000
0000
,
0011
0000
0000
0000
0100
0000
0100
0000
0100
0000
0001
0000
0001
1000
0001
1000
,
0001
1010
0110
1010
,
0001
0000
0001
0000
0001
0000
1000
0000
0010
0000
0000
0000
1000
0100
1000
0100
,
1000
0001
0001
0000
0101
0000
0011
0000
,
0110
0000
0000
0000
1100
0000
0000
0000
0010
0000
0010
0000
1000
0001
1000
0001
,
2000
0000
0002
0003
3020
0000
0000
0000
,
2030
0000
3200
0000
,
0320
0000
0031
0100
,
0001
1000
0100
0010
,
0002
0000
0003
0001
2000
0000
0000
0000
,
0000
0000
3020
0000
0230
0000
0301
1000
,
0001
0010
0100
1000
0020
0000
2030
0000
,
3002
0023
0130
1100
,
0000
1100
0000
1100
,
0000
0000
1000
0010
0001
0100
0101
0000
,
0000
0101
0000
0101
,
0000
0000
0001
0010
1000
0000
1100
0000
,
0000
0101
0000
1100
,
0000
0000
0001
0010
1000
0100
1010
0000
,
0002
2000
0003
0020
,
0030
0020
3030
2001
,
0001
0000
0001
0000
3001
0100
1000
0100
,
0010
0100
1000
0100
0001
0000
1002
0000
,
1000
0000
1000
0000
1003
0100
0001
0100
,
0010
0000
0100
0000
0001
0000
0100
0000
1000
0000
0010
0100
0010
0000
0000
1000
,
0001
0100
0010
1000
0100
0010
0001
0100
,
1000
0000
0100
0000
0001
0000
0010
0000
1000
0000
0010
0000
0100
0000
1000
0010
,
0000
1000
0010
0000
0100
0000
0001
1000
0000
0001
0100
0000
0220
0000
0000
0000
,
0030
0001
0302
0000
2003
0000
3010
1000
,
0010
1000
0010
1000
0010
1000
0001
0000
,
0001
0000
0001
1000
0100
0000
0011
0000
,
1100
0000
0101
0000
1100
0000
0001
0100
,
1000
0100
0010
0100
0001
0001
0001
0000
,
1001
0101
1010
1100
,
0011
0000
0000
1000
0010
0000
0010
0000
0100
0000
0001
0000
0010
0000
0000
0001
,
1000
1000
1010
0000
0101
0000
1001
0000
,
0110
0000
0000
0000
1000
0010
1000
0010
1000
0000
1000
0000
1200
0000
1000
0000
,
2300
0000
0000
0000
3002
0000
0000
0000
0023
0000
0000
0000
0031
1000
0001
1000
,
0001
1001
1100
0011
,
0100
0000
0001
0000
0100
0000
1000
0000
0100
0000
0001
0010
0001
0000
1000
0000
,
0100
0100
0100
0000
1010
0000
0011
0000
,
1100
0000
0000
0000
0101
0000
0000
0000
1000
0000
1000
0000
0001
0000
1000
0001
,
1000
0000
0000
0010
0100
0000
0001
0000
0011
0000
0000
0000
1001
0000
0000
0000
,
0110
0000
0000
0000
1001
0000
0000
0000
1000
0010
1000
0010
1000
0000
1000
0000
,
1200
0301
1200
0301
,
0020
0000
0000
0001
0032
0000
2003
0000
,
3200
0000
0000
0000
,
0000
0000
0000
0300
;
