#TITLE:FREE;
#ARTIST:NM PRESENTS;
#BANNER:FREE.png;
#BACKGROUND:FREE-bg.png;
#JACKET:FREE-jacket.png;
#MUSIC:FREE.ogg;
#SAMPLESTART:27.534;
#SAMPLELENGTH:20;
#DISPLAYBPM:148;
#BPMS:0=148;
#BGCHANGES:;

//---------------dance-single - ----------------
#NOTES:
     dance-single:
     :
     Beginner:
     2:
     :
0000
0000
0000
0000
,
0000
0000
0000
0000
,
0000
0000
0000
0000
,
0000
0000
0000
0000
,
0000
0000
0000
0000
,
0001
0000
0000
0000
,
1000
0000
0000
0000
,
0001
0000
0100
0000
,
1000
0000
0000
0000
,
0010
0000
0001
0000
,
1000
1000
1000
0000
,
0001
0000
0000
0000
,
0010
0010
0010
0000
,
1000
0000
0000
0000
,
0001
0000
0000
0000
,
1000
0000
0001
0000
,
1001
0000
0000
0000
,
0001
0000
1000
0000
,
0010
0000
1000
0000
,
0001
0000
0000
0000
,
0100
0000
0010
0000
,
1000
0000
0001
0000
,
1001
0000
0000
0000
,
0010
0000
0010
0000
,
0000
0000
0000
0000
,
0100
0100
0000
0000
,
0000
0001
0000
0000
,
0010
0010
0000
0000
,
0000
1000
0000
0000
,
0010
0000
0000
0000
,
0000
1000
0000
0000
,
0100
0000
0000
0000
,
0000
0001
0000
0000
,
0000
0000
0000
0000
,
1000
0000
0001
0000
,
0100
0000
0001
0000
,
1000
0000
0000
0000
,
0010
0000
0100
0000
,
0001
0000
1000
0000
,
1001
0000
0000
0000
,
0100
0000
0100
0000
,
0000
0000
0000
0000
,
1000
0000
1000
0000
,
1000
0000
0100
0000
,
0001
0000
0100
0000
,
0010
0000
0100
0000
,
1000
0000
0001
0000
,
1001
0000
0000
0000
,
0100
0000
0100
0000
,
0100
0000
0010
0000
,
0001
0000
1000
0000
,
1001
0000
0000
0000
,
0010
0000
0010
0000
,
0000
0000
0000
0000
,
0010
0000
1000
0001
,
1000
0000
0000
0000
;

//---------------dance-single - ----------------
#NOTES:
     dance-single:
     :
     Easy:
     5:
     :
0000
0000
0000
0000
,
0000
0000
0000
0000
,
0000
0000
0000
0000
,
0000
0000
0000
0000
,
0000
0000
0000
0000
,
0001
0000
0010
0000
,
1000
0000
0100
0000
,
0001
1000
0001
0000
,
1000
0001
0100
0000
,
1000
0000
0001
0000
,
1000
0100
0010
0000
,
0100
0000
0010
0000
,
0001
0001
0010
0000
,
0100
0000
0100
0000
,
0010
0100
0010
0000
,
1000
0001
1000
0001
,
1001
0000
0000
0000
,
0010
1000
0200
0300
,
0001
0001
0200
0300
,
1000
0000
1000
0000
,
0002
0003
0020
0030
,
0001
0100
1000
0000
,
0001
0000
1001
0000
,
0100
1000
0020
0000
,
0000
0000
0000
0030
,
1000
1000
0100
0000
,
0001
0000
0010
0000
,
0001
0001
0100
0000
,
1000
0000
0010
0000
,
0001
0001
0000
0000
,
1000
0000
0100
0000
,
1000
1000
0000
0000
,
0001
0000
0100
0000
,
0000
0000
0000
0000
,
0100
0001
0020
0030
,
1000
1000
0020
0030
,
0001
0000
0001
0000
,
2000
3000
0200
0300
,
1000
0010
0001
0000
,
1000
0000
1001
0000
,
0010
0001
0200
0000
,
0000
0000
0300
0000
,
1000
0100
0010
0100
,
1000
0001
0100
0001
,
1000
0010
1000
0001
,
2000
3000
0020
0030
,
1000
0100
0001
0000
,
0010
0000
0110
0000
,
0100
0001
1000
0000
,
0002
0003
0200
0300
,
0001
0010
1000
0000
,
0100
0000
0110
0000
,
0010
2000
0002
0000
,
0000
0000
0000
3003
,
0001
0010
0100
1000
,
0001
0000
0000
0000
;

//---------------dance-single - ----------------
#NOTES:
     dance-single:
     :
     Medium:
     8:
     :
0000
0000
0000
0000
,
0000
0000
0000
0000
,
0000
0000
0000
0000
,
0000
0000
0000
0000
,
0000
0000
0000
0000
,
0001
0000
0010
1000
0000
0010
0100
0000
,
1000
0000
0100
0001
0000
0100
0010
0000
,
0001
1000
0010
1000
,
0100
0001
1000
0000
,
1000
0000
0100
0000
0010
0001
0000
0010
,
0000
0100
0000
0010
0000
1000
0000
0010
,
0001
0010
0000
0100
0000
1000
0000
0100
,
0000
0001
0000
0100
0000
1000
0000
0001
,
0100
1000
0100
0001
,
0100
0001
1000
0000
0100
1000
0001
0000
,
1100
0000
0011
0100
,
1000
0000
0000
0010
0000
0000
1000
0000
0001
0000
0000
0000
0000
0000
0000
0000
,
1000
0010
0100
0000
1000
0000
0100
0000
,
1000
0000
0010
0000
0100
0100
0010
0000
,
0001
0000
0100
0000
0001
0100
1000
0000
,
0100
0020
0130
0002
,
1003
0100
0001
0010
,
0100
0101
0001
1100
,
0001
2000
0200
0000
,
0000
0000
0000
3300
,
0001
0100
0001
0000
0100
0000
0010
0000
,
0100
0001
0010
0100
,
1000
0100
1000
0000
0100
0000
0010
0000
,
0100
1000
0010
0100
,
1000
1000
0100
0010
,
0100
0000
0010
0100
,
0001
0001
0100
0010
,
0100
0000
0010
0100
,
0000
0000
0000
0000
,
0001
0100
0010
0000
0001
0000
0010
0000
,
0001
0000
0100
0000
0010
0010
0100
0000
,
1000
0000
0010
0000
1000
0010
0001
0000
,
0010
0200
0310
2000
,
3001
0010
1000
0100
,
0010
1010
1000
0011
,
1000
0002
0020
0000
,
0000
0000
0033
0000
,
0001
0100
0001
1000
,
1000
1100
0001
0101
,
1000
0100
1000
0001
,
0010
0100
0010
0012
,
1003
0100
0001
0010
,
0100
0101
0001
1100
,
1000
0001
0100
0000
,
0100
0010
0100
2100
,
3001
0010
1000
0100
,
0010
1010
1000
0011
,
0010
0200
0020
0000
,
0000
0000
0000
0330
,
2010
3100
0012
0103
,
1001
0000
0000
0000
;

//---------------dance-single - ----------------
#NOTES:
     dance-single:
     :
     Hard:
     10:
     :
0000
0000
0000
0000
,
0000
0000
0000
0000
,
0000
0000
0000
0000
,
0000
0000
0000
0000
,
0000
0000
0000
0000
,
0100
0000
0010
0100
0001
0010
0100
0000
,
0010
0000
0100
0010
1000
0100
0010
0000
,
0001
0000
1000
0100
1000
0000
0011
0000
,
0001
0010
0001
0000
1000
0000
0101
0000
,
1000
0100
1000
0001
0000
0010
0000
0100
,
1000
0100
0000
0010
0000
0001
0000
0100
,
0001
0010
0000
0100
0000
0010
0000
0001
,
1000
0010
0000
0100
0010
0100
0000
1000
,
0010
0100
0001
0000
0010
0100
0001
0000
,
0100
0010
1000
0010
0100
0010
1000
0000
,
0101
0100
1100
0100
,
1010
0000
0000
0011
0000
0000
1000
0000
0001
0000
0000
0000
0000
0000
0000
0000
,
1000
0100
0010
0001
1000
0000
0100
0001
,
1000
1000
0010
0000
1000
1000
0100
0010
,
0001
0100
0010
0100
0001
0100
0010
1000
,
0100
1020
0130
0011
,
1000
0100
1000
0010
1000
0100
0010
0001
,
0001
2100
3010
0201
,
0310
0000
1000
0200
0020
0000
0000
0000
,
0000
0000
0000
0330
,
0001
1000
0001
0000
0010
0000
1000
0010
,
0100
0010
1000
0000
0001
0000
1000
0100
,
1000
0001
1000
0000
0100
0000
0001
0100
,
0010
0100
0001
0000
1000
0000
0001
0010
,
1000
0000
1000
0000
0010
0000
0001
0010
,
0100
0010
0001
0000
1000
0000
0001
0000
,
0001
0000
0001
0000
0100
0000
1000
0100
,
0010
0100
1000
0000
0001
0000
1000
0000
,
0100
0000
0000
0000
,
0001
0100
0010
1000
0001
0000
0100
1000
,
0001
0001
0010
0000
0001
0001
0100
0010
,
1000
0100
0010
0100
1000
0100
0010
0001
,
0100
0021
0130
1010
,
0001
0100
0001
0010
0001
0100
0010
1000
,
1000
0102
0013
1200
,
0310
0000
0001
0200
0020
0000
0000
0000
,
0000
0000
0330
0000
,
0001
0000
1000
0100
0010
0000
1000
0010
,
0011
0000
0001
0100
1100
0000
0001
0100
,
0010
0000
0100
0010
0100
1000
0100
0010
,
0100
1020
0130
0011
,
1000
0100
1000
0000
1000
0100
0010
0000
,
0002
1003
1020
0130
,
0010
0000
0001
0100
0010
0000
0000
0000
,
0010
0201
0310
1100
,
0001
0010
0001
0000
0001
0010
0100
0000
,
2000
3001
0201
0310
,
0100
0000
1000
0020
0200
0000
0030
0000
,
0001
0000
1000
0000
0010
0000
0301
0010
,
0200
1000
0310
0001
0020
1000
0130
0001
,
1000
0000
0000
0000
;

//---------------dance-single - ----------------
#NOTES:
     dance-single:
     :
     Challenge:
     13:
     :
0000
0000
0000
0000
,
0000
0000
0000
0000
,
0000
0000
0000
0000
,
0000
0000
0000
0000
,
0000
0000
0000
0000
,
0001
0000
0100
0000
1000
0000
0001
0100
0001
0000
1000
0000
0000
0000
0000
0000
,
1000
0000
0100
0000
0001
0000
1000
0100
1000
0000
0001
0000
0000
0000
0000
0000
,
0010
0001
0100
0010
1000
0100
1000
0001
,
1000
0010
0100
0001
0010
0100
1000
0001
,
1000
0010
0100
0010
0001
0010
1000
0001
,
0000
0100
0010
0100
0001
0010
0001
1000
,
0100
0001
0100
1000
0010
0100
0001
1000
,
0000
0000
0100
0000
1000
0000
0010
0000
1000
0001
1000
0000
0100
0000
0010
0000
,
0001
0100
0010
0100
1000
0100
0001
0010
,
0100
0001
0100
0010
0100
1000
0001
0000
,
1001
0000
0010
1000
0100
0010
0001
0100
,
0110
0000
0000
0001
0000
0000
1000
0000
1100
0000
0000
0000
1100
0000
0000
0000
,
1001
0010
0100
1000
0010
1000
0100
0001
,
0010
0100
0010
0001
0100
0010
1000
0001
,
1000
0000
0010
0000
0100
0000
0001
0000
0010
0000
0000
0000
0001
0000
1000
0100
,
1000
0010
0100
0010
1000
0001
0010
0001
,
1000
0000
0010
0000
0100
0000
0010
0000
1000
0001
1000
0000
0100
0000
0010
0001
,
0010
0100
1000
0010
1000
0001
1000
0100
,
0010
0000
0001
0000
0100
0000
0010
0000
1000
0100
1000
0000
0001
0000
1000
0000
,
0010
0000
1000
0100
0000
0000
0010
0000
0001
0100
0000
0000
0001
0000
1000
0000
,
0010
1000
0100
0010
0001
0001
0100
0101
,
0000
1100
0000
0101
0000
1000
0010
0001
,
0100
0010
0100
0001
1000
1000
0010
1010
,
0000
0011
0000
1010
0000
0001
0100
1000
,
0010
0000
0100
0000
0010
0000
1000
0001
0000
0000
0100
0000
0100
0000
0000
0000
,
0010
0000
1000
0000
0100
0000
0010
0000
0001
0000
0100
0000
0001
0000
1000
0010
,
1000
0001
0100
1000
0100
0010
0100
0001
,
0010
0000
0001
0000
0100
0010
0100
0000
0010
1000
0010
0000
1000
0001
1000
0000
,
0010
0100
0000
0010
0100
0000
0010
0100
0000
0010
0100
0000
0000
0000
0000
0000
,
1001
0100
0001
0010
1000
0001
1000
0100
,
0001
0100
0010
0001
0100
1000
0001
1000
,
0010
0000
1000
0000
0001
0000
1000
0000
0100
0000
0010
0000
0100
0000
1000
0001
,
1000
0010
0100
1000
0100
0010
1000
0001
,
0010
0000
0001
0000
1000
0000
0001
0000
0100
0010
0100
0000
0001
0000
1000
0100
,
1000
0000
0010
0000
1000
0000
0001
0000
0010
0100
0010
0000
0001
0000
1000
0000
,
0010
0000
1000
0000
0001
0000
1000
0000
0100
1000
0100
0000
0010
0000
0001
1000
,
0001
0000
0000
0000
0010
0000
0001
0100
0001
0000
1000
0000
0010
0000
1000
0000
,
0100
0010
0100
1000
0010
0001
0010
1000
,
0001
1000
0100
0001
0100
0010
0100
0001
,
0100
0000
1000
0000
0001
0000
0010
0000
1000
0000
0010
0000
0100
0000
1000
0001
,
1000
0000
0010
0000
0100
0000
0010
0000
1000
0000
0001
0000
0010
0000
0001
0100
,
0001
0000
0010
0000
0001
0000
0100
0000
1000
0001
1000
0000
0010
0000
1000
0100
,
1000
0001
1000
0010
0001
0010
1000
0100
,
0001
0000
0010
0000
0001
0000
0100
0000
1000
0010
1000
0000
0100
0000
0010
0001
,
0010
0100
0010
0001
0100
1000
0001
0000
,
0011
0000
1000
0000
0010
0000
1000
0000
0100
0010
0100
0000
1000
0000
0001
0100
,
0001
0010
1000
0010
0100
0010
1000
0010
,
0001
0000
0100
0000
0010
0000
1000
0000
0001
0010
0001
0000
0100
0000
0010
0000
,
1010
0000
0000
0000
0100
0000
1100
0000
0000
0000
0001
0000
1000
0100
1000
0000
,
0010
0001
0010
1000
0100
0001
0100
1000
,
0220
0000
0000
0000
,
0000
0000
0000
0330
;
