#VERSION:0.83;
#TITLE:FOOTLOOSE;
#SUBTITLE:;
#ARTIST:BUS STOP;
#TITLETRANSLIT:;
#SUBTITLETRANSLIT:;
#ARTISTTRANSLIT:;
#GENRE:;
#ORIGIN:;
#TAGS:;
#CREDIT:;
#BANNER:FOOTLOOSE-bn.png;
#BACKGROUND:FOOTLOOSE-bg.png;
#PREVIEWVID:;
#JACKET:FOOTLOOSE-jacket.png;
#CDIMAGE:;
#DISCIMAGE:;
#LYRICSPATH:;
#CDTITLE:;
#MUSIC:FOOTLOOSE.ogg;
#OFFSET:0.000000;
#SAMPLESTART:66.000000;
#SAMPLELENGTH:20.000000;
#SELECTABLE:YES;
#DISPLAYBPM:160.000000;
#BPMS:0.000000=160.000000;
#STOPS:;
#DELAYS:;
#WARPS:;
#TIMESIGNATURES:0.000000=4=4;
#TICKCOUNTS:0.000000=4;
#COMBOS:0.000000=1;
#SPEEDS:0.000000=1.000000=0.000000=0;
#SCROLLS:0.000000=1.000000;
#FAKES:;
#LABELS:0.000000=Song Start;
#BGCHANGES:;
#KEYSOUNDS:;
#ATTACKS:
;

//---------------dance-single - ----------------
#NOTEDATA:;
#CHARTNAME:;
#CHARTHASH:452950340:
#STEPSTYPE:dance-single;
#BANNER:;
#DESCRIPTION:;
#CHARTSTYLE:;
#DIFFICULTY:Beginner;
#METER:3;
#METERF:0.000000;
#RADARVALUES:0.172282,0.227510,0.136848,0.017106,0.000000,141.000000,125.000000,16.000000,2.000000,0.000000,0.000000,0.000000,0.000000,0.000000,0.172282,0.227510,0.136848,0.017106,0.000000,141.000000,125.000000,16.000000,2.000000,0.000000,0.000000,0.000000,0.000000,0.000000;
#CREDIT:;
#DISPLAYBPM:160.000000;
#NOTES:
// measure 0
0000
0000
0000
0000
,  // measure 1
0000
0000
0000
0000
,  // measure 2
0000
0000
0000
0000
,  // measure 3
0000
0000
0000
0001
,  // measure 4
0001
0000
0000
0100
,  // measure 5
0000
0100
0000
0010
,  // measure 6
0000
0010
0000
1000
,  // measure 7
0000
0001
0001
0000
,  // measure 8
1001
0000
0000
0000
,  // measure 9
0000
0000
0000
0000
,  // measure 10
0001
0000
1000
0000
,  // measure 11
0010
0010
0010
0000
,  // measure 12
0110
0000
0000
0000
,  // measure 13
0001
0000
0001
0000
,  // measure 14
0000
0100
0100
0000
,  // measure 15
0010
0000
0010
0000
,  // measure 16
0000
1000
1000
0000
,  // measure 17
0100
0000
0100
0000
,  // measure 18
0000
0001
0001
0000
,  // measure 19
1000
0000
1000
0000
,  // measure 20
0000
0010
0010
0000
,  // measure 21
1000
0000
0100
0000
,  // measure 22
0001
0000
0010
0000
,  // measure 23
0001
0000
0100
0000
,  // measure 24
1000
0000
0001
0000
,  // measure 25
0010
0000
0001
0000
,  // measure 26
0100
0000
0010
0000
,  // measure 27
1000
0000
0100
0000
,  // measure 28
0001
0000
1000
0000
,  // measure 29
0110
0000
0000
0000
,  // measure 30
0001
0000
1000
0000
,  // measure 31
1001
0000
0000
0000
,  // measure 32
0010
0000
0100
0000
,  // measure 33
0001
0000
0001
0000
,  // measure 34
1000
0000
1000
0000
,  // measure 35
0010
0000
0010
0000
,  // measure 36
0100
0100
0100
0000
,  // measure 37
1001
0000
0000
0000
,  // measure 38
1000
0000
0100
0000
,  // measure 39
0110
0000
0000
0000
,  // measure 40
0010
0000
0001
0000
,  // measure 41
2000
0000
3000
0000
,  // measure 42
0002
0000
0003
0000
,  // measure 43
1000
0000
0001
0000
,  // measure 44
1001
0000
0000
0000
,  // measure 45
0110
0000
0000
0010
,  // measure 46
0010
0000
0000
0000
,  // measure 47
1000
0000
0001
0000
,  // measure 48
0110
0000
0000
0000
,  // measure 49
1001
0000
0000
1000
,  // measure 50
1000
0000
0000
0000
,  // measure 51
0001
0000
0010
0000
,  // measure 52
0110
0000
0000
0000
,  // measure 53
1001
0000
0000
0100
,  // measure 54
0100
0000
0000
0000
,  // measure 55
0010
0000
1000
0000
,  // measure 56
1001
0000
0000
0000
,  // measure 57
0110
0000
0000
0010
,  // measure 58
0010
0000
0000
0000
,  // measure 59
1000
0000
0001
0000
,  // measure 60
0010
0000
0000
0000
,  // measure 61
0001
0000
0100
0000
,  // measure 62
0000
1000
1000
0000
,  // measure 63
0010
0000
1000
0000
,  // measure 64
0000
0100
0100
0000
,  // measure 65
0010
0000
0001
0000
,  // measure 66
0000
1000
1000
0000
,  // measure 67
0001
0000
0100
0000
,  // measure 68
0000
0010
0010
0000
,  // measure 69
1000
0000
1000
0000
,  // measure 70
1000
0000
0000
0000
,  // measure 71
0001
0000
0001
0000
,  // measure 72
0001
0000
0000
0000
,  // measure 73
0100
0000
0100
0000
,  // measure 74
0100
0000
0000
0000
,  // measure 75
0110
0000
0000
0000
,  // measure 76
1001
0000
0000
0000
;

//---------------dance-single - ----------------
#NOTEDATA:;
#CHARTNAME:;
#CHARTHASH:494382047:
#STEPSTYPE:dance-single;
#BANNER:;
#DESCRIPTION:;
#CHARTSTYLE:;
#DIFFICULTY:Easy;
#METER:6;
#METERF:0.000000;
#RADARVALUES:0.293246,0.365748,0.171060,0.307908,0.000000,240.000000,220.000000,20.000000,36.000000,0.000000,0.000000,0.000000,0.000000,0.000000,0.293246,0.365748,0.171060,0.307908,0.000000,240.000000,220.000000,20.000000,36.000000,0.000000,0.000000,0.000000,0.000000,0.000000;
#CREDIT:;
#DISPLAYBPM:160.000000;
#NOTES:
0000
0000
0000
0000
,
0000
0000
0000
0000
,
0000
0000
0000
0000
,
0000
0000
0000
0110
,
1001
0010
0000
0100
,
0000
0001
0000
1000
,
0000
0100
0000
0010
,
0000
0002
2003
3010
,
0110
0001
0000
1000
,
0000
0010
0000
0100
,
0001
0001
1000
1000
,
0010
1000
0100
0001
,
0220
0000
0000
0330
,
0001
0000
0000
1000
0000
0000
0010
0000
,
0000
2000
0002
3003
,
0010
0000
0000
0001
0000
0000
0100
0000
,
0000
0020
2000
3030
,
1000
0000
0000
0100
0000
0000
0010
0000
,
0000
0002
0020
0033
,
0100
0000
0000
0001
0000
0000
1000
0000
,
0000
0020
0200
0330
,
0001
0010
1000
0001
,
1000
0010
0100
0100
,
0001
0010
1000
0001
,
1000
0010
0100
0001
,
0010
0010
0001
0100
,
1000
0001
0100
0010
,
1000
0100
0010
0001
,
1000
0001
0100
0010
,
0000
1000
0010
0100
,
0002
0000
0000
2000
0000
0000
3003
0000
,
0000
0001
0010
0100
,
1000
1000
0001
0100
,
0110
0000
0010
1000
,
0100
0000
0001
1000
,
0001
0000
0010
0100
,
1000
1001
0010
0100
,
0000
0001
0100
1000
,
0020
0000
0000
0200
0000
0000
0330
0000
,
0000
0001
1000
0010
,
0100
0010
1000
0001
,
0010
0001
0100
0000
,
0010
1000
0100
0000
,
0001
0100
1000
0000
,
1001
0010
0010
0010
,
1001
0000
0000
0010
,
0110
0000
1000
0000
,
0001
0001
1000
0100
,
0110
0000
0000
0001
,
1001
0000
0000
1000
,
0110
0001
1000
0000
,
0010
0010
0100
0100
,
0110
0000
0002
2003
,
3010
0000
0000
1000
,
1001
0000
0000
0010
0000
0000
0000
0000
,
1000
0100
0010
0001
,
1001
0100
0100
0000
,
1001
1000
0000
0001
,
0110
0100
0000
0010
,
0100
0100
0010
1000
,
0220
0000
0000
0330
,
0001
0000
0000
1000
0000
0000
0010
0000
,
0000
2000
0200
3300
,
1000
0000
0000
0010
0000
0000
0001
0000
,
0000
0200
0002
0303
,
0010
0000
0000
0100
0000
0000
1000
0000
,
0000
0002
0020
0033
,
1000
0000
0000
0100
0000
0000
0001
0000
,
0000
0200
0020
0330
,
1000
0100
0001
1000
,
0010
0001
0200
0320
,
0031
0010
1000
0001
,
0100
1000
0002
2003
,
3010
1000
0100
0010
,
0001
0100
0020
2030
,
3001
0001
0001
1001
,
0220
0000
0000
0000
,
0000
0000
0000
0330
;

//---------------dance-single - ----------------
#NOTEDATA:;
#CHARTNAME:;
#CHARTHASH:2047296851:
#STEPSTYPE:dance-single;
#BANNER:;
#DESCRIPTION:;
#CHARTSTYLE:;
#DIFFICULTY:Medium;
#METER:10;
#METERF:0.000000;
#RADARVALUES:0.458197,0.531997,0.410544,0.547392,0.000000,375.000000,327.000000,48.000000,64.000000,0.000000,0.000000,0.000000,0.000000,0.000000,0.458197,0.531997,0.410544,0.547392,0.000000,375.000000,327.000000,48.000000,64.000000,0.000000,0.000000,0.000000,0.000000,0.000000;
#CREDIT:;
#DISPLAYBPM:160.000000;
#NOTES:
0000
0000
0000
0000
,
0000
0000
0000
0000
,
0000
0000
0000
0000
,
0000
0000
0000
0110
,
1001
0010
0001
0100
,
0001
0010
0100
0000
1000
0000
0001
0000
,
0010
0000
0001
0000
0100
0000
0010
1000
,
0000
0001
0020
0000
0230
0000
1300
0000
,
1100
0000
1000
0001
0000
0100
0010
0000
,
1000
0001
0010
0000
0100
0000
1000
0000
,
0001
0100
1000
0000
0001
0010
1000
0000
,
1100
0101
0011
1010
,
0202
0000
0000
0000
0003
0001
0301
0000
,
1001
0000
0001
0000
1000
0010
0100
0000
,
0010
1000
0002
0000
0200
0000
0303
0000
,
0011
0000
0100
0000
0001
0010
1000
0000
,
0100
0010
0002
0000
2000
0000
3003
0000
,
1100
0000
0001
0000
1000
0010
0100
0000
,
0001
0100
0020
0000
2000
0000
3030
0000
,
1100
0000
0000
0110
0000
0000
0011
0000
,
0000
2000
0002
3003
,
0010
0000
0001
0000
0100
0010
1000
0000
,
0100
0000
0010
0000
0001
1000
0001
0000
,
0100
0000
0001
0000
0010
0100
0010
0000
,
0100
0000
0010
0000
0001
0100
1000
0000
,
0010
0000
1000
0000
0100
0010
0001
0000
,
1000
0000
0001
0000
1000
0010
0100
0000
,
0010
0000
1000
0000
0100
0010
0001
0000
,
1000
0100
1000
0000
0001
0100
0001
0000
,
1002
2003
3020
0230
,
0302
0000
1003
0200
0000
1300
0001
0000
,
0010
0120
0032
0203
,
0302
0023
2030
3100
,
1001
0000
0000
0001
0000
1000
0100
0010
,
0000
1100
0000
0001
0100
0000
0010
1000
,
0100
0000
0000
0010
0000
0001
0000
1000
,
0001
0100
1000
0000
0010
0000
0100
0000
,
0201
0320
2030
3002
,
0023
0000
0031
2000
0000
3001
0010
0000
,
0100
2100
3020
0230
,
0302
0023
0230
1300
,
1010
0000
0001
0000
1000
0100
0010
0000
,
0011
0000
0100
0000
0010
1000
0001
0000
,
0101
0000
0010
0000
0100
0001
1000
0000
,
1100
0000
0001
0000
0001
0100
1000
0000
,
1001
0010
1000
1100
,
0011
0000
0100
0000
0010
0000
1000
0002
,
0000
2003
0000
3001
0020
0000
0230
0000
,
1300
0000
0010
0000
1000
0100
0001
0000
,
0110
0001
0100
1010
,
0011
0010
0010
0010
0001
0000
1000
0000
,
1010
0000
0001
1000
0000
0001
0100
0000
,
0110
0001
0020
0230
,
1300
0001
0100
1001
,
0110
0000
0000
1100
0000
1000
0001
0020
,
0000
0032
0000
0103
0020
0000
2030
0000
,
3001
0000
0010
0000
1000
0100
0010
0000
,
0011
1000
0100
1010
,
0101
0010
1000
0001
,
1000
0100
0010
0001
0100
0000
0110
0000
,
2002
0000
0000
3003
,
1100
0000
0010
0001
0100
0000
1000
0000
,
0001
0010
0200
0000
2000
0000
3300
0000
,
0011
0000
0100
0010
1000
0000
0001
0000
,
1000
0010
0200
0000
0002
0000
0303
0000
,
1010
0000
0001
1000
0100
0000
0010
0000
,
0100
0010
0002
0000
2000
0000
3003
0000
,
0101
0000
0000
0110
0000
0000
1001
0000
,
0000
0020
0200
0330
,
0001
0000
0010
0100
1000
0000
0001
0000
,
0100
0010
1000
0000
0002
0000
2003
0000
,
3010
0000
1000
0001
0100
0000
0010
0000
,
0001
1000
0100
0000
0020
0000
0230
0000
,
1300
0000
0001
1000
0001
0000
0100
0000
,
0010
0100
0010
0000
2000
0000
3200
0000
,
1300
0001
0100
0010
1000
0000
1001
0000
,
0220
0000
0000
0000
,
0000
0000
0000
0330
;

//---------------dance-single - ----------------
#NOTEDATA:;
#CHARTNAME:;
#CHARTHASH:1568051669:
#STEPSTYPE:dance-single;
#BANNER:;
#DESCRIPTION:;
#CHARTSTYLE:;
#DIFFICULTY:Hard;
#METER:12;
#METERF:0.000000;
#RADARVALUES:0.599932,0.598496,0.325014,0.342120,0.004277,491.000000,453.000000,38.000000,40.000000,0.000000,0.000000,0.000000,0.000000,0.000000,0.599932,0.598496,0.325014,0.342120,0.004277,491.000000,453.000000,38.000000,40.000000,0.000000,0.000000,0.000000,0.000000,0.000000;
#CREDIT:;
#DISPLAYBPM:160.000000;
#NOTES:
0000
0000
0000
0000
,
0000
0000
0000
0000
,
0000
0000
0000
0000
,
0000
0000
0000
0110
,
1001
0000
0010
1000
0000
0100
0001
0000
,
0010
0001
0100
0000
0001
0010
1000
0000
,
0100
1000
0000
1000
0001
0000
0001
0100
,
0000
0100
0020
0000
2030
0000
3001
0000
,
0011
0000
0010
0001
0000
1000
0100
0000
,
1000
0010
0001
0000
0100
0010
1000
0000
,
0001
0001
0100
0010
1000
1000
0100
0010
,
0001
0100
1000
0000
1010
0000
0101
0000
,
2200
0000
0000
0000
0300
0001
3001
0000
,
1001
0000
0010
1000
0100
0010
0001
0000
,
1000
0001
0200
0000
0320
1000
1030
0000
,
1100
0000
1000
0001
0010
0100
1000
0000
,
0001
0100
2000
0000
3002
0100
0103
0000
,
0011
0000
0010
0100
1000
0001
0100
0000
,
0001
1000
0200
0000
2300
0010
3010
0000
,
0110
0000
1000
0010
0001
0100
0010
0000
,
0100
0010
2000
0000
0002
0000
3003
0000
,
0010
0001
0100
0010
1000
1000
1000
0000
,
0100
1000
0001
1000
0010
0010
0200
0000
,
0301
0010
0100
0100
0001
1000
1000
0000
,
0010
1000
0100
0010
0001
1000
0100
0000
,
1000
0001
1000
0010
0100
0100
0100
0000
,
0001
0010
0100
1000
0001
0010
0020
0000
,
0031
0100
0010
1000
0100
0010
0001
0000
,
1000
0100
1010
0000
0001
0010
0101
0000
,
1000
0100
0001
1000
0010
0001
1000
0100
,
0001
1000
0010
0001
1000
0100
0010
0001
,
1000
0010
0001
1000
0100
0001
1000
0010
,
0001
1000
0100
0001
1000
0010
0001
0000
,
0101
0000
0010
1000
0100
0010
0001
1000
,
0010
1001
0000
0100
0001
0010
0100
1000
,
1100
0000
0010
0100
0001
0010
0100
1000
,
0001
0001
0001
0100
0010
1000
0100
0000
,
0001
0010
1000
0001
0100
1000
0001
0010
,
1000
0001
0100
1000
0001
0010
0100
1000
,
0001
0100
1000
0001
0010
1000
0001
0100
,
1000
0001
0010
1000
0001
0100
1000
0000
,
0010
0000
0000
0010
0000
0000
0010
0000
1000
0000
0001
0000
0001
0000
0100
0000
,
0010
0010
1000
0001
0010
0100
1000
0000
,
0001
0100
0010
1000
0100
0010
0001
0000
,
1100
0000
0001
0100
1000
0100
0001
0000
,
1001
0000
0010
1000
0100
0010
0011
0000
,
1010
0000
0001
0100
0010
1000
0100
0020
,
0000
0032
0000
1003
0020
0100
0130
0000
,
0001
0100
1000
0000
0001
0010
0100
0000
,
0110
0000
0010
0001
0100
0010
0101
0000
,
1100
0010
0010
0010
1001
0100
0010
0000
,
0001
1000
0100
1000
0010
0100
0001
0000
,
0012
0100
0103
0000
2000
0000
3002
0000
,
0013
0000
0001
1000
0001
0100
0110
0000
,
1001
0000
0010
1000
0100
1000
0001
0200
,
0000
0302
0000
1003
0020
0100
0130
0000
,
0101
1000
0100
0000
0001
1000
0010
0000
,
1010
0000
0100
0001
1000
0100
1100
0000
,
0011
1000
0001
0000
0010
0100
1000
0000
,
0001
0100
1000
0100
0001
0010
0100
0000
,
0110
0001
2000
0000
0010
0000
3100
0000
,
0011
0000
0001
0100
0010
1000
0001
0000
,
1000
0010
0200
0000
0302
0010
0013
0000
,
0110
0000
1000
0010
0001
1000
0100
0000
,
0010
0001
0200
0000
0320
1000
1030
0000
,
1010
0000
1000
0001
1000
0100
0010
0000
,
0001
0100
2000
0000
3002
0010
0013
0000
,
0101
0000
0100
0010
1000
0100
0001
0000
,
1000
0001
0200
0000
0020
0000
0330
0000
,
0001
0100
1000
0100
0001
0000
0001
0010
,
1000
0010
0001
0000
0200
0000
0320
0000
,
1030
0100
0001
0100
1000
0000
1000
0010
,
0001
0010
1000
0000
0002
0000
2003
0000
,
3010
1000
0100
0010
0001
0000
0100
0001
,
0010
0100
1000
0000
0020
0000
2030
0000
,
3001
0010
0100
1000
1100
0000
0110
0000
,
0022
0000
0000
0000
,
0000
0000
0000
0033
;
