#TITLE:FLY HIGH;
#ARTIST:ME & MY;
#BANNER:FLY HIGH-bn.png;
#BACKGROUND:FLY HIGH-bg.png;
#JACKET:FLY HIGH-jacket.png;
#MUSIC:FLY HIGH.ogg;
#SAMPLESTART:55.573;
#SAMPLELENGTH:20;
#DISPLAYBPM:138;
#BPMS:0=138,103=148,104=138,127=143,128=138,143=133,144=138,175.5=130.5,176=138,179.75=148,180=138,191.75=148,192=138,207.75=143,208=138;
#BGCHANGES:;

//---------------dance-single - ----------------
#NOTES:
     dance-single:
     :
     Beginner:
     2:
     :
0000
0000
0000
0000
,
0000
0000
0000
0000
,
0000
0000
0000
0000
,
0000
0000
0000
0000
,
1000
0000
0000
0000
,
0001
0000
0000
0000
,
0100
0000
0000
0000
,
0010
0000
0000
0000
,
1001
0000
0000
0000
,
1000
0000
0000
0000
,
0100
0000
0000
0000
,
1000
0000
0000
0000
,
1001
0000
0000
0000
,
0001
0000
0000
0000
,
0100
0000
0000
0000
,
0001
0000
0000
0000
,
1001
0000
0000
0000
,
1000
0000
1000
0000
,
0001
0000
0001
0000
,
1000
0000
0010
0000
,
0100
0000
0100
0000
,
0010
0000
0010
0000
,
1000
0000
0001
0000
,
0100
0000
0100
0000
,
0001
0000
0010
0000
,
0100
0000
0010
0000
,
0001
0000
1000
0000
,
0001
0000
0100
0000
,
0010
0000
0100
0000
,
0001
0000
1000
0000
,
0100
0000
0010
0000
,
0001
0000
0100
0000
,
0110
0000
0001
0000
,
0100
0000
0001
0000
,
0010
0000
0010
0000
,
0001
0000
1000
0000
,
0001
0000
0010
0000
,
0001
0000
0100
0000
,
0010
0000
0010
0000
,
1000
0000
0001
0000
,
0110
0000
1000
0000
,
0100
0000
0010
0000
,
0100
0000
1000
0000
,
0001
0000
0100
0000
,
0001
0000
0010
0000
,
0100
0000
1000
0000
,
0010
0000
1000
0000
,
0100
0000
0001
0000
,
0110
0000
0000
0000
,
0010
0000
0000
0000
,
1000
0000
0000
0000
,
0100
0000
0000
0000
,
1000
0000
0000
0000
,
0010
0000
0000
0000
,
0100
0000
0000
0000
,
0001
0000
0000
0000
,
0110
0000
0000
0000
,
0100
0000
0000
0000
,
0010
0000
0000
0000
,
0001
0000
0000
0000
,
0100
0000
0000
0000
,
0001
0000
0000
0000
,
1000
0000
0000
0000
,
0010
0000
0000
0000
,
1001
0000
0000
0000
;

//---------------dance-single - ----------------
#NOTES:
     dance-single:
     :
     Easy:
     7:
     :
0000
0000
0000
0000
,
0000
0000
0000
0000
,
0000
0000
0000
0000
,
0000
0000
0000
0000
,
1000
0100
0001
0000
,
0010
0001
0100
0000
,
0010
1000
0001
0000
,
1000
0100
0000
0010
,
0000
0001
0010
0100
,
1000
0010
1000
0000
,
0001
0010
0001
0000
,
0010
0100
1000
0000
,
0000
0010
1000
0100
,
0010
0100
1000
0000
,
0010
1000
0001
0000
,
1000
0100
0010
0000
,
1001
0001
0100
0100
,
0010
0010
1000
1000
,
0100
0100
0010
0010
,
0001
0001
1000
1000
,
0000
1100
0000
0101
,
0000
1100
0000
0101
,
0000
1100
0000
0101
,
1000
0010
0001
0100
,
0110
1000
0100
0010
,
0001
0100
0001
0010
,
0100
0010
0001
0100
,
0010
1000
0100
1000
,
0001
0010
0001
0100
,
1000
0001
0010
0100
,
0010
0001
0100
1000
,
0010
0100
0010
0100
,
0000
0001
0010
0001
,
0100
0010
1000
0100
,
1000
0010
1000
0001
,
0010
0100
1000
0000
,
0000
0001
0010
0001
,
0100
0010
1000
0100
,
1000
0010
0001
0100
,
0010
1000
0001
0000
,
0000
0100
0010
0001
,
1000
0001
1000
0010
,
0100
0010
1000
0100
,
1000
0010
0001
0000
,
0000
1000
0010
1000
,
0100
0010
0100
1000
,
0010
1000
0100
0010
,
0001
0100
0001
0000
,
0000
0010
0001
0100
,
0010
1000
0100
0000
,
1000
0001
0010
0000
,
0001
0100
1000
0000
,
0000
0010
0010
0010
,
1000
0001
1000
0000
,
0100
0010
0100
0000
,
1000
0010
0001
0000
,
0100
0001
0010
0000
,
0001
0100
1000
0000
,
0010
1000
0001
0000
,
1000
0100
0000
0010
,
0001
0100
0001
0000
,
1000
0100
1000
0000
,
0010
0100
0010
0000
,
1000
0001
0110
0000
,
1001
0000
0000
0000
;

//---------------dance-single - ----------------
#NOTES:
     dance-single:
     :
     Medium:
     9:
     :
0000
0000
0000
0000
,
0000
0000
0000
0000
,
0000
0000
0000
0000
,
0000
0000
0000
0000
,
1000
0000
0001
0000
0100
0000
0001
1000
,
0010
0000
1000
0000
0100
0000
1000
0010
,
0100
0000
0001
0000
0010
0000
0001
0100
,
0001
0000
1000
0010
0000
0010
1000
0001
,
0100
0000
0001
0000
0010
0100
1000
0000
,
0001
0000
1000
0100
0000
0010
0000
0001
,
0000
0001
0000
1000
0000
1000
0000
0001
,
0000
0100
0000
0010
0000
0000
0000
0000
,
0000
0000
1000
0001
0010
0000
0001
1000
,
0100
0000
0010
0001
0000
1000
0000
0010
,
0000
0010
0000
0100
0000
0100
0000
0010
,
0000
1000
0000
0001
0000
0000
0000
0000
,
1001
0010
1000
0100
,
1000
0000
0010
0000
0100
0000
0001
0010
,
0001
0100
0001
1000
,
0010
0000
1000
0000
0001
0000
1000
0100
,
1000
1010
0001
0101
,
1000
1100
0001
0101
,
0010
1010
0100
0101
,
0001
0011
1000
1100
,
0010
0000
1000
0000
0100
0000
1000
0001
,
0010
0000
0001
0000
0100
0000
0010
1000
,
0010
0000
1000
0100
1000
0000
0001
0010
,
0001
0000
0100
0010
1000
0000
0001
1000
,
0010
0000
0010
1000
0001
0000
1000
0100
,
0010
0000
0001
0100
0001
0000
0010
0001
,
0010
0000
0001
0100
0010
0000
1000
0001
,
1000
0000
0010
0100
0010
0000
1000
0000
,
1001
0000
0001
0010
0001
0100
0010
1000
,
0200
0000
1300
0020
0000
2030
0000
3200
,
0000
0320
0000
0032
0000
2003
0000
3002
,
0000
0203
0000
0320
0000
0000
1030
0001
,
0100
0000
0001
1000
0010
1000
0010
0100
,
0002
0000
0013
0002
0000
2003
0000
3020
,
0000
0230
0000
0320
0000
2030
0000
3200
,
0000
0320
0000
0032
0000
0103
0001
0010
,
0001
0000
1000
0100
1000
0010
0100
0010
,
1000
0100
1000
0001
0000
0011
0000
0110
,
0000
1100
0000
1010
0000
1001
0000
0101
,
0000
0011
0000
1100
0000
0010
1000
0001
,
0100
0000
0001
1000
0010
1000
0100
0010
,
0001
0100
0001
1000
0000
1100
0000
1010
,
0000
1001
0000
0101
0000
0011
0000
0110
,
0000
1001
0000
0110
0000
0000
1000
0010
,
0200
0000
0300
0001
0020
0000
0030
0100
,
2000
0000
3000
1000
0002
0000
0003
1000
,
0020
0000
0030
0100
0002
0000
0003
0001
,
2000
0000
3000
1000
0200
0000
0300
0100
,
2000
0000
3000
0100
0020
0000
0030
0010
,
0002
0000
0003
1000
0200
0000
0300
1000
,
0002
0000
0003
0001
0020
0000
0030
0001
,
0200
0000
0300
0010
2000
0000
3000
0100
,
2000
0000
3000
0000
0010
0100
0001
1000
,
0100
0000
0010
0000
0001
0000
0010
0100
,
0010
0001
0100
1000
,
0001
0000
0100
0010
0000
0010
0100
0001
,
1000
0000
0001
0000
0100
0010
0100
0000
,
0001
0000
0010
0000
0001
0000
0010
0001
,
1000
0000
0010
0000
0001
0000
0100
0010
,
1000
0001
0210
0310
,
1001
0000
0000
0000
;

//---------------dance-single - ----------------
#NOTES:
     dance-single:
     :
     Hard:
     12:
     :
0000
0000
0000
0000
,
0000
0000
0000
0000
,
0000
0000
0000
0000
,
0000
0000
0000
0000
,
1000
0010
0100
0010
1000
0000
0001
0001
,
0010
0000
0000
0000
0001
0000
0000
0100
0000
0000
0010
0000
1000
0000
0001
0000
,
1000
0001
0010
0001
1000
0000
0100
0100
,
0010
0000
0001
0000
0100
0000
0010
0000
0000
0000
1000
0000
1000
0000
0001
0100
,
0001
0000
0010
0001
0100
0010
0100
1000
,
0200
0000
0301
0020
0000
0032
0000
0203
,
0000
0320
0000
2030
0000
3002
0000
2003
,
0000
3200
0000
0320
0000
0000
0030
0000
,
0000
0000
0001
1000
0010
0100
0010
0001
,
0020
0000
1030
0002
0000
2003
0000
3200
,
0000
0320
0000
0230
0000
2300
0000
3002
,
0000
0203
0000
0320
0000
0000
0030
0000
,
1001
0000
0000
1000
0000
0000
0100
0000
0001
0000
0000
0010
0000
0000
0001
0000
,
0100
0000
0000
0010
0000
0000
0100
0000
0001
0000
0000
1000
0000
0000
0010
0000
,
0100
0000
0000
0001
0000
0000
0010
0000
0100
0000
0000
0010
0000
0000
0001
0000
,
1000
0000
0000
0001
0000
0000
0100
0000
0010
0000
0000
0100
0000
0000
0010
0000
,
1000
0000
0000
0100
1000
0000
0010
0000
0100
0000
0000
0001
0010
0000
0001
0000
,
0010
0000
0000
0001
1000
0000
0001
0000
0100
0000
0000
0010
1000
0000
0100
0000
,
1000
0000
0000
0001
0010
0000
0001
0000
0010
0000
0000
0100
1000
0000
0100
0000
,
1000
0000
0000
0001
1000
0000
0010
0000
0100
0000
0000
0001
0000
0000
0100
0000
,
0010
0000
0000
1000
0001
0000
0100
0000
0001
0000
0000
0010
0100
0000
1000
0000
,
0010
0000
0000
1000
0100
0000
0001
0000
0100
0000
0000
1000
0001
0000
0010
0000
,
0001
0000
0000
0100
0010
0000
1000
0000
0100
0000
0000
0010
0001
0000
1000
0000
,
0100
0000
0000
0010
0001
0000
1000
0000
0010
0000
0000
1000
0100
0000
0001
0000
,
0010
0100
0010
0001
0100
0010
0100
0001
,
1000
0100
0010
0100
0010
0001
1000
0010
,
1000
0100
0010
0100
0010
0001
0100
0010
,
1000
0000
0000
0100
0000
0000
1000
0000
0001
0000
0000
0100
0000
0000
0001
0000
,
1001
0000
0010
1000
0100
1000
0010
0100
,
1000
0100
0001
0100
0010
0100
0001
0010
,
0100
0001
0100
0010
0100
0001
0100
1000
,
0010
1000
0100
0010
0001
0100
0010
1000
,
0100
0000
1000
0001
0010
1000
0010
0100
,
0010
0100
0010
0001
0100
0010
0100
0001
,
1000
0010
0001
0010
1000
0100
0010
0100
,
1000
0010
0100
0001
0010
0100
1000
0001
,
0110
0000
0010
0001
0010
0100
0010
0100
,
1000
0010
0100
0010
1000
0100
0001
0100
,
1000
0010
0100
1000
0100
0001
0100
0010
,
0100
1000
0100
0001
0010
0100
1000
0001
,
0100
0000
0001
1000
0010
1000
0100
0010
,
0100
0001
0100
0010
0100
0001
0100
1000
,
0010
0100
0010
0001
0010
1000
0010
0100
,
0010
1000
0100
0010
0001
0100
0001
1000
,
0010
0000
0000
0010
0000
0000
0010
0000
1000
0000
0000
1000
0000
0000
1000
0000
,
0100
0000
0000
0100
0000
0000
0100
0000
0001
0000
0000
0001
0000
0000
0001
0000
,
0010
0000
0000
0010
0000
0000
0010
0000
0001
0000
0000
0001
0000
0000
0001
0000
,
0100
0000
0000
0100
0000
0000
0100
0000
1000
0000
0000
1000
0000
0000
1000
0000
,
0100
0000
0000
0100
0000
0000
0100
0000
1000
0000
0000
1000
0000
0000
1000
0000
,
0010
0000
0000
0010
0000
0000
0010
0000
0001
0000
0000
0001
0000
0000
0001
0000
,
0100
0000
0000
0100
0000
0000
0100
0000
0001
0000
0000
0001
0000
0000
0001
0000
,
0010
0000
0000
0010
0000
0000
0010
0000
1000
0000
0000
1000
0000
0000
1000
0000
,
0001
0000
0000
0010
0000
0000
0001
0000
1000
0000
0000
0000
0100
0000
0100
0000
,
0010
0000
0000
0000
0001
0000
0000
1000
0000
0000
0010
0000
1000
0000
0100
0000
,
1000
0000
0000
0001
0000
0000
0100
0010
0100
0000
0000
0000
0001
0000
0001
0000
,
0010
0100
0010
0001
0000
1000
1000
0001
,
0100
0000
0000
0010
0000
0000
1000
0000
1000
0000
0001
0000
0100
0000
0001
0000
,
0010
0000
0000
0000
0100
0000
0000
1000
0000
0000
0010
0000
1000
0000
0001
0000
,
0100
0001
0010
0001
0100
0000
1000
1000
,
0010
1000
0100
0010
0001
0100
0001
1000
,
1001
0000
0000
0000
;
