#TITLE:FLOWER;
#SUBTITLE:(REDALiCE Remix);
#ARTIST:REDALiCE;
#BANNER:FLOWER (REDALiCE Remix)-bn.png;
#BACKGROUND:FLOWER (REDALiCE Remix)-bg.png;
#JACKET:FLOWER (REDALiCE Remix)-jacket.png;
#MUSIC:FLOWER (REDALiCE Remix).ogg;
#SAMPLESTART:40;
#SAMPLELENGTH:20;
#DISPLAYBPM:180;
#BPMS:0=180;
#STOPS:120=0.667,126=0.667;
#BGCHANGES:;

//---------------dance-single - ----------------
#NOTES:
     dance-single:
     :
     Beginner:
     5:
     :
0000
0000
0000
0000
,
0000
0000
0000
0000
,
0000
0000
0000
0000
,
0000
0000
0000
0000
,
1000
1000
1000
1000
,
0000
0000
1001
0000
,
0001
0001
0001
0001
,
0000
0000
0110
0000
,
0100
0100
0100
0100
,
0000
0000
0110
0000
,
0010
0010
0010
0010
,
0000
0000
1001
0000
,
0020
0000
0000
0000
,
0000
0000
0030
0000
,
1000
0000
0001
0000
,
0000
0000
0001
0000
,
0000
0000
0001
0000
,
0100
0000
0010
0000
,
0100
0000
0001
0000
,
1000
0000
0001
0001
,
0001
0000
0100
0000
,
0110
0000
1001
0000
,
1000
0000
0100
0000
,
0010
0000
0001
0000
,
0100
0000
0010
0000
,
1000
1000
1000
0000
,
1001
0000
1001
0000
,
0110
0000
0110
0000
,
1001
0000
0110
0000
,
1000
1000
0001
0001
,
0100
0000
0001
0001
,
1000
1000
0100
0000
,
1000
1000
0001
0001
,
0010
0000
0001
0000
,
0100
0100
0010
0010
,
1000
0000
0001
0000
,
0010
0010
0100
0100
,
2000
0000
0000
3000
,
0001
0000
0010
0000
,
0001
0000
0100
0000
,
0010
0000
1000
0000
,
0100
0000
0010
0000
,
0001
0000
1000
0000
,
0001
0000
0100
0000
,
0010
0000
1000
0000
,
0100
0000
1000
0000
,
0001
0000
0100
0000
,
0001
0000
0010
0000
,
0001
0000
1000
0000
,
0010
0000
0100
0000
,
0010
0000
1000
0000
,
0100
0000
0001
0000
,
0010
0000
0001
0000
,
0100
0000
1000
0000
,
0200
0000
0000
0000
,
0000
0000
0000
0300
,
1000
1000
1000
1000
,
0000
0000
0110
0000
,
0001
0001
0001
0001
,
0000
0000
1001
0000
,
0100
0100
0100
0100
,
0000
0000
0110
0000
,
0010
0010
0010
0010
,
0000
0000
0110
0000
,
0002
0000
0003
0000
,
2000
0000
3000
0000
,
0020
0000
0030
0000
,
0200
0000
0300
0000
,
1001
0000
0110
0000
,
1000
1000
0001
0001
,
1000
0001
1000
0001
,
0100
0100
0100
0100
,
0001
0000
0010
0000
,
0001
0000
0100
0010
,
1000
0000
0100
0000
,
1000
1000
0001
0001
,
0010
0000
0001
0000
,
0100
0000
0010
1000
,
0001
0000
1000
0000
,
0010
0010
0100
0100
,
0001
0001
0001
0001
,
0000
0000
1001
0000
,
1000
1000
1000
1000
,
0000
0000
1001
0000
,
0010
0010
0010
0010
,
0000
0000
0110
0000
,
0100
0100
0100
0100
,
0000
0000
0110
0000
,
0002
0000
0000
0000
,
0000
0000
0000
0000
,
0003
0000
0000
0000
;

//---------------dance-single - ----------------
#NOTES:
     dance-single:
     :
     Easy:
     8:
     :
0000
0000
0000
0000
,
0000
0000
0000
0000
,
0000
0000
0000
0000
,
0000
0000
0000
0000
,
1000
0010
0001
0100
,
0010
1000
0001
1000
0020
0000
0230
0000
,
0301
0010
1000
0100
,
0011
0000
1100
0000
0001
1000
0000
0001
,
1000
0100
0001
0010
,
0100
0010
0100
0010
0002
0000
2003
0000
,
3001
0100
1000
0010
,
1010
0000
0101
0000
1000
0001
0000
2000
,
0002
0000
0000
0000
,
3000
0000
0000
0000
,
0023
0000
0000
0032
0000
0000
2003
0000
,
0000
0000
0000
0000
,
0000
0000
0000
0000
0000
0000
3001
0200
,
0000
0320
0000
2030
0000
3002
0000
0203
,
0000
0000
0000
0000
,
0000
0300
0200
0320
,
2030
0001
0001
3001
,
2002
3003
0220
0330
,
2000
0000
0000
3002
0000
0000
0203
0000
,
0000
0000
0000
0000
,
0000
0000
0000
0000
0000
0000
0310
2000
,
0000
3200
0000
2300
0000
3002
0000
0023
,
0200
0300
2000
3000
,
0200
0300
0002
0003
,
0200
0300
0200
0330
,
1000
0010
0001
0100
,
1010
0000
1000
0001
0010
0000
0001
0000
,
0100
0000
1000
0000
0011
0000
1000
0001
,
0100
1000
0010
0001
,
0101
0000
1100
0000
0001
1000
0100
0000
,
0010
0001
0100
1000
,
1001
0000
0000
0110
0000
0000
1000
0100
,
0010
0000
0001
0000
0100
0000
1000
0001
,
0200
0000
0000
0000
0300
0010
0100
0000
,
1001
0000
0010
0000
0001
0000
1000
0100
,
0010
0000
1000
0000
0100
0010
0001
1000
,
0010
1000
0100
0001
,
0011
0011
1100
1100
,
0001
0000
0100
0000
0010
0000
1000
0001
,
0100
0000
0010
0000
1000
0001
1000
0100
,
0010
0100
1000
0001
,
1010
1010
0101
0101
,
0010
0000
1001
0000
0100
0000
0001
1000
,
0100
0000
0010
0000
0001
0100
0001
1000
,
0100
0001
0010
1000
,
1100
1100
0101
0101
,
0010
0000
0001
0000
0100
0000
1000
0010
,
1000
0000
0100
0000
1000
0010
0100
0001
,
0010
0100
1000
0001
,
0011
0011
1010
1010
,
0220
0000
0000
0000
,
0000
0000
0000
0030
,
0301
0010
1000
0100
,
1000
0001
1000
0001
0200
0000
0320
0000
,
1030
0010
0001
0100
,
1100
0000
0101
0000
1000
0001
0000
1000
,
0001
0100
1000
0010
,
0100
0001
0010
0001
2000
0000
3200
0000
,
1300
0100
0001
0010
,
1002
0000
0203
0000
0301
1000
0000
0001
,
2000
0000
3020
0000
,
0230
0000
0302
0000
,
0023
0000
0230
0000
,
2300
0000
3002
0003
,
0011
0001
1010
0001
,
1100
0101
1100
0101
,
0020
0032
0203
2300
,
3020
0032
0203
2300
,
3010
0000
0001
0000
1000
0000
0010
0100
,
0010
0000
1000
0000
0100
0010
0001
0100
,
1000
0000
0001
0000
0010
0001
0100
0000
,
0110
0110
1001
1001
,
0010
0000
1000
0000
0100
0000
1000
0001
,
0010
0000
0001
0000
1000
0001
0100
0010
,
1000
0100
0001
0010
,
1001
1001
0110
0110
,
1000
1000
1000
1000
,
0001
0010
0100
1000
,
0001
0001
0001
0001
,
1000
0100
0010
0001
,
0100
0100
0100
0100
,
0010
1000
0001
0100
,
0010
0010
0010
0010
,
1000
0010
0200
0002
,
0000
0000
0000
0000
,
0300
0000
0000
0000
,
0003
0000
0000
0000
;

//---------------dance-single - ----------------
#NOTES:
     dance-single:
     :
     Medium:
     11:
     :
0000
0000
0000
0000
,
0000
0000
0000
0000
,
0000
0000
0000
0000
,
0000
0000
0000
0000
,
1000
0000
0000
1000
0000
0000
0001
0000
0000
0001
0000
0000
1000
0000
0001
0000
,
0000
0000
0000
0000
,
0001
0000
0000
0001
0000
0000
1000
0000
0000
1000
0000
0000
0001
0000
1000
0000
,
0000
0000
0000
0000
,
0100
0000
0000
0100
0000
0000
0010
0000
0000
0010
0000
0000
0100
0000
0010
0000
,
0000
0000
0000
0000
,
0010
0000
0000
0010
0000
0000
0100
0000
0000
0100
0000
0000
0010
0000
0100
0000
,
0000
0000
0000
0000
,
0020
0000
0000
0000
,
0000
0000
0000
0000
,
0032
0000
0000
2003
0000
0000
3002
0000
,
0000
0000
0013
0000
0001
0000
0100
0000
0001
0000
0000
1000
0000
0000
0010
0000
,
0000
0100
0001
0010
0100
0000
1000
0020
,
0000
0230
0000
0302
0000
2003
0000
3200
,
0000
0000
1300
0000
0010
0000
1000
0000
0100
0000
0000
0010
0000
0000
0001
0000
,
0000
0100
0001
0010
0001
0000
1000
0000
,
0010
1000
0010
0100
0001
1000
0001
0100
,
0020
0000
0200
0030
,
0302
0000
0000
2003
0000
0000
3002
0000
,
0000
0000
0103
0000
0001
0000
1000
0000
0100
0000
0000
0010
0000
0000
0001
0000
,
0000
1000
0001
0010
0001
0000
0100
0020
,
0000
2030
0000
3200
0000
0320
0000
0032
,
0100
0000
1003
0010
2000
0000
3100
0010
,
0200
0000
1300
0001
0020
0000
0031
1000
,
0200
0000
1300
0010
0002
0000
0103
0010
,
1000
0100
1000
0010
0100
0001
0010
0001
,
0200
0000
0310
0100
0001
0000
1010
0000
,
0001
0100
0010
1000
0002
0000
0013
0001
,
0100
0000
0101
0000
0010
1000
0001
0000
,
1000
0000
0000
1000
0000
0000
1000
0000
0000
0000
0010
0000
0100
0000
0000
0000
,
1001
0000
0110
0000
0010
0001
1000
0100
,
0010
0000
0000
0010
0000
0000
0011
0000
0000
0000
0000
0000
0001
0000
1000
0000
,
0001
0000
0000
0010
0000
0000
0100
0000
0000
1000
0000
0000
0010
0000
0100
0000
,
0002
0000
0000
0000
0000
1000
2003
0000
,
3010
0000
0000
0100
0000
0000
0001
0000
1000
0000
0000
0000
0100
0000
1000
0000
,
0010
0000
0000
0100
0000
0000
0001
0000
0010
0000
0000
0000
0001
0000
1000
0000
,
0100
0000
0000
0010
0000
0000
0001
0000
0100
0000
0000
0000
0010
0000
1000
0000
,
0100
0000
1100
0000
1000
0010
0001
0000
,
1000
0000
0000
0001
0000
0000
0010
0000
0001
0000
0000
0000
0100
0000
0010
0000
,
1000
0000
0000
0100
0000
0000
1000
0000
0010
0000
0000
0000
0100
0000
0001
0000
,
0010
0000
0000
0100
0000
0000
0010
0000
0001
0000
0000
0000
1000
0000
0001
0000
,
0010
0000
0000
0001
0000
0000
1000
0000
0010
0000
0000
1000
0000
0000
0001
0000
,
0100
0010
1000
0001
0000
0010
0001
0000
,
1000
0000
0000
0001
0000
0000
0010
0000
0001
0000
0000
0000
1000
0000
0100
0000
,
0001
0000
0000
1000
0000
0000
0010
0000
0100
0000
0000
0000
0001
0000
0010
0000
,
1000
0000
1100
0000
0001
0010
0100
0000
,
0101
0000
0000
0010
0000
0000
1000
0000
0001
0000
0000
0000
0100
0000
0001
0000
,
0010
0000
0000
0100
0000
0000
0010
0000
0001
0000
0000
0000
1000
0000
0001
0000
,
1000
0000
0000
0010
0000
0000
0100
0000
0001
0000
0000
0000
0010
0000
0100
0000
,
1000
0000
0000
1000
0000
0000
1000
0000
0001
0000
0000
0000
1001
0000
0000
0000
,
0220
0000
0000
0000
,
0000
0000
0000
0030
,
0301
0000
0000
0001
0000
0000
1000
0000
0000
1000
0000
0000
0001
0000
1000
0000
,
0000
0000
0000
0000
,
1000
0000
0000
1000
0000
0000
0001
0000
0000
0001
0000
0000
1000
0000
0001
0000
,
0000
0000
0000
0000
,
0010
0000
0000
0010
0000
0000
0100
0000
0000
0100
0000
0000
0010
0000
0100
0000
,
0000
0000
0000
0000
,
0100
0000
0000
0100
0000
0000
0010
0000
0000
0010
0000
0000
0100
0000
0010
0000
,
0000
0000
0000
0000
,
0001
0010
0001
0100
,
0010
1000
0100
0010
,
0001
1000
0001
0100
,
0010
0010
1000
0001
,
0011
0001
1010
1000
,
0101
0011
1100
1010
,
1000
0001
0010
0001
0100
0010
1000
0002
,
0200
0000
0303
0110
,
1001
0000
0000
0100
0000
0000
1000
0000
0001
0000
0000
0000
0100
0000
0010
0000
,
1000
0000
0000
0001
0000
0000
1000
0000
0001
0000
0000
0000
0010
0000
0100
0000
,
1000
0000
0000
0010
0000
0000
1000
0000
0001
0000
0000
0000
0100
0000
0010
0000
,
1000
0000
1001
0000
0010
0100
0001
0000
,
0110
0000
0000
1000
0000
0000
0001
0000
0010
0000
0000
0000
0001
0000
0100
0000
,
0101
0000
0000
0010
0000
0000
0100
0000
0001
0000
0000
0000
1000
0000
0001
0000
,
0010
0001
0100
0000
0010
1000
0100
0000
,
1000
0000
0000
0010
0000
0000
0100
0000
0001
0000
0000
0000
1010
0000
0000
0000
,
0001
0000
0000
0001
0000
0000
0001
0000
0000
0001
0000
0000
0001
0000
0001
0000
,
0010
0100
1000
0010
0100
0000
1100
0000
,
0100
0000
0000
0100
0000
0000
0100
0000
0000
0100
0000
0000
0100
0000
0100
0000
,
0010
1000
0001
0010
0001
0000
0011
0000
,
1000
0000
0000
1000
0000
0000
1000
0000
0000
1000
0000
0000
1000
0000
1000
0000
,
0100
1000
0010
0100
0001
0000
1000
0001
,
0010
0000
0000
0010
0000
0000
0010
0000
0000
0010
0000
0000
0010
0000
0010
0000
,
0001
0100
0010
1000
0100
0000
2000
0002
,
0000
0000
0000
0000
,
0000
0000
0000
0000
,
3003
0000
0000
0000
;

//---------------dance-single - ----------------
#NOTES:
     dance-single:
     :
     Hard:
     14:
     :
0000
0000
0000
0000
,
0000
0000
0000
0000
,
0000
0000
0000
0000
,
0000
0000
0000
0000
,
1000
0000
0000
1000
0000
0000
0001
0000
0000
0001
0000
0000
1000
0000
0001
0000
,
0010
0000
0001
0100
0001
0000
1000
0000
0020
0000
0000
0000
0230
0000
0000
0000
,
0301
0000
0000
0001
0000
0000
1000
0000
0000
1000
0000
0000
0001
0000
1000
0000
,
1000
0100
0001
0100
1010
1010
0000
0001
,
0100
0000
0000
0100
0000
0000
0010
0000
0000
0010
0000
0000
0100
0000
0010
0000
,
1000
0100
1000
0100
1000
0000
0000
0000
2000
0000
0000
0000
3002
0000
0000
0000
,
0013
0000
0000
0010
0000
0000
0100
0000
0000
0100
0000
0000
0010
0000
0100
0000
,
1000
0010
1000
0000
0001
0000
0000
0000
0101
0000
0101
0000
0000
0000
0020
0000
,
0200
0000
0000
0000
,
0030
0000
0000
0000
,
1300
0010
0100
0001
0010
0100
2000
0000
,
0000
0000
0000
0000
,
0000
3001
0100
0010
1000
0000
0001
0200
,
0000
0010
0000
1000
0000
0001
0000
0320
,
0000
0000
0000
0000
1030
0000
0100
0000
1000
0000
0000
0001
0000
0000
0100
0000
,
0000
0000
0001
0000
0010
0000
0001
0000
1000
0000
0000
0010
0000
0000
0100
0000
,
0001
0010
0100
1000
0020
0000
0130
0001
,
0012
0000
0000
0000
0103
0000
0000
0001
1000
0000
0010
0000
1000
0000
0100
0000
,
1000
0001
1000
0010
0100
0001
2000
0000
,
0020
0030
0002
0003
,
3010
1000
0001
0010
0100
0000
1000
0002
,
0000
0010
0000
0100
0000
0010
0000
0203
,
0010
0000
0000
0010
0000
0000
0310
0000
0110
0000
0000
0000
1000
0000
0001
0000
,
1001
0000
0000
0001
0100
0000
0010
0000
0110
0000
0000
0000
1000
0000
0001
0000
,
0011
0000
0100
0010
1010
0000
0001
1000
,
0010
0100
0010
0000
1000
0000
0001
0000
0100
0000
0001
0000
1000
0010
1000
0010
,
1000
0000
0000
0000
1001
0000
0100
0000
0010
0000
0000
1000
0000
0000
0001
0000
,
1000
0000
0100
0000
0010
0001
0010
0001
0010
0000
0000
0000
0110
0000
0001
0000
,
0100
0000
0000
0010
0000
0000
1000
0000
0100
0000
0000
0010
0000
0000
0001
0000
,
0101
0000
0000
0101
0000
0000
0101
0000
0000
0000
0001
0000
0010
0000
0100
0000
,
1000
0000
0000
0001
0000
0000
1000
0000
0010
0000
0100
0000
0001
0010
0001
0010
,
0001
0000
0100
0000
0010
0000
1000
0000
0100
0000
0000
0000
1000
0001
1000
0000
,
1010
0000
0000
0101
0000
0000
0011
0000
0000
1100
0000
0000
0001
1000
0001
2000
,
0002
0000
0000
0000
0000
0000
0000
0000
0003
0000
3001
1000
0001
0000
0000
0000
,
1001
0000
0010
0100
0000
0010
0100
0000
0000
0001
0000
0000
0100
0000
1000
0001
,
1000
0000
0100
0010
0000
0100
0010
0000
0001
0000
0100
0000
0001
0000
1000
0000
,
0001
0000
0010
0100
0000
0010
0100
0000
0000
1000
0000
0000
0001
0000
0100
0000
,
0010
0000
0000
0001
0000
0000
1000
0000
0010
0000
0000
1000
0000
0000
0001
0000
,
0100
0000
0010
1000
0000
0010
1000
0000
0000
0100
0000
0000
0010
0000
0001
1000
,
0001
0000
0010
0100
0000
0010
0100
0000
1000
0000
0010
0000
1000
0000
0001
0000
,
0010
0000
1000
0100
0000
1000
0100
0000
0000
0001
0000
0000
0010
0000
0001
0000
,
0101
0000
0000
1100
0000
0000
0101
0000
0010
0000
1000
0000
0001
0000
0100
0000
,
0010
0000
0100
0000
0110
0000
0001
0000
1000
0100
0000
1000
0100
0000
0010
0000
,
0001
0000
0100
0010
0000
0100
0010
0000
1000
0000
0001
0000
1000
0000
0100
0000
,
0010
0000
0001
0100
0000
0001
0100
0000
0000
1000
0000
0000
0001
0000
0100
0000
,
0010
0000
0000
1000
0000
0000
0001
0000
0010
0000
0000
0001
0000
0000
1000
0000
,
0001
0000
0100
0010
0000
0100
0010
0000
0000
1000
0000
0000
0001
0000
0100
0000
,
0010
0000
0100
0001
0000
0100
0001
0000
0010
0000
0001
0000
1000
0000
0100
0000
,
0010
0000
0001
1000
0000
0001
1000
0000
0010
0000
0100
0000
0001
0000
1000
0100
,
1000
0000
0000
0001
0000
0000
1000
0000
0010
0000
0100
0000
0001
0000
1000
0000
,
2200
0000
0000
0000
,
0000
0000
0000
0300
,
3001
0000
0000
0001
0000
0000
1000
0000
0000
1000
0000
0000
0001
0000
1000
0000
,
0010
1000
0001
0100
0002
0000
0023
0000
,
1030
0000
0000
1000
0000
0000
0001
0000
0000
0001
0000
0000
1000
0000
0001
0000
,
0100
0010
0100
0010
0100
0000
0000
0000
1010
0000
1010
0000
0000
0000
0001
0000
,
0010
0000
0000
0010
0000
0000
0100
0000
0000
0100
0000
0000
0010
0000
0100
0000
,
1000
0000
0010
0000
0100
0000
0001
1000
0002
0000
0000
0000
0023
0000
0000
0000
,
0130
0000
0000
0100
0000
0000
0010
0000
0000
0010
0000
0000
0100
0000
0010
0000
,
0001
0100
1000
0000
0110
0110
0000
0001
,
1000
0000
0010
0000
1000
0010
0100
0001
,
0010
0000
0001
0000
0010
0001
1000
0100
,
0010
0000
0100
0000
0010
0100
1000
0001
,
0100
0000
0000
0100
0000
0000
0100
0000
0010
0000
0000
0010
0000
0000
0010
0000
,
1001
0000
0000
0010
0000
0000
0100
0000
1001
0000
0000
0010
0000
0000
0100
0000
,
0110
0000
0000
0001
1000
0000
0000
1000
0001
0000
0000
0001
1000
0000
0000
1000
,
0001
0100
0010
1000
0100
0010
0001
1000
,
0100
0001
0100
1000
0100
0001
0100
0000
,
1100
0000
1000
0010
0000
0100
0001
0000
0000
0010
0000
0000
0001
0000
0100
0000
,
0010
0000
1000
0100
0000
0010
0001
0000
0100
0000
0001
0000
1000
0000
0010
0000
,
1000
0000
0001
0010
0000
0001
0010
0000
0000
0100
0000
0000
1000
0000
0001
0000
,
0010
0000
0000
0001
0000
0000
1000
0000
0010
0000
0000
1000
0000
0000
0001
0000
,
0100
0000
0001
0010
0000
0100
1000
0000
0000
0010
0000
0000
1000
0000
0001
0000
,
0100
0000
0001
0010
0000
0001
1000
0000
0100
0000
0001
0000
0100
0000
0010
0000
,
0100
0000
1000
0010
0000
1000
0100
0000
0010
0000
0001
0000
1000
0000
0001
0000
,
0011
0000
0000
0110
0000
0000
1100
0000
0010
0000
1000
0000
0001
0000
0100
0000
,
0101
0000
0000
0101
0000
0000
1100
0000
0000
0101
0000
0000
1001
0000
1001
0000
,
0010
0000
1000
0000
0100
0000
0010
0000
0001
0000
0000
1000
0000
0000
0001
0000
,
0011
0000
0000
0011
0000
0000
1010
0000
0000
0011
0000
0000
0110
0000
0110
0000
,
1000
0000
0010
0000
1000
0000
0001
0000
0100
0000
0000
0010
0000
0000
1000
0000
,
1100
0000
0000
0011
0000
0000
1100
0000
0000
0011
0000
0000
1001
0000
1001
0000
,
0010
0000
0100
0000
0010
0000
1000
0000
0001
0000
0000
1000
0000
0000
0100
0000
,
0110
0000
0000
0110
0000
0000
0110
0000
0000
0110
0000
0000
0110
0000
0110
0000
,
0001
0000
0100
0000
0010
0000
1000
0000
0100
0000
1000
0001
0000
2000
0002
0000
,
0000
0000
0000
0000
,
3000
0000
0000
0000
,
0003
0000
0000
0000
;

//---------------dance-single - ----------------
#NOTES:
     dance-single:
     :
     Challenge:
     17:
     :
0000
0000
0000
0000
,
0000
0000
0000
0000
,
0000
0000
0000
0000
,
0000
0000
0000
0000
,
1000
0000
0000
1000
0000
0000
0001
0000
0000
0001
0000
0000
1000
0000
0001
0000
,
0100
0000
0001
0010
0001
0000
1000
0000
0200
0000
0000
0000
0320
0000
0000
0000
,
0031
0000
0000
0001
0000
0000
1000
0000
0000
1000
0000
0000
0001
0000
1000
0000
,
0010
1000
0001
1000
0010
0000
0000
0000
0101
0000
0101
0000
0000
0000
1000
0000
,
0010
0000
0000
0010
0000
0000
0100
0000
0000
0100
0000
0000
0010
0000
0100
0000
,
0001
0010
0100
0010
0001
0000
0100
0000
0020
0000
0000
0000
2030
0000
0000
0000
,
3100
0000
0000
0100
0000
0000
0010
0000
0000
0010
0000
0000
0100
0000
0010
0000
,
0001
1000
0001
0000
0100
0000
0000
0000
1010
0000
1010
0000
0000
0000
0200
0000
,
0020
0000
0000
0000
,
0300
0000
0000
0000
,
0031
0100
0010
1000
0100
0010
0001
1000
,
0000
0000
0010
0000
0100
0000
0001
0000
1000
0000
0000
0001
0000
0000
0100
0000
,
0000
0001
0010
0100
1000
0100
0001
1000
,
0000
1010
0000
0101
0000
1100
0000
0011
,
1000
0000
0001
0000
1000
0100
1000
0000
0100
0000
0000
0010
0000
0000
0001
0000
,
0000
0000
0100
0000
0001
1000
0001
0000
0010
0000
0000
0100
0000
0000
1000
0000
,
0010
0000
0100
0000
0001
1000
0001
0000
0010
0000
0000
0100
0000
0000
1000
0000
,
0100
0000
0100
0000
1000
0000
0001
0000
1100
0000
0000
0000
0001
0010
0100
1000
,
0001
0100
0010
1000
0100
0010
0001
1000
,
0000
0000
0010
0000
1000
0000
0001
0000
0010
0000
0000
0100
0000
0000
1000
0000
,
0000
0010
1000
0100
1000
0001
0010
0100
,
0000
1100
0000
0011
0000
1010
0000
0101
,
0010
0000
1000
0000
0100
0010
0001
0000
0100
0000
0000
0001
0000
0000
1000
0000
,
1001
0000
0010
1000
0000
1000
0010
0000
0100
0000
0000
0001
0000
0000
1000
0000
,
1001
0000
0100
0000
0010
0001
1000
0000
0001
0000
0000
0100
0000
0000
0010
0000
,
1000
0100
1000
0000
0001
0000
0001
0000
1000
0000
1000
0000
0010
0100
0010
0100
,
0001
0000
0000
0000
1001
0000
0100
0000
0010
0000
1000
0001
0000
1000
0100
0000
,
0010
0001
0010
0100
1000
0010
1000
0001
0100
0000
0000
0000
0110
0000
0001
0000
,
1000
0010
0100
0001
0000
1000
0001
0000
0010
0100
1000
0001
0000
0100
0010
1000
,
0001
0000
0000
0101
0000
0000
1100
0000
0000
0000
0010
0000
0110
0000
0100
0000
,
0001
0000
0010
0001
0000
1000
0100
0000
1000
0010
0100
0001
1000
0100
0010
0001
,
0100
0101
0000
1010
0101
0000
1000
0001
,
0011
0000
0000
1100
0000
0000
0101
0000
0000
1010
0000
0000
1001
0000
0110
0000
,
2002
0000
0000
0000
0000
0000
0000
0000
0003
0000
3001
1000
0100
0000
0000
0000
,
1001
0000
0010
1000
0000
0100
0001
0100
0000
0010
0000
1000
0100
0010
0001
1000
,
0001
0000
0010
0100
0000
1000
0010
0000
1000
0001
1000
0001
0100
0010
1000
0001
,
0100
0000
0010
1000
0000
0100
1000
0001
0000
0010
0000
0001
0100
0000
0010
0000
,
1000
0100
1000
0100
0000
0010
0001
0000
1000
0010
1000
0010
0000
0100
0001
0100
,
0001
0000
0010
0100
0000
1000
0010
1000
0000
0001
0000
0010
0001
0100
0010
1000
,
0100
0000
1000
0001
0000
0010
0100
0000
1000
0001
0010
0001
0010
0100
1000
0001
,
0100
0000
0010
1000
0000
0100
1000
0001
0000
0010
0000
0001
0100
0000
0010
0000
,
1010
0000
0000
0011
0000
0000
1010
0000
1000
0100
0010
0001
1000
0100
0010
0001
,
0100
0000
0010
1000
0001
1000
0010
0100
0000
0001
0000
1000
0001
0000
0100
0010
,
0100
0000
0001
1000
0000
0001
0010
0000
0001
0100
0010
0100
0001
1000
0100
1000
,
0010
0000
0100
0001
0000
0010
0100
1000
0000
0001
0000
1000
0010
0000
0100
0000
,
0001
0010
0001
0010
0000
0100
1000
0000
0001
0100
0001
0100
0000
0010
1000
0010
,
1000
0000
0100
1000
0000
0010
0100
0001
0000
1000
0000
0001
0010
0001
0010
0100
,
1000
0000
0010
0100
0000
0001
0010
0000
0100
1000
0100
1000
0010
0100
0001
0010
,
0001
0000
0010
0100
0000
1000
0010
1000
0001
0100
0000
0010
0100
0001
1000
0000
,
1100
0000
0000
0101
0000
0000
1100
0000
0001
0010
0100
1000
0001
0010
0100
1000
,
0020
0000
0000
0000
,
0000
0000
0000
0230
,
0301
0000
0000
0001
0000
0000
1000
0000
0000
1000
0000
0000
0001
0000
1000
0000
,
0010
1000
0100
0010
0001
1000
0001
0000
0200
0000
0000
0000
0320
0000
0000
0000
,
1030
0000
0000
1000
0000
0000
0001
0000
0000
0001
0000
0000
1000
0000
0001
0000
,
0010
0001
0010
0100
2000
0000
0000
0000
3001
1000
0002
0000
0000
0000
0103
0010
,
0100
0000
0000
0100
0000
0000
0010
0000
0000
0010
0000
0000
0100
0000
0010
0000
,
1000
0100
0010
0100
0001
0100
0010
0100
2000
0000
0000
0000
3002
0000
0000
0000
,
0013
0000
0000
0010
0000
0000
0100
0000
0000
0100
0000
0000
0010
0000
0100
0000
,
1000
0010
0001
0010
2000
0000
0000
0000
3100
0001
0200
0000
0000
0000
1300
0000
,
0110
0000
0000
0001
0000
0000
1000
0000
0000
0001
0000
0000
0100
0000
0010
0000
,
1000
0000
0000
0100
0000
0000
1000
0000
0000
0001
0000
0000
0010
0000
0100
0000
,
1000
0000
0000
0010
0000
0000
0100
0000
0000
0001
0000
0000
0010
0000
0001
0000
,
1000
0000
0000
1000
0000
0000
1000
0000
0001
0000
0000
0001
0000
0000
0001
0000
,
1001
0000
0100
0010
0000
0100
0010
0000
1001
0000
0100
0010
0000
0100
0010
0000
,
1000
0100
1000
0100
0001
0100
0001
0100
1000
0010
1000
0010
0001
0010
0001
0010
,
1000
0100
1000
0100
0001
0100
0001
0100
1000
0100
1000
0100
0001
0100
0001
0100
,
1000
0001
0100
0010
1000
0001
0100
0010
1000
0001
0100
0010
1000
0000
0000
0000
,
1100
0000
0010
0001
0000
0100
0010
1000
0000
0001
0000
0010
0001
0100
0010
0000
,
1000
0000
0100
1000
0000
0001
0100
0000
0010
0100
0001
0100
0010
1000
0010
0100
,
0001
0000
0010
0001
0000
0010
0100
1000
0000
0010
0000
1000
0001
0000
0100
0000
,
0110
0000
0000
1001
0000
0000
0110
0000
1000
0010
0100
0001
1000
0010
0100
0001
,
0010
0000
0100
1000
0000
0010
1000
0001
0100
0010
0000
1000
0001
0000
0010
0100
,
0010
0000
0001
0100
0000
0010
1000
0000
0100
0010
0100
1000
0010
0100
0001
1000
,
0001
0000
0010
0001
0000
0100
0010
0000
1000
0100
1000
0001
0010
0000
0100
0000
,
1100
0000
0000
0110
0000
0000
0011
0000
0100
0010
0100
0010
1000
0001
1000
0001
,
0010
0000
0000
0011
0000
0000
0101
0000
0000
1001
0000
0000
1010
0000
1100
0000
,
1000
0000
0010
0000
0100
0001
0100
0001
0100
0000
0010
1000
0000
0001
1000
0000
,
1100
0000
0000
0011
0000
0000
1010
0000
0000
0101
0000
0000
0110
0000
1001
0000
,
1000
0100
0010
0100
1000
0010
0100
0010
1000
0000
0001
0100
0000
0001
0100
0000
,
0110
0000
0000
1001
0000
0000
0110
0000
0000
1001
0000
0000
0110
0000
1001
0000
,
1000
0100
1000
0100
0010
0001
0010
0001
0100
0000
0010
1000
0000
0001
0100
0000
,
0101
0000
0000
0101
0000
0000
0101
0000
0000
0101
0000
0000
0101
0000
0101
0000
,
1000
0100
0010
0001
0010
0100
1000
0100
0010
0001
0010
0100
1000
0100
0020
0002
,
0000
0000
0000
0000
,
0003
0000
0000
0000
,
0030
0000
0000
0000
;
