#TITLE:FIRE WIRE;
#ARTIST:PINK PONG;
#BANNER:FIRE WIRE-bn.png;
#BACKGROUND:FIRE WIRE-bg.png;
#JACKET:FIRE WIRE-jacket.png;
#MUSIC:FIRE WIRE.ogg;
#SAMPLESTART:44.75;
#SAMPLELENGTH:20;
#DISPLAYBPM:137;
#BPMS:0=137;
#BGCHANGES:;

//---------------dance-single - ----------------
#NOTES:
     dance-single:
     :
     Beginner:
     2:
     :
0000
0000
0000
0000
,
0000
0000
0000
0000
,
0010
0000
0001
0000
,
0100
0000
1000
0000
,
0010
0000
1000
0000
,
0100
0000
0001
0000
,
1001
0000
0000
0000
,
0001
0001
0000
0000
,
1001
0000
0000
0000
,
1000
1000
0000
0000
,
1001
0000
0000
0000
,
0010
0010
0000
0000
,
1001
0000
0000
0000
,
0100
0100
0000
0000
,
0001
0000
0001
0000
,
1000
0000
1000
0000
,
0010
0000
0010
0000
,
0100
0000
0100
0000
,
0001
0000
0001
0000
,
1000
0000
1000
0000
,
0010
0000
0010
0000
,
0100
0000
0100
0000
,
1001
0000
0000
0000
,
0010
0000
0000
0000
,
1000
0000
0000
0000
,
0001
0000
0100
0000
,
0010
0000
1000
0000
,
0010
0000
1000
0000
,
0001
0000
0100
0000
,
0001
0000
0100
0000
,
0001
0000
0010
0000
,
0001
0000
0010
0000
,
0100
0000
1000
0000
,
0100
0000
1000
0000
,
0001
0000
1000
0000
,
0010
0000
1000
0000
,
0100
0000
0010
0000
,
0100
0000
1000
0000
,
1001
0000
0010
0000
,
1000
0000
0100
0000
,
1000
0000
0010
0000
,
0100
0000
0001
0000
,
0010
0000
0000
0000
;

//---------------dance-single - ----------------
#NOTES:
     dance-single:
     :
     Easy:
     6:
     :
0000
0000
0000
0000
,
0000
0000
0000
0000
,
0010
0001
0100
0000
,
0010
1000
0100
0000
,
1000
0001
0100
0000
,
0010
1000
0001
0000
,
1001
0000
0010
0000
0000
0100
0000
0000
,
0001
0000
1000
0000
0000
0010
0000
0000
,
1000
0000
0100
0000
0000
0010
0000
0000
,
0001
0000
1000
0000
0000
0001
0000
0000
,
0010
0000
0001
0000
0000
0100
0000
0000
,
0001
0000
1000
0000
0000
0001
0000
0000
,
1000
0000
0010
0000
0000
0100
0000
0000
,
0010
0000
0100
0000
0000
0001
0000
0000
,
0110
0001
0100
1000
,
0010
1000
0001
0100
,
0110
0001
0010
0100
,
1000
0010
1000
0001
,
1001
0010
0001
0100
,
0010
1000
0001
1000
,
0110
0010
1000
0001
,
1000
0100
0010
0001
,
1001
0000
0010
0000
,
1000
0000
0100
0000
,
1000
0000
0001
0000
,
0100
0010
0110
1001
,
0010
1000
0001
0001
,
0010
1000
0100
1000
,
0010
1000
0010
0001
,
0001
0100
0100
1000
,
0001
0100
1000
1000
,
0001
0100
0010
1000
,
0010
0100
0100
0010
,
0001
0100
0001
0010
,
0001
1000
0100
1000
,
0000
0010
1000
0001
,
0000
0010
0001
0100
,
0000
0001
0010
1000
,
0110
0001
0010
1000
,
0100
0010
0100
1000
,
1001
0010
0001
0100
,
1000
0110
1001
0100
,
0010
0000
0000
0000
;

//---------------dance-single - ----------------
#NOTES:
     dance-single:
     :
     Medium:
     9:
     :
0000
0000
0000
0000
,
0000
0000
0000
0000
,
0010
0001
0100
1000
,
0001
1000
0100
0010
,
0100
1000
0010
0001
,
1000
0001
0100
0010
,
1001
0000
0010
1000
0000
0100
0000
1000
,
0001
0000
0010
0001
0000
0100
0000
0001
,
0010
0000
0100
1000
0000
0010
0000
1000
,
0100
0000
1000
0001
0000
0010
0000
0001
,
1000
0000
0010
0100
0000
0001
0000
0100
,
0010
0000
1000
0001
0000
0010
0000
0001
,
1000
0000
0010
1000
0000
0001
0000
1000
,
0100
0000
0010
0100
0000
1000
0000
0001
,
0100
0000
0010
0000
0110
0000
0001
1000
,
0100
0000
1000
0000
1010
0000
0001
0010
,
0001
0000
1000
0000
0101
0000
0010
0100
,
0010
0000
1000
0000
1100
0000
0001
0100
,
0001
0000
0010
0000
0011
0000
1000
0100
,
0010
0000
0001
0000
0101
0000
0010
1000
,
0001
0000
0100
0000
1010
0000
1000
0001
,
1000
0010
1000
0000
0001
0010
0001
0000
,
1001
0000
0010
0000
0100
0000
0001
1000
,
0001
0000
0010
0000
0001
0000
1000
0100
,
1000
0000
0010
0000
0100
0000
0001
1000
,
0001
0100
0101
1100
,
0010
1000
0010
0000
1000
0001
1000
0000
,
0100
0010
0100
0000
0010
0001
0010
0000
,
0001
0100
0010
0000
1000
0001
0010
0000
,
0001
0010
0001
0000
1000
0100
1000
0000
,
0010
1000
0001
0000
1000
0100
0010
0000
,
0100
0010
0100
0000
0010
0001
1000
0000
,
0001
0100
0001
0000
0010
0100
1000
0000
,
0010
1000
0001
0000
1000
0100
0010
0000
,
0001
0100
0010
1000
0001
0000
0001
0010
,
0000
0100
0010
0001
1000
0000
1000
0010
,
1000
0100
0000
0100
0010
0000
0010
0001
,
0000
0100
0000
0010
1000
0000
0001
0100
,
0010
0000
1000
0100
0001
0000
0010
0001
,
0100
0000
0001
0010
0100
0000
1000
0010
,
1000
0000
0100
0010
0001
0000
1000
0001
,
0100
0000
0010
0000
0110
0000
1000
0001
,
0010
0000
0000
0000
;

//---------------dance-single - ----------------
#NOTES:
     dance-single:
     :
     Hard:
     12:
     :
0000
0000
0000
0000
,
0000
0000
0000
0000
,
0010
0000
0000
0000
0001
0000
0000
0100
0000
0000
0010
0000
0000
1000
0000
0000
,
1000
0000
0000
0000
0001
0000
0000
1000
0000
0000
0010
0000
0000
0100
0000
0000
,
0100
0000
0000
0000
0010
0000
0000
1000
0000
0000
0100
0000
0000
0001
0000
0000
,
0001
0000
0000
0000
0010
0000
0000
0001
0000
0000
1000
0000
0010
0000
0100
0000
,
1001
0000
0010
1000
0100
0010
0001
1000
,
0001
0000
0100
0010
1000
0001
0010
0100
,
1001
0000
0000
0000
0001
0000
0000
0010
0000
0000
0100
0000
0000
1000
0000
0000
,
1000
0000
0000
0000
0010
0000
0000
1000
0000
0000
0001
0000
0100
0010
0100
0000
,
1001
0000
0001
0010
0001
0100
0010
1000
,
0100
0000
0000
0000
1000
0000
0010
0000
1000
0000
0001
0000
0100
0010
0100
0000
,
0110
0000
0001
0010
0001
0100
1000
0100
,
0001
0000
0000
0000
0110
0000
0000
0000
1000
0001
1000
0001
1000
0001
1000
0000
,
0010
0000
0000
1010
0000
0000
0100
0000
0101
0000
0000
0001
0000
1000
0001
0000
,
0010
0000
0000
0001
0000
0000
0100
0000
0101
0000
0000
0010
0000
1000
0001
0000
,
1000
0000
0000
1100
0000
0000
0001
0000
0101
0000
0000
0100
0000
0010
0100
0000
,
0010
0000
0000
1010
0000
0000
1000
0000
1100
0000
0000
0001
0000
1000
0100
0000
,
1001
0000
0000
0010
0000
0000
0100
0000
0001
0000
0000
0010
0000
0001
1000
0000
,
0100
0000
0000
0010
0000
0000
0001
0000
0110
0000
0000
0001
0000
1000
0010
0000
,
1001
0000
0000
0100
0000
0000
0001
0000
1000
0000
0000
0100
0000
1000
0010
0000
,
0100
0000
0001
0000
0010
0000
0100
0000
1000
0000
0000
0010
0000
1000
0001
0000
,
0101
0000
0000
0010
0000
0000
1000
0000
1000
0000
0000
0100
0000
0010
0001
0000
,
0100
0000
0000
0001
0000
0000
0010
0000
0010
0000
0000
0001
0000
1000
0100
0000
,
1000
0000
0000
0001
0000
0000
0100
0000
0100
0000
0000
0010
0000
1000
0010
0000
,
0100
0000
0000
0001
1000
0000
0100
0000
1100
0000
0000
0000
0101
0000
0000
0000
,
0010
1000
0001
0001
0100
0100
1000
0010
,
0100
0010
1000
0001
0010
0100
1000
0001
,
0010
1000
0001
1000
0100
0100
0001
0010
,
0100
0001
1000
1000
0100
0001
0010
0010
,
0010
0100
0100
0001
0001
1000
1000
0010
,
0001
0010
0010
0001
1000
0100
0100
1000
,
0100
1000
0010
0100
0001
0010
0001
1000
,
0100
1000
0001
0001
0010
0010
0100
1000
,
0001
0000
1000
0000
0100
1000
0000
0100
1000
0000
0000
0001
0000
0000
0100
0000
,
0010
0000
1000
0000
0001
1000
0000
0001
1000
0000
0000
0010
0000
0000
0100
0000
,
0001
0000
0010
0000
0100
0010
0000
0100
0010
0000
0000
0001
0000
0000
1000
0000
,
0001
0000
1000
0000
0010
1000
0000
0010
1000
0000
0000
0100
0000
0000
0010
0000
,
0001
0000
0000
0100
0000
0000
0010
0000
1010
0000
0000
1000
0000
0001
0100
0000
,
0010
0000
0000
1000
0000
0000
0100
0000
1100
0000
0000
0001
0000
1000
0010
0000
,
0100
0000
0000
0001
0000
0000
1000
0000
0101
0000
0000
0001
0000
0010
0100
0000
,
1000
0000
0000
0001
0000
0000
0010
0000
0011
0000
0000
1000
0000
0001
0100
0000
,
0010
0000
0000
0000
;
