#TITLE:Everything I Need;
#ARTIST:Brooke;
#BANNER:Everything I Need.png;
#BACKGROUND:Everything I Need-bg.png;
#JACKET:Everything I Need-jacket.png;
#MUSIC:Everything I Need.ogg;
#SAMPLESTART:50.39;
#SAMPLELENGTH:20;
#DISPLAYBPM:50:100;
#BPMS:0=100,164=96.774,165=94.737,166=90,167=50;
#BGCHANGES:;

//---------------dance-single - ----------------
#NOTES:
     dance-single:
     :
     Beginner:
     1:
     :
0000
0000
0000
0000
,
0000
0000
0000
0000
,
0000
0000
0000
0000
,
0000
0000
0000
0000
,
0000
0000
0000
0000
,
1000
0000
0000
0000
,
0001
0000
0000
0000
,
0010
0000
0000
0000
,
0100
0000
0100
0000
,
1000
0000
1000
0000
,
0100
0000
0100
0000
,
0001
0000
0001
0000
,
0100
0000
0100
0000
,
1000
1000
0000
0000
,
0010
0010
0000
0000
,
0001
0001
0000
0000
,
0010
0000
0010
0000
,
1000
0000
1000
0000
,
0100
0000
0100
0000
,
0010
0000
0010
0000
,
0001
0000
0001
0000
,
1000
1000
0000
0000
,
0001
0000
0001
0000
,
0010
0010
0000
0000
,
0100
0000
0100
0000
,
1000
1000
0000
0000
,
0100
0000
0100
0000
,
0001
0000
0000
0000
,
0000
0010
0010
0010
,
0010
0000
1000
0000
,
0010
0000
0000
0000
,
0001
0000
0001
0000
,
0100
0000
0000
0000
,
1000
0000
1000
0000
,
0001
0000
0000
0000
,
1000
0000
0000
0000
,
1001
0000
0000
0000
,
0001
0000
0001
0000
,
0100
0000
0100
0000
,
1000
0000
1000
0000
,
0001
0000
0000
0000
,
1000
0000
0000
0000
,
0001
0000
0000
0000
,
0000
0000
0000
0000
;

//---------------dance-single - ----------------
#NOTES:
     dance-single:
     :
     Easy:
     4:
     :
0000
0000
0000
0000
,
0000
0000
0000
0000
,
0000
0000
0000
0000
,
0000
0000
0000
0000
,
0000
0000
0000
0000
,
0010
1000
0000
0000
,
0001
0100
0000
0000
,
0010
1000
0000
0000
,
0001
0001
0100
0000
,
0010
0010
1000
0100
,
0010
0000
0001
0000
,
1000
0100
0001
0100
,
1000
1000
0100
0000
,
0010
0002
0000
0003
,
1000
0200
0000
0300
,
0010
0002
0000
0003
,
2000
3100
0002
0103
,
0010
0010
0001
0100
,
0020
0030
2000
3000
,
0001
0100
1000
0100
,
2000
3000
0100
0100
,
0001
0010
0001
0010
,
0200
0300
1000
0001
,
0010
0001
0010
0001
,
2000
3000
0001
0100
,
0010
1000
0010
1000
,
0001
0100
0010
1000
,
0001
0100
0001
0100
,
2000
3000
0100
0001
,
0020
1030
1000
0001
,
0020
0030
0001
1000
,
0200
1300
1000
0001
,
0020
0030
0001
1000
,
0002
0103
0100
0001
,
0100
0001
1000
0010
,
1000
1000
0100
0100
,
2002
0000
0000
3003
,
0002
0003
0020
0030
,
0200
0300
2000
3000
,
0020
0030
0200
0300
,
2002
0000
0000
3003
,
2000
0000
0000
0000
,
0002
0000
0000
0000
,
3003
0000
0000
0000
,
0000
0000
0000
0000
;

//---------------dance-single - ----------------
#NOTES:
     dance-single:
     :
     Medium:
     6:
     :
0000
0000
0000
0000
,
0000
0000
0000
0000
,
0000
0000
0000
0000
,
0000
0000
0000
0000
,
0000
0000
0000
0000
,
0200
0000
1000
0000
0000
0000
0310
0001
,
0200
0000
0001
0000
0000
0000
0310
1000
,
0200
0000
1000
0000
0000
0000
0310
0001
,
0200
0000
0300
1000
0200
0000
0302
0000
,
0013
1000
0010
0001
,
0100
0000
0010
1000
0100
0000
0010
0001
,
0100
1000
0100
0001
,
0010
0000
0100
1000
0010
0000
0100
0001
,
0200
0000
0001
0000
0000
0000
0310
1000
,
0200
0000
1000
0000
0000
0000
0310
0001
,
0200
0000
0001
0000
0000
0000
0310
1000
,
0200
0000
0300
0001
0200
0000
2300
0000
,
3010
0001
0010
1000
,
0100
0000
0010
0001
0100
0000
0010
1000
,
0100
0000
0001
0000
0100
1000
0010
0000
,
0001
0010
1000
0100
0020
0000
0032
0000
,
1003
0000
0010
0010
0001
0001
0100
0100
,
0002
0000
0020
0033
,
1000
0000
0100
0100
0001
0001
0100
0100
,
2000
0000
0020
3030
,
0001
0000
0010
0010
1000
1000
0100
0100
,
0011
1100
1010
0101
,
0001
0010
0001
0100
0000
1000
0100
0001
,
0020
0000
1000
0000
0100
0000
0031
0010
,
0001
0000
0010
0010
1000
1000
0100
0100
,
2000
0000
0020
3030
,
0001
0000
0100
0100
1000
1000
0100
0100
,
0002
0000
0020
0033
,
1000
0000
0010
0010
0001
0001
0100
0100
,
1010
0101
0011
1100
,
1000
0000
0010
1000
0020
0000
0031
0000
,
0020
2030
3200
0300
,
0002
0000
0200
0303
,
2000
0000
0000
0000
3100
0000
0010
0001
,
0020
0000
0200
0330
,
2000
0000
0002
3003
,
0010
0001
0200
0000
,
0002
0000
0000
0000
,
0303
0000
0000
0000
,
0000
0000
0000
0000
;

//---------------dance-single - ----------------
#NOTES:
     dance-single:
     :
     Hard:
     9:
     :
0000
0000
0000
0000
,
0000
0000
0000
0000
,
0000
0000
0000
0000
,
0000
0000
0000
0000
,
0000
0000
0000
0000
,
2000
0000
0000
0000
3001
0000
0000
0000
0100
0000
1000
0000
0001
0000
0100
0010
,
0200
0000
0000
0000
0301
0000
0000
0000
1000
0000
0100
0000
0010
0000
0001
1000
,
0002
0000
0000
0000
1003
0000
0000
0000
0010
0000
0100
0000
0001
0000
1000
0001
,
2000
0000
0000
3100
0020
0000
0031
0000
,
2000
0010
0010
0001
3002
0100
0103
0000
,
0202
0000
0303
1000
2200
0000
3300
0001
,
2000
0001
3001
0100
0100
0010
1000
0001
,
0020
0000
0000
0000
0000
0000
0031
1000
0001
0000
0100
0000
0010
0000
1000
0000
,
2000
0000
0000
0000
3100
0000
0000
0000
0010
0000
0001
0000
0100
0000
0010
0100
,
0020
0000
0000
0000
0130
0000
0000
0000
1000
0000
0001
0000
0010
0000
0001
1000
,
0002
0000
0000
0000
0103
0000
0000
0000
0010
0000
1000
0000
0100
0000
0010
0001
,
2000
0000
0000
3001
0100
0001
1000
0000
,
0100
0100
0010
0001
1000
0001
0010
0100
,
1000
0000
0000
1000
0100
0010
0001
0100
,
0010
0000
1000
0001
0100
1000
0001
1000
,
0100
0000
0010
0000
0001
0000
1000
0000
0010
0000
0100
0000
0001
0000
1000
0001
,
1000
0000
0100
0010
0001
1000
0001
0100
,
0010
0000
0000
0000
1000
0000
0001
0000
1000
0000
0100
0000
0010
0000
0001
0100
,
0001
0000
0100
1000
0100
0010
0001
0100
,
0010
0000
0000
0000
1000
0000
0001
0000
0100
0000
0001
0000
0010
0000
0100
1000
,
0100
0000
0010
0001
1000
0001
0100
0001
,
1000
0000
0100
0010
0001
0000
0100
0010
,
1000
0000
0100
2000
0000
3002
0000
0013
,
0100
0000
0000
0000
1000
0000
0001
0000
0100
0000
1000
0000
0010
0000
1000
0001
,
0100
0000
0000
0000
1000
0000
0001
0000
0010
0000
0100
0000
1000
0000
0001
1000
,
0002
2003
0100
3001
,
0100
0000
1000
0000
0001
0000
0100
0000
0010
0000
1000
0000
0010
0000
0100
0010
,
0200
0302
2003
3020
,
1030
0000
0010
1000
0100
1000
0001
0010
,
0200
2300
3020
0031
,
1000
0000
0001
0000
0100
0000
0001
0000
1000
0000
0010
0000
0100
0000
0001
1000
,
0002
0000
2000
3003
,
0020
0000
0200
0330
,
2000
0000
0002
3003
,
0200
0000
2000
3300
,
0020
0000
0002
0033
,
1000
0100
0010
0001
0100
0010
1000
0000
,
0020
0000
0000
0000
,
0030
0000
0000
0000
,
0000
0000
0000
0000
;

//---------------dance-single - ----------------
#NOTES:
     dance-single:
     :
     Challenge:
     12:
     :
0000
0000
0000
0000
,
0000
0000
0000
0000
,
0000
0000
0000
0000
,
0000
0000
0000
0000
,
0000
0000
0000
0000
,
0011
0100
0010
1000
1010
0100
0010
0001
,
0100
0010
0100
0001
1100
0010
1000
0001
,
0010
0001
1000
0010
0101
1000
0001
0100
,
0110
0001
0010
1000
1001
0100
0010
0001
,
0200
0010
0320
1000
2030
0001
3001
0100
,
1010
0001
0010
1000
0100
0010
0001
0100
,
0002
1000
2003
0100
3200
0010
0310
0001
,
0100
1000
0010
0100
0011
0001
0100
1000
,
1100
0010
1000
0001
0101
0010
0100
0001
,
0010
1000
0100
0010
1001
0100
0001
0010
,
1000
0100
0001
0010
0110
0001
0100
1000
,
1100
0010
1000
0001
0011
0100
0010
1000
,
0002
0010
0023
1000
2030
0100
3100
0010
,
0110
0001
0100
0010
1001
0100
1000
0001
,
0200
0001
0302
1000
2003
0010
3010
0100
,
0001
0000
1010
0000
0101
0000
1000
0100
0010
0001
0010
0100
1000
0100
0010
0001
,
0100
0000
0001
0000
0101
0000
0010
0000
1000
0100
1000
0000
0001
0000
0010
0100
,
1000
0001
1000
0001
0100
0000
0010
0000
1010
0000
0100
0000
1001
0000
0010
0000
,
0001
0100
0010
0100
0001
0000
1000
0000
0100
0010
0100
1000
0001
0000
0010
0000
,
0100
0000
0011
0000
1000
0000
1100
0000
0001
0010
0100
0010
0001
0000
1000
0100
,
1000
0000
0010
0100
0001
0000
0010
0100
1000
0000
0001
0000
0110
0000
0001
0000
,
1000
0100
0010
0100
0010
0100
1000
0000
0001
0100
0010
0100
0010
0100
0001
1000
,
0001
0000
0010
0001
1000
0000
0110
0000
1001
0000
0010
0000
1000
0000
0001
0000
,
1100
0010
0101
1000
0011
0100
1010
0001
,
0010
0001
0010
0100
1000
0000
0010
0100
0001
0000
1000
0000
0100
1000
0001
1000
,
0010
0100
0010
1000
0001
0000
0010
0100
1000
0000
1001
0000
0100
0000
1010
0000
,
0001
0010
0001
0100
1000
0000
0010
0100
0001
0000
0010
0001
1000
0000
0100
0000
,
1000
0010
0100
0001
1000
0000
0010
0000
1100
0000
0001
0000
0110
0000
0100
0000
,
0011
0000
0001
0100
1000
0000
0010
0000
0100
0000
0001
0010
0001
0000
1000
0000
,
0101
0000
0010
1000
0001
0000
0010
0100
1000
0000
0001
0100
0001
0000
1000
0000
,
1010
0000
1100
0000
0011
0000
0101
0000
1000
0010
0001
0010
1000
0000
0100
0010
,
2002
0000
0000
0000
3003
0000
0000
0000
0001
0010
0100
1000
0001
0010
0100
1000
,
0020
1000
1000
0100
2000
0000
3030
0000
,
0002
0100
0100
0010
0200
0000
0303
0000
,
2000
0100
0100
0001
0200
0000
3300
0000
,
0002
0010
0010
1000
0020
0000
0033
0000
,
0001
0100
0010
1000
0010
0100
1000
0001
,
0220
0000
0000
0000
,
0000
0330
0000
0000
;

//---------------dance-double - ----------------
#NOTES:
     dance-double:
     :
     Easy:
     4:
     :
00000000
00000000
00000000
00000000
,
00000000
00000000
00000000
00000000
,
00000000
00000000
00000000
00000000
,
00000000
00000000
00000000
00000000
,
00000000
00000000
00000000
00000000
,
00100000
00010000
00000000
00000000
,
00001000
00000100
00000000
00000000
,
00000001
00000100
00000000
00000000
,
00001000
00001000
00010000
00000000
,
00100000
10000000
00100000
00010000
,
00001000
00000000
00000010
00000000
,
00001000
00010000
01000000
10000000
,
01000000
00010000
00001000
00000000
,
00001000
00000200
00000000
00000300
,
00001000
00020000
00000000
00030000
,
00100000
20000000
00000000
30000000
,
00200000
00310000
00020000
00031000
,
00000100
00000001
00000100
00001000
,
00020000
00030000
01000000
00000000
,
10000000
01000000
00010000
00001000
,
00000200
00000000
00000000
00000300
,
00000100
00001000
00010000
00100000
,
20000000
30000000
00100000
00010000
,
00001000
00000010
00000100
00000001
,
00000200
00000300
00001000
00010000
,
00100000
10000000
00010000
00001000
,
00000100
00000001
00000100
00001000
,
00010000
00000000
01000000
00000000
,
00020000
00030000
00001000
00000100
,
00000001
00000100
00001000
00010000
,
00200000
00300000
10000000
00100000
,
00010000
00001000
00000010
00000001
,
00000020
00000030
00001000
00010000
,
01000000
10000000
01000000
00010000
,
00001000
00000000
00000100
00000000
,
00001000
00001000
00010000
00010000
,
02020000
00000000
00000000
03030000
,
00020000
00030000
00002000
00003000
,
00000020
00000030
00002000
00003000
,
00020000
00030000
00200000
00300000
,
20020000
00000000
00000000
30030000
,
00020000
00000000
00000000
00030000
,
00002000
00000000
00000000
00000000
,
00003000
00000000
00000000
00000000
,
00000000
00000000
00000000
00000000
;

//---------------dance-double - ----------------
#NOTES:
     dance-double:
     :
     Medium:
     6:
     :
00000000
00000000
00000000
00000000
,
00000000
00000000
00000000
00000000
,
00000000
00000000
00000000
00000000
,
00000000
00000000
00000000
00000000
,
00000000
00000000
00000000
00000000
,
00200000
00000000
00000000
00000000
00320000
00000000
01030000
01000000
,
00020000
00000000
00000000
00000000
00032000
00000000
00013000
00010000
,
00002000
00000000
00000000
00000000
00003020
00000000
00000031
00000001
,
00000020
00000000
00002000
00003030
,
00010000
00001000
00000100
00001000
,
00010000
00000000
00100000
00010000
01000000
00000000
00010000
00000000
,
00001000
00010000
00100000
00010000
,
00001000
00000000
00000100
00001000
00000010
00000000
00001000
00000000
,
00000020
00000000
00000000
00000000
00002030
00000000
00003100
00000100
,
00002000
00000000
00000000
00000000
00023000
00000000
00031000
00001000
,
00020000
00000000
00000000
00000000
00230000
00000000
10300000
10000000
,
00200000
00000000
00020000
00330000
,
00001000
00010000
01000000
00010000
,
00001000
00000000
00000010
00001000
00000100
00000000
00001000
00000000
,
00010000
00000000
00001000
00000000
00000010
00001000
00000100
00000000
,
00001000
00010000
00100000
00000000
10000000
00000000
00100000
00000000
,
00010000
00100000
00010000
01000000
00000000
00010000
00001000
00010000
,
00002000
00003000
00001010
00000000
,
00000001
00000100
00000001
00000010
00000000
00001000
00000100
00001000
,
00020000
00030000
01010000
00000000
,
00100000
10000000
01000000
10000000
00000000
00100000
00010000
00001000
,
00000020
00000032
00000203
00001300
,
00010000
00001000
00010000
00000000
01000000
10000000
01000000
00000000
,
00200000
00320000
00032000
00003010
,
00001000
00000010
00001000
00000100
00000000
00001000
00010000
00001000
,
00020000
00030000
00110000
00000000
,
10000000
01000000
10000000
00100000
00000000
00010000
01000000
00010000
,
00002000
00003000
00001100
00000000
,
00000010
00000001
00000100
00000001
00000000
00000010
00001000
00010000
,
00200000
20300000
32000000
03010000
,
00001000
00000000
00000100
00001000
00000100
00000000
00000001
00000000
,
00000020
00002030
00023000
00030000
,
00200000
00000000
20000000
00300000
,
01000000
30010000
02000000
00000000
,
00020000
03000000
00002000
00030000
,
00000200
00003000
00000001
00000310
,
00002000
00003020
00002030
00000000
,
00020000
00000000
00000000
00000000
,
00033000
00000000
00000000
00000000
,
00000000
00000000
00000000
00000000
;

//---------------dance-double - ----------------
#NOTES:
     dance-double:
     :
     Hard:
     9:
     :
00000000
00000000
00000000
00000000
,
00000000
00000000
00000000
00000000
,
00000000
00000000
00000000
00000000
,
00000000
00000000
00000000
00000000
,
00000000
00000000
00000000
00000000
,
20000000
00000000
00000000
00000000
30010000
00000000
00000000
00000000
01000000
00000000
00010000
00000000
00001000
00000000
00000100
00000010
,
00000200
00000000
00000000
00000000
00000310
00000000
00000000
00000000
00001000
00000000
00000001
00000000
00000100
00000000
00001000
00010000
,
00002000
00000000
01003000
00000000
00100000
10000000
01000000
00010000
,
00002000
00000000
00000000
00003100
00000020
00000000
00001030
00000000
,
00000200
00000010
00000010
00001000
00002300
00000000
00013000
00001000
,
00022000
00000000
00033000
01000000
02200000
00000000
03300000
00010000
,
20000000
00000000
30010000
01000000
00100000
01000000
00001000
00010000
,
00000020
00000000
00000000
00000000
00000000
00000000
00001030
00000100
00001000
00000000
00000001
00000000
00000100
00000000
00001000
00000000
,
00020000
00000000
00000000
00000000
01030000
00000000
00000000
00000000
00100000
00000000
00010000
00000000
10000000
00000000
00010000
01000000
,
00002000
00000000
00000000
00000000
00013000
00000000
00000000
00000000
00001000
00000000
00000100
00000000
00000001
00000000
00001000
00000100
,
00000010
00000000
00000000
00000000
00001000
00000000
00000000
00000000
00010000
00000000
01000000
00000000
00100000
00000000
00010000
10000000
,
00020000
00000000
00000000
00000000
00000000
00000000
01030000
00000000
00100000
00000000
00010000
00000000
00001000
00000000
00000100
00000010
,
00000100
00000000
00000001
00000100
00001000
00010000
00100000
10000000
,
02000000
00000000
00000000
13000000
01000000
00100000
00010000
01000000
,
00010000
00000000
00001000
00000010
00000100
00000010
00001000
00010000
,
01000000
00100000
00010000
10000000
01000000
00100000
00010000
00001000
,
00000100
00000000
00000010
00000100
00000001
00000100
00001000
00010000
,
01000000
00000000
00000000
00000000
00100000
00000000
01000000
00000000
10000000
00000000
00000000
00000000
00010000
00000000
01000000
00010000
,
01000000
00000000
00001000
00010000
00000010
00000100
00001000
00010000
,
00100000
00000000
00000000
00000000
10000000
00000000
00010000
00000000
00100000
00000000
00000000
00000000
01000000
00000000
00010000
00001000
,
00010000
00000000
00000010
00001000
00000001
00000010
00001000
00010000
,
01000000
00000000
00100000
01000000
00010000
00000000
01000000
00010000
,
00001000
00000000
00000100
00000020
00000000
00000230
00000000
00001300
,
00010000
00000000
00000000
00000000
00100000
00000000
01000000
00000000
00100000
00000000
10000000
00000000
00010000
00000000
10000000
01000000
,
00100000
00000000
00000000
00000000
00010000
00000000
00001000
00000000
00000100
00000000
00000010
00000000
00001000
00000000
00010000
00001000
,
00020000
02030000
00100000
03010000
,
01000000
00000000
10000000
00000000
00100000
00000000
00010000
00000000
00001000
00000000
00000100
00000000
00000001
00000000
00000010
00000100
,
00000020
00000230
00002300
00023000
,
01030000
00000000
00100000
01000000
00100000
10000000
01000000
00010000
,
00002000
00003200
00000301
00000010
,
00001000
00010000
01000000
00010000
10000000
00100000
01000000
00010000
,
00002000
00000000
00000200
00003300
,
00000020
00000030
00002000
00003000
,
00020000
00030000
02000000
03000000
,
00020000
00030000
00002000
00003000
,
00000200
00000300
00002000
00003000
,
00000001
00000010
00000100
00001000
00010000
00100000
01000000
00000000
,
00200000
00000000
00000000
00000000
,
00300000
00000000
00000000
00000000
,
00000000
00000000
00000000
00000000
;
