#TITLE:Elon Musk Take Me to Mars;
#ARTIST:Lizzie Donohue;
#BANNER:Elon Musk Take Me to Mars-bn.png;
#BACKGROUND:Elon Musk Take Me to Mars-bg.png;
#JACKET:Elon Musk Take Me to Mars-jacket.png;
#MUSIC:Elon Musk Take Me To Mars.ogg;
#SAMPLESTART:104.229;
#SAMPLELENGTH:20;
#DISPLAYBPM:175;
#BPMS:0=175;
#BGCHANGES:;

//---------------dance-single - ----------------
#NOTES:
     dance-single:
     :
     Beginner:
     2:
     :
0000
0000
0000
0000
,
0000
0000
0000
0000
,
0000
0000
0000
0000
,
0000
0000
0000
0000
,
0001
0000
0000
0000
,
1000
0000
0000
0000
,
0010
0000
0000
0000
,
0100
0000
0000
0000
,
0001
0000
0000
0000
,
0010
0000
0000
0000
,
0100
0000
0000
0000
,
1000
0000
0000
0000
,
0010
0000
0010
0000
,
0010
0000
1000
0000
,
0001
0000
0100
0000
,
0100
0000
0001
0000
,
0000
0000
1000
0000
,
0010
0000
0100
0100
,
0000
0001
0000
0000
,
0000
0000
0000
0000
,
0000
0000
0010
0000
,
0001
0000
1000
1000
,
0000
0010
0000
0000
,
0000
0000
0000
0000
,
0000
0000
1000
0000
,
0100
0000
0010
0010
,
0000
0001
0000
0000
,
0000
0000
0000
0000
,
0000
0000
0100
0000
,
0010
0000
1000
1000
,
0000
0001
0000
0000
,
0000
0000
0000
0000
,
0000
0000
0010
0000
,
0001
0000
1000
1000
,
0000
0100
0000
0000
,
0000
0000
0000
0000
,
0010
0000
0000
0000
,
0100
0000
0000
0000
,
1000
0000
0000
0000
,
0001
0000
0000
0000
,
1000
0000
0000
0000
,
0010
0000
0000
0000
,
0100
0000
0000
0000
,
0001
0000
0000
0000
,
0010
0000
0010
0000
,
0001
0000
1000
0000
,
0100
0000
0100
0000
,
1000
0000
0010
0000
,
0000
0000
0100
0000
,
0001
0000
1000
1000
,
0000
0100
0000
0000
,
0000
0000
0000
0000
,
0000
0000
0010
0000
,
0100
0000
1000
1000
,
0000
0010
0000
0000
,
0000
0000
0000
0000
,
0000
0000
0100
0000
,
0100
0000
0001
0001
,
0000
1000
0000
0000
,
0000
0000
0000
0000
,
0000
0000
0100
0000
,
0010
0000
0001
0001
,
0000
0010
0000
0000
,
0000
0000
0000
0000
,
0000
0000
0001
0000
,
1000
0000
0100
0100
,
0000
1000
0000
0000
,
0000
0000
0000
0000
,
0001
0000
0001
0000
,
0001
0000
0000
0000
,
1000
0000
1000
0000
,
1000
0000
0000
0000
,
0010
0000
0010
0000
,
0100
0000
0100
0000
,
0001
0000
1000
0000
,
0010
0010
0000
0000
,
0000
0000
1000
0000
,
0100
0000
1000
1000
,
0000
0001
0000
0000
,
0000
0000
0000
0000
,
0000
0000
0010
0000
,
0001
0000
0100
0100
,
0000
0010
0000
0000
,
0000
0000
0000
0000
,
0000
0000
1000
0000
,
0100
0000
0010
0010
,
0000
0001
0000
0000
,
0000
0000
0000
0000
,
0000
0000
0100
0000
,
0001
0000
1000
1000
,
0000
0001
0000
0000
,
0000
0000
0000
0000
,
0000
0000
0010
0000
,
0100
0000
1000
1000
,
0000
0010
0000
0000
,
0000
0000
0001
0001
,
0001
0000
0000
0000
;

//---------------dance-single - ----------------
#NOTES:
     dance-single:
     :
     Easy:
     8:
     :
0000
0000
0000
0000
,
0000
0000
0000
0000
,
0000
0000
0000
0000
,
0000
0000
0000
0001
,
0010
0000
0000
0001
0000
0000
1000
0000
,
0100
0000
0000
0010
0000
0000
0001
0000
,
0100
0000
0010
1000
0000
0000
0001
0000
,
1000
0000
0000
0100
0000
0000
0000
0000
,
0010
0000
0000
0001
0000
0000
1000
0000
,
0001
0000
0000
0100
0000
0000
0010
0000
,
1000
0000
0001
0100
0000
0000
0010
0000
,
0100
0000
0000
0001
0000
0000
0000
0000
,
0010
0000
0001
0100
0000
0000
0010
0000
,
1000
0000
0100
1000
0000
1000
0001
0000
,
0010
0000
0000
0001
0000
0000
1000
0000
,
0010
0000
1000
0001
0000
0000
0000
0000
,
0000
0000
0000
0000
1000
0100
0010
0001
,
0000
0100
0010
0200
0000
0000
0302
0000
,
0000
1003
0000
0000
,
0000
0000
0000
0000
,
0000
0000
0000
0000
1000
0010
0100
0001
,
0000
0000
0000
0010
0000
0001
2000
0000
,
0000
3100
0000
0000
,
0000
0000
0000
0000
,
1001
0000
0000
0000
1000
0001
0000
0100
,
0000
0000
0000
0010
0000
1000
0002
0000
,
0000
0000
0023
0000
0031
1000
0000
0000
,
0000
0000
0000
0000
,
0000
0000
0000
0000
1000
0100
0000
0010
,
0000
0000
0000
0001
0000
0100
0002
0000
,
0000
0000
1003
0000
0010
0100
0000
0000
,
0000
0000
0000
0000
,
0000
0000
0000
0000
0001
1000
0001
0100
,
0000
0000
0000
0010
0000
0100
0020
0000
,
0000
1030
0000
0000
,
0000
0000
0000
0000
0000
0000
0000
0100
,
0010
0000
0010
0001
0000
0001
1000
0000
,
0010
0000
0000
1000
0000
0000
0001
0000
,
1000
0000
0100
0010
0000
0010
0001
0000
,
0100
0000
0000
0010
0000
0000
0000
1000
,
0100
0000
0010
0001
0000
0001
1000
0000
,
0010
0000
0000
1000
0000
0000
0100
0000
,
0010
0000
0000
0001
0000
0000
1000
0000
,
0100
0000
0010
0001
0000
0000
0000
0000
,
0110
0000
1000
0010
0000
0000
0100
0000
,
0001
0000
0010
0001
0000
1000
0010
0000
,
0100
0000
0000
0001
0000
0000
1000
0000
,
0100
0000
1000
0001
0000
0000
0000
0000
,
1001
0000
0000
0000
0010
0001
0010
0100
,
0000
1000
0010
2000
0000
0000
3002
0000
,
0000
0103
0000
0000
,
0000
0000
0000
0000
,
0000
0000
0000
0000
0001
1000
0001
0010
,
0000
0000
0000
0100
0000
0100
2000
0000
,
0000
3010
0000
0000
,
0000
0000
0000
0000
,
0000
0000
0000
0000
1000
0001
0000
0010
,
0000
0000
0000
0001
0000
0100
0020
0000
,
0000
0000
1030
0000
1000
0001
0000
0000
,
0000
0000
0000
0000
,
0110
0000
0000
0000
0001
0100
0000
0001
,
0000
0000
0000
0010
0000
0100
2000
0000
,
0000
0000
3010
0000
1000
0001
0000
0000
,
0000
0000
0000
0000
,
0000
0000
0000
0000
0001
0010
0100
1000
,
0000
0000
0000
0100
0000
1000
0002
0000
,
0000
0013
0000
0000
,
0000
0000
0000
0000
,
0001
0010
0001
1000
,
0100
0020
0000
0030
,
0001
0100
0001
1000
,
0010
0200
0000
0300
,
0001
1000
0200
0300
,
1000
0010
0002
0003
,
0010
0100
1000
0001
,
1001
1001
0000
0110
,
1001
0000
0000
0000
0010
1000
0010
1000
,
0000
0100
0010
0002
0000
0000
2003
0000
,
0000
3010
0000
0000
,
0000
0000
0000
0000
,
0000
0000
0000
0000
1000
0001
1000
0010
,
0000
0000
0000
0100
0000
0001
0200
0000
,
0000
0310
0000
0000
,
0000
0000
0000
2000
0000
3002
0000
0000
,
0013
0000
0000
0000
0001
0100
0000
0001
,
0000
0000
0000
0010
0000
0100
2000
0000
,
0000
0000
3200
0000
1300
0001
0000
0000
,
0000
0000
0000
0000
,
0000
0000
0000
0000
0010
0100
0000
0100
,
0000
0000
0000
1000
0000
0001
0200
0000
,
0000
0000
0302
0000
0013
0100
0000
0000
,
0000
0000
0000
0000
,
1001
0000
0000
0000
1000
0010
0100
0010
,
0000
0000
0000
1000
0000
0001
0200
0000
,
0000
0301
0000
0000
,
0000
0000
0000
0000
0001
1000
0001
0000
,
0220
0000
0000
0000
,
0000
0000
0000
0000
,
0330
0000
0000
0000
;

//---------------dance-single - ----------------
#NOTES:
     dance-single:
     :
     Medium:
     10:
     :
0000
0000
0000
0000
,
0000
0000
0000
0000
,
0000
0000
0000
0000
,
0000
0000
0000
0000
0000
0001
1000
0000
,
0010
1000
0100
0010
,
0001
0100
0001
1000
,
0100
0010
0100
1000
,
0010
0100
0010
1000
,
0100
0010
0001
0100
,
0001
0010
0001
1000
,
0100
0010
0001
0100
,
0010
0000
1000
0000
0000
0001
1000
0000
,
0010
0000
1000
0100
0000
0000
0001
0000
,
0010
0000
0001
1000
0000
0001
0100
0000
,
0010
0000
1000
0001
0000
0000
0100
0000
,
0110
0000
0010
1000
0000
0100
0001
0000
,
1001
0000
0001
0000
1000
0100
0010
0001
,
0000
0100
0010
2000
0000
0000
3002
0000
,
0000
0000
0013
0000
0001
0100
0000
0010
,
0000
1000
0000
0100
0000
1000
0001
0000
,
0010
0000
0100
0000
1000
0010
0000
0100
,
0000
0001
0000
0010
0000
0001
2000
0000
,
0010
0000
3100
0000
1000
0010
0000
0100
,
0000
0001
0000
0010
0000
0001
1000
0000
,
0100
0000
0010
0000
0100
1000
0000
0001
,
0000
0010
0000
0001
0000
1000
0020
0000
,
0001
0000
0130
0000
0010
1000
0000
0001
,
0000
0010
0000
0001
0000
0100
0010
0000
,
0100
0000
0001
0000
1000
0100
0000
0001
,
0000
0010
0000
0001
0000
1000
0200
0000
,
0001
0000
1300
0000
0100
0010
0000
0100
,
0000
1000
0000
0010
0000
1000
0001
0000
,
0010
0000
0001
0000
0010
0100
1000
0001
,
0000
0100
0000
0010
0000
1000
0002
0000
,
0010
0000
1003
0000
0100
0010
0001
0100
,
0000
0001
1000
0001
0000
0010
0100
0010
,
0001
1000
0100
0010
,
0001
0100
0001
1000
,
0010
1000
0100
0001
,
1000
0001
0010
0100
,
1000
0000
0010
1000
0000
0100
0010
0000
,
0001
0000
0000
0100
0000
0000
0010
0000
,
1000
0000
0001
1000
0000
0010
0100
0000
,
0001
0000
0000
0010
0000
0100
1000
0000
,
1010
0000
0001
1000
0000
0100
0010
0000
,
0011
0000
0010
0001
0000
1000
0100
0000
,
1100
0000
0010
0100
0000
0001
1000
0000
,
0101
0000
0100
0010
0000
1000
0001
0000
,
0010
0000
0010
0000
0001
1000
0001
0100
,
0000
0010
1000
0200
0000
0000
0320
0000
,
0000
0000
0031
0000
0010
0100
0000
1000
,
0000
1010
0000
0101
0000
0001
0100
0010
,
1000
0000
0001
0000
0010
0100
0000
1000
,
0000
0110
0000
1001
0000
0001
0200
0000
,
0010
0000
0301
0000
1000
0001
0000
0100
,
0000
0011
0000
1100
0000
0001
1000
0010
,
1000
0000
0100
0000
0010
0001
0000
0100
,
0000
0101
0000
1100
0000
0100
0020
0000
,
1000
0000
0130
0000
0010
0001
0100
0010
,
0000
1010
0000
0011
0000
1000
0001
0000
,
0010
0000
0001
0000
0100
0010
0000
1000
,
0000
1001
0000
0110
0000
0010
2000
0000
,
0100
0000
3001
0000
1000
0010
0000
0100
,
0000
0001
0010
0100
0000
1000
0001
0000
,
0100
0000
0010
0000
0100
0001
0010
0100
,
0000
1000
0000
0010
0000
1000
0002
0000
,
0010
0000
0103
0000
0010
0100
0000
0001
,
0000
1000
0000
0100
0000
1000
0001
0000
,
0010
0001
0100
0000
0110
0000
0010
1000
,
0100
0000
1001
0000
0000
1000
0001
0000
,
0010
0001
0100
0000
1010
0000
0100
1000
,
0010
0000
0101
0000
0000
1000
0001
0000
,
0010
0001
0010
0100
2000
0000
3000
0000
,
0001
0100
0001
1000
0020
0000
0030
0000
,
1000
0100
0010
0001
0200
0000
0300
0010
,
2000
3001
0000
0110
,
1001
0000
0010
0000
1000
0001
1000
0100
,
0000
0010
0001
2000
0000
0000
3020
0000
,
0000
0000
0130
0000
0010
1000
0000
0001
,
0000
1000
0000
0001
0000
0010
0100
1000
,
0010
0000
0100
0000
0001
1000
0000
0101
,
0000
0010
0000
1100
0000
0001
0200
0000
,
0010
0000
0301
0000
0100
0010
0000
1010
,
0000
0001
0000
1100
0000
0010
0100
0000
,
0001
0000
1000
0000
0001
1000
0100
0010
,
0000
0001
0000
0100
0000
0001
2000
0000
,
0100
0000
3001
0000
0010
0100
0010
0001
,
0000
1001
0000
1100
0000
0010
0100
0000
,
0001
0000
0001
0000
1000
0100
0000
0110
,
0000
0001
0000
0011
0000
1000
0002
0000
,
0010
0000
1003
0000
1000
0001
0000
0010
,
0000
0011
0000
1100
0000
0010
0100
0000
,
0110
0000
0001
0000
1000
0001
0010
0100
,
0000
1000
0000
0001
0000
1000
0200
0000
,
0001
0000
0310
0000
1000
0001
0000
0200
,
0000
1000
0000
0001
0000
0310
0000
0000
,
2020
0000
0000
0000
,
0000
0000
0000
0000
,
3030
0000
0000
0000
;

//---------------dance-single - ----------------
#NOTES:
     dance-single:
     :
     Hard:
     12:
     :
0000
0000
0000
0000
,
0000
0000
0000
0000
,
0000
0000
0000
0000
,
0000
0000
0000
0000
0000
0000
0000
0000
0000
0000
0001
1000
0001
0000
0000
0000
,
0010
0000
0001
1000
0000
1000
0100
0000
,
0010
0000
0100
1000
0000
0001
1000
0000
,
0010
0000
1000
0100
0000
0010
0001
0000
,
0100
0000
0001
1000
0000
0001
0010
0000
,
0100
0000
1000
0010
0000
1000
0001
0000
,
0010
0000
0001
0100
0000
0001
1000
0000
,
0100
0000
0010
0001
0000
1000
0010
0000
,
0100
0000
0000
0000
0001
0000
1000
0000
0000
0000
0010
0100
0010
0000
0000
0000
,
1000
0001
1000
0010
0000
0010
0100
0000
,
0001
0000
0010
0001
0000
1000
0100
0000
,
0010
0000
0001
0100
0000
0010
1000
0000
,
0100
0000
1000
0001
0000
1001
1001
0000
,
0010
0000
0010
0000
1000
0100
1000
0002
,
0000
0013
0001
0200
0000
0310
2000
0000
,
3100
0000
1000
0000
0001
1000
0100
0010
,
0000
0010
0001
1000
0000
0001
0100
0000
,
0010
0000
0100
0000
0001
0010
0001
1000
,
0000
0100
0010
0002
0000
1003
0200
0000
,
0010
0000
1300
0000
0001
1000
0001
0100
,
0000
0010
0000
1000
0000
0001
1000
0100
,
0010
0000
0001
0000
0100
0001
0010
0100
,
0000
1000
0010
2000
0000
3001
0100
0010
,
1000
0000
0001
0000
0010
0001
1000
0100
,
0000
0100
0010
0001
0000
1000
0100
0000
,
0010
0000
0001
0000
1000
0001
1000
0100
,
0000
0010
0001
2000
0000
3010
0200
0000
,
0301
0000
0100
0000
0100
0010
1000
0001
,
0000
0010
0000
0001
0000
0010
0100
1000
,
0010
0000
0100
0001
0100
0001
0100
0010
,
0000
0000
1000
0000
0100
0000
0001
0000
0000
0000
0010
0000
0100
0000
0000
1000
,
0001
0000
0010
0000
0001
1000
0010
0100
,
0000
0001
0010
0100
0000
0110
0110
0001
,
1000
0000
0010
1000
0100
0010
0001
0000
,
0100
0000
0001
0010
0001
1000
0100
0000
,
1000
0000
0010
1000
0100
0010
0001
0000
,
0100
0000
0010
0100
0001
0010
1000
0000
,
0100
1000
0001
0100
0000
0010
1000
0000
,
0100
0000
0000
0000
0010
0000
0001
0000
0000
0000
1000
0000
0010
0000
1000
0100
,
1000
0000
0010
0100
0000
0001
0010
0000
,
0100
0000
1000
0001
1000
0010
0100
0000
,
0101
0000
0100
0010
0000
1000
0001
0000
,
1100
0000
1000
0010
0000
0100
0001
0000
,
0011
0000
0010
0100
0000
1000
0001
0000
,
1010
0000
0100
0010
0000
1001
1001
0000
,
0010
0000
0001
0000
0100
0010
1000
0002
,
0000
0013
0001
2000
0000
3100
0020
0000
,
1000
0000
0031
0000
0010
0001
1000
0100
,
0000
0010
0100
1000
0000
0001
0100
0010
,
1000
0000
0100
0000
1000
0010
1000
0001
,
0000
0010
0100
0020
0000
0031
2000
0000
,
0100
0000
3010
0000
1000
0001
0010
0001
,
0000
0100
0001
0010
0000
0001
1000
0100
,
0010
0000
0001
0000
0010
0100
1000
0010
,
0000
0100
0001
2000
0000
3010
1000
0001
,
0100
0000
0010
0000
0100
0001
0010
1000
,
0000
0100
0010
0100
0000
1000
0001
0100
,
0001
0000
0010
0000
0001
1000
0100
1000
,
0000
0010
0100
0002
0000
1003
0020
0000
,
0100
0000
1030
0000
0010
1000
0100
0010
,
0000
0001
1000
0001
0000
0001
0010
0100
,
1000
0000
0010
0000
1000
0100
0010
0001
,
0000
0100
0001
2000
0000
3100
0020
0000
,
1000
0000
0130
0000
0010
0100
0010
0001
,
0000
0101
0000
1100
0000
0001
1000
0000
,
0010
1000
0100
1000
0010
1000
0100
0010
,
0001
0000
0101
1000
0000
1000
0100
0010
,
0001
0100
0001
1000
0001
0100
0001
1000
,
0100
0000
0110
0001
0000
1000
0001
0000
,
0100
0010
1000
0001
0020
0100
0130
0000
,
1000
0001
0100
0010
2000
0100
3100
0010
,
0001
1000
0001
0100
0001
0010
0100
1000
,
1001
1001
0000
0110
,
1001
0000
0010
1000
0100
0010
0001
0200
,
0000
0301
1000
0020
0000
1030
0100
0010
,
0001
0000
1000
0000
1000
0001
0010
0100
,
0000
1000
0010
0100
0000
0001
1000
0000
,
0010
0000
1000
0000
0100
0010
0001
0100
,
0000
0010
1000
0002
0000
0013
0200
0000
,
0001
0000
1300
0000
0010
0100
0010
1000
,
0000
1000
0100
0002
0000
0023
0130
0010
,
0001
0000
0100
0000
0001
1000
0100
0010
,
0000
0001
0000
1000
0010
0100
0002
0000
,
0010
0000
0203
0000
0310
1000
0001
1000
,
0000
0010
0000
0100
0000
0010
1000
0001
,
0100
0000
0001
0000
0010
0001
0010
0100
,
0000
1000
0010
2000
0000
3001
0020
0000
,
0100
0000
0031
0000
0100
0010
0100
0001
,
0000
1000
0010
1000
0000
0001
0100
0000
,
0110
0000
1000
0000
0100
0010
0001
0100
,
0000
0010
1000
0002
0000
0013
0200
0000
,
0010
0000
1300
0000
0010
1000
0001
0020
,
0000
0031
0100
0010
1000
0001
1000
0100
,
0022
0000
0000
0000
,
0000
0000
0000
0000
,
0033
0000
0000
0000
;
