#TITLE:Electric Love;
#ARTIST:BORNS;
#BANNER:Electric Love-bn.png;
#BACKGROUND:Electric Love-bg.png;
#JACKET:Electric Love-jacket.png;
#MUSIC:Electric Love.ogg;
#OFFSET:0.8;
#SAMPLESTART:43.238;
#SAMPLELENGTH:20;
#DISPLAYBPM:120;
#BPMS:0=119.88,87.83334=129.88,88=119.88,151.83333=129.88,152=119.88,171.66667=129.88,172=119.88,203.66667=129.88,204=119.88;
#BGCHANGES:;

//---------------dance-single - ----------------
#NOTES:
     dance-single:
     :
     Beginner:
     2:
     :
0000
0000
0000
0000
,
0000
0000
0000
0000
,
0000
0000
0000
0000
,
0000
0000
0000
0000
,
0000
0000
0000
0000
,
2000
0000
0000
0000
,
3000
0000
0001
0000
,
0002
0000
0000
0000
,
0003
0000
0100
0100
,
0100
0000
0010
0000
,
0000
0000
1000
0000
,
0001
0000
0010
0000
,
0200
0000
0300
0000
,
1000
0000
0001
0000
,
0000
0000
0010
0000
,
0001
0000
0100
0000
,
0020
0000
0030
0000
,
0000
1000
0000
1000
,
0000
0001
0000
0001
,
0000
0000
0100
0100
,
0000
0010
0000
0010
,
0000
0010
0000
0000
,
1000
0000
0001
0000
,
1000
0000
0100
0000
,
0010
0000
0001
0000
,
0010
0000
0100
0000
,
1000
0000
0010
0000
,
1000
0000
0001
0000
,
0100
0000
0100
0000
,
0001
0001
0001
0001
,
0002
0000
0000
0000
,
0003
0000
1000
0000
,
2000
0000
3000
0000
,
0100
0100
0100
0000
,
0020
0000
0000
0000
,
0030
0000
0001
0000
,
0200
0000
0000
0000
,
0300
0000
0010
0010
,
0000
0001
0000
0001
,
0000
1000
0000
1000
,
0000
0000
0010
0010
,
0000
0100
0000
0100
,
0000
0100
0000
0100
,
0000
0000
0000
0000
,
0000
0000
1001
0000
,
0010
0000
1000
0000
,
0001
0000
0100
0000
,
0001
0000
0001
0000
,
1000
0000
1000
0000
,
0010
0000
0010
0000
,
0100
0000
0100
0000
,
0020
0000
0000
0000
,
0030
0000
1000
0000
,
0002
0000
0003
0000
,
1000
1000
1000
0000
,
0200
0000
0000
0000
,
0300
0000
1000
0000
,
2000
0000
3000
0000
,
1001
0000
1000
1000
;

//---------------dance-single - ----------------
#NOTES:
     dance-single:
     :
     Easy:
     6:
     :
0000
0000
0000
0000
,
0000
0000
0000
0000
,
0000
0000
0000
0000
,
0000
0000
0000
0000
,
0000
0000
0000
0000
,
2000
0000
0001
0000
,
0100
0000
3002
0000
,
0203
0000
1000
0000
,
0301
0000
1001
1001
,
0020
0000
2030
0000
,
0000
0001
0100
3001
,
0010
0001
0010
0100
,
2000
3000
0110
0110
,
0002
0000
0203
0000
,
0000
0010
1000
0310
,
0001
1000
0010
0100
,
0002
0003
1001
1001
,
0000
0010
0001
0100
,
0010
1000
0100
0001
,
0000
0000
0110
0110
,
0000
1000
0001
0100
,
0001
1000
1001
0110
,
0001
0010
0100
1000
,
0010
1000
0200
0300
,
1000
0100
0010
0001
,
0100
0001
0020
0030
,
0001
0001
1000
1000
,
0001
0100
0010
1000
,
2200
3300
0202
0303
,
1000
0010
0001
0100
,
2000
0000
0010
0000
,
0001
0000
3200
1000
,
0320
0000
1000
0000
,
0031
0100
0010
1000
,
0002
0000
0010
0000
,
1000
0000
0203
0001
,
0320
0000
0001
0000
,
1030
0000
0110
0110
,
0000
0001
0100
0010
,
1000
0100
1000
0001
,
0000
0000
1001
1001
,
0000
0010
0001
0100
,
0010
1000
0110
1001
,
0002
0003
2000
3000
,
0020
0030
0200
0300
,
0001
1000
0001
0010
,
0100
1000
0002
0003
,
0100
0100
0100
0010
,
1000
0100
1000
0001
,
0202
0303
2200
3300
,
0001
0010
1000
0100
,
0002
0000
0010
0000
,
1000
0000
0023
1000
,
0230
0000
0010
0000
,
1300
0001
0100
0010
,
2000
0000
0010
0000
,
0100
0000
3002
0010
,
0203
0000
1000
0000
,
0301
0010
0100
1000
;

//---------------dance-single - ----------------
#NOTES:
     dance-single:
     :
     Medium:
     10:
     :
0000
0000
0000
0000
,
0000
0000
0000
0000
,
0000
0000
0000
0000
,
0000
0000
0000
0000
,
0000
0000
0000
0000
,
1000
1010
0001
0011
,
1000
0000
0000
1010
0000
0000
0010
0000
0010
0100
0000
0100
,
0001
0101
1000
1100
,
0001
0000
0000
0101
0000
0000
1000
0001
1000
0001
1000
0001
,
0200
0000
0000
0310
0000
0000
2000
0000
0000
3001
0000
0010
,
0001
2000
3020
0130
,
0101
0000
0000
1100
0000
0000
0020
0000
0000
1030
0000
0001
,
0200
0000
0000
0300
0000
0000
0001
1000
0001
1000
0001
1000
,
0200
0000
0000
0310
0000
0000
0002
0000
0000
1003
0000
0010
,
0100
0002
2003
3100
,
1010
0000
0000
0011
0000
0000
2000
0000
0000
3001
0000
0100
,
0020
0000
0000
0030
0000
0000
1000
0001
1000
0001
1000
0001
,
0000
0000
0001
0100
0000
0010
1000
0000
0000
1001
0000
0000
,
0110
0000
0000
0001
0000
0010
0100
0000
0000
1000
0000
0000
,
0000
0000
0000
0000
0000
0000
1000
0001
1000
0001
0000
0000
,
0000
0000
1000
0100
0000
0010
0002
0000
0000
2003
0000
0000
,
3020
0000
0000
0230
0000
0000
0301
1000
0001
1000
0000
0000
,
2000
3200
0320
0032
,
0103
0000
0100
0000
0100
0010
1000
0000
0001
0000
0000
0000
,
0020
0032
2003
3200
,
0310
0000
0010
0000
0010
0001
1000
0000
0001
0000
0000
0000
,
0200
0320
2030
3002
,
2003
0000
0000
3020
0000
0000
0130
0000
0001
1000
0000
0000
,
2100
3001
0012
1003
,
0101
1100
0101
1100
,
0010
0101
0010
1100
,
0010
0000
0000
0101
0000
0000
1000
0000
0100
0010
0000
0001
,
0100
1010
0100
0011
,
0100
0000
0000
1010
0000
0000
1000
0001
1000
0001
1000
0001
,
1000
1001
0001
1001
,
1000
0000
0000
1001
0000
0000
0010
0000
0010
0100
0000
0100
,
0001
0011
1000
1100
,
0001
0000
0000
0011
0000
0000
1000
0001
1000
0001
1000
0001
,
0000
0000
0100
0010
0000
1000
0001
0000
0000
1001
0000
0000
,
0110
0000
0000
1000
0000
0010
0100
0000
0000
0001
0000
0000
,
0000
0000
0000
0000
0000
0000
1000
0001
1000
0001
0000
0000
,
0000
0000
0001
0010
0000
0100
2000
0000
0000
3020
0000
0000
,
0230
0000
0000
0302
0000
0000
1003
0001
1000
0001
0000
0000
,
0010
0001
0100
1000
,
0001
0000
0001
0000
0001
1000
0010
0000
0100
0000
0000
0000
,
0200
0320
2030
3002
,
1003
0000
1000
0000
1000
0100
0010
0000
0010
0000
0000
0000
,
0001
0000
1000
0000
0001
0000
0200
0000
0000
0320
0000
0000
,
2030
0000
0000
3002
0000
0000
1003
0000
0001
0100
0000
0000
,
0201
0310
1020
0130
,
1010
0011
1010
0011
,
0100
0110
0010
0110
,
0100
0000
0000
0110
0000
0000
0001
0000
0001
1000
0000
1000
,
0100
1100
0001
0101
,
0010
0000
0000
0110
0000
0000
1000
0001
1000
0001
1000
0001
,
0010
0011
0100
0110
,
0100
0000
0000
1100
0000
0000
0010
0000
0100
0001
0000
1000
,
0100
1001
0010
1001
,
0100
0000
0000
0110
0000
0000
0001
1000
0001
1000
0001
1000
;

//---------------dance-single - ----------------
#NOTES:
     dance-single:
     :
     Hard:
     12:
     :
0000
0000
0000
0000
,
0000
0000
0000
0000
,
0000
0000
0000
0000
,
0000
0000
0000
0000
,
0000
0000
0000
0000
,
1000
0000
0100
0000
0000
0010
0001
0000
0100
0000
0000
0010
,
1000
0000
0001
0000
0000
0010
0001
0000
0001
0100
0000
0100
,
0010
0000
1000
0000
0000
0100
1000
0000
0001
0000
0000
0010
,
0001
0000
0100
0000
0000
0010
1000
0100
1000
0001
0100
0001
,
0010
0000
0001
0100
0000
0010
2000
0000
0000
3001
0000
1000
,
0100
2000
3002
0103
,
0101
0000
0000
1100
0000
0000
0020
0000
0000
1030
0000
0001
,
0100
0000
0000
0010
0000
1000
0001
0010
0001
1000
0010
1000
,
0100
0000
1000
0010
0000
1000
0002
0000
0000
0103
0000
0010
,
1000
0200
0320
0031
,
0011
0000
0000
1010
0000
0000
0200
0000
0000
1300
0000
0001
,
1000
0000
0010
0100
0000
0001
1000
0100
1000
0001
0100
0001
,
0000
0000
0010
0001
0010
0100
1000
0000
0000
1001
0000
0000
,
0110
0000
0100
0001
0010
0001
0100
0000
0000
0010
0000
1000
,
0000
0000
0000
0000
0000
0000
1000
0001
1000
0001
0000
0000
,
0000
0000
1000
0010
0100
0010
2000
0000
0000
3001
0000
0100
,
0002
0000
0000
1003
0000
0000
0010
0100
0010
0100
0000
0000
,
0002
0023
0230
2300
,
3010
0100
0001
1000
0000
0000
0010
0100
0001
1000
0000
0000
,
0200
0320
0032
2003
,
3001
0010
0100
1000
0000
0000
0001
0010
0100
1000
0000
0000
,
0010
0000
0010
1000
0000
1000
0001
0000
0001
0100
0000
0000
,
0001
0100
0010
1000
0000
0000
0001
0100
0010
1000
0000
0000
,
2100
3001
0012
1003
,
1000
0010
0100
0001
0010
0100
2000
0000
0000
3002
0000
0000
,
0013
0000
0001
0000
0000
0100
0010
0000
1000
0000
0000
0001
,
1000
0000
0001
0000
0000
0010
0100
0000
0100
1000
0000
1000
,
0010
0000
0100
0000
0000
0001
1000
0000
0100
0000
0000
0010
,
0001
0000
0001
1000
0000
1000
0001
0010
0001
1000
0010
1000
,
0100
0000
0010
0000
0000
0010
0001
0000
1000
0000
0000
0001
,
1000
0000
0100
0000
0000
1000
0010
0000
0010
0100
0000
0100
,
0001
0000
0010
0000
0000
0001
1000
0000
0100
0000
0000
1000
,
0010
0000
0100
0000
0000
0001
1000
0100
1000
0001
0100
0001
,
0000
0000
0010
0001
0100
0010
1000
0000
0000
1001
0000
0000
,
0110
0000
0010
1000
0100
0010
0001
0000
0000
0100
0000
0010
,
0000
0000
0000
0000
0000
0000
1000
0001
1000
0001
0000
0000
,
0000
0000
0010
0001
1000
0001
0200
0000
0000
0310
0000
1000
,
0020
0000
0000
0130
0000
0001
0010
0100
0010
0100
0000
0000
,
2000
3020
0230
0302
,
0013
0000
0010
0000
0001
1000
0001
0100
0010
1000
0000
0000
,
0200
2300
3002
0023
,
0031
1000
0010
0100
0000
0000
0001
1000
0010
0100
0000
0001
,
1000
0000
0010
0000
1000
0000
0002
0000
0000
0203
0000
0000
,
0301
0010
0100
1000
0000
0000
1000
0100
0010
0001
0000
0000
,
0201
0310
1020
0130
,
0001
0010
0100
1000
0100
0010
0001
0010
0100
1000
0100
0010
,
0001
0000
0100
0000
0000
0010
1000
0000
0100
0000
0000
1000
,
0001
0000
0010
0000
0000
0001
0100
0000
0010
1000
0000
0010
,
1000
0000
0001
0000
0000
0010
0001
0000
0100
0000
0000
0010
,
1000
0000
0100
1000
0000
0001
1000
0010
1000
0001
0010
0001
,
0100
0000
0010
0000
0000
0100
0001
0000
0010
0000
0000
0001
,
0100
0000
0010
0000
0000
0100
0001
0000
0001
1000
0000
1000
,
0100
0000
1000
0000
0000
0010
0100
0000
0001
0000
0000
0010
,
0001
0000
0100
0010
0000
1000
0001
0100
0001
1000
0100
1000
;
