#TITLE:Eldritch Queen;
#ARTIST:BTB;
#BANNER:Eldritch Queen-bn.png;
#BACKGROUND:Eldritch Queen-bg.png;
#JACKET:Eldritch Queen-jacket.png;
#MUSIC:Eldritch Queen.ogg;
#SAMPLESTART:22.326;
#SAMPLELENGTH:20;
#DISPLAYBPM:172;
#BPMS:0=172;
#STOPS:60=0.698,125.5=0.698;
#BGCHANGES:;

//---------------dance-single - ----------------
#NOTES:
     dance-single:
     :
     Beginner:
     5:
     :
0000
0000
0000
0000
,
0000
0000
0000
0000
,
0000
0000
0000
0000
,
0000
0000
0000
0000
,
0000
0000
0000
0000
,
0000
0000
0000
0000
,
0000
0000
0000
0000
,
0000
0000
0000
0000
,
0110
0000
0000
0001
,
0000
1000
0000
0010
,
0000
1000
0000
0100
,
0000
0010
0000
0001
,
0000
0000
0100
0000
,
0010
0000
1000
0000
,
0001
0000
0010
0000
,
1001
0000
0000
1000
,
1000
1000
0000
0001
,
0000
0010
0000
0001
,
0001
0001
0000
0100
,
0000
0010
0000
0100
,
0100
0100
0000
0001
,
0000
1000
0000
0010
,
0010
0010
0000
1000
,
1000
1000
0000
0001
,
0001
0001
0000
0100
,
0000
0001
0000
0100
,
0100
0100
0000
0010
,
0000
1000
0000
0010
,
0010
0010
0000
1000
,
0000
0001
0000
0100
,
0100
0100
0100
0000
,
0010
0000
0110
0000
,
0000
0000
1001
0000
,
0000
0000
0110
0000
,
0000
0000
1001
0000
,
0000
0000
0110
0000
,
0000
0000
1001
0000
,
0000
0000
0110
0000
,
0000
0000
1001
0000
,
0000
0000
0110
0000
,
0000
0000
1001
0000
,
0000
0000
0110
0000
,
0000
0000
1001
0000
,
0000
0000
0110
0000
,
0000
0000
1001
0000
,
0000
0000
0110
0000
,
0000
0000
1001
0000
,
0001
0000
0010
0000
,
0001
0000
1000
0000
,
0010
0000
0100
0000
,
0010
0000
1000
0000
,
0100
0000
0010
0000
,
0001
0000
1000
0000
,
0100
0100
0000
0000
,
1000
0000
0001
0000
,
1001
0000
0010
0000
,
0100
0000
0001
0000
,
0010
0000
0001
0000
,
1000
0000
0010
0000
,
1000
0000
1000
0000
,
0001
0000
0001
0000
,
1000
0000
0010
0000
,
0100
0000
0000
0000
,
0001
0000
0001
0000
,
0010
0000
0001
0000
,
0100
0000
0010
0000
,
1000
0000
1000
0000
,
0100
0000
0010
0000
,
0001
0000
0100
0000
,
0010
0000
1000
0000
,
0100
0000
0010
0000
,
0000
0110
0000
0000
,
0001
0000
1000
0000
,
0010
0000
1000
0000
,
0100
0000
0100
0000
,
0010
0010
0010
0000
,
0001
0001
0001
0000
,
1000
0000
0010
0000
,
0100
0000
0001
0000
,
0000
1001
0000
0000
,
0110
0000
0000
0000
;

//---------------dance-single - ----------------
#NOTES:
     dance-single:
     :
     Easy:
     8:
     :
0000
0000
0000
0000
,
0000
0000
0000
0000
,
0000
0000
0000
0000
,
0000
0000
0000
0000
,
0000
0000
0000
0000
,
0000
0000
0000
0000
,
0000
0000
0000
0000
,
0000
0000
0000
0000
,
0110
0000
0001
0000
0000
1000
0001
0000
,
0000
1000
0010
0000
0001
0100
0001
0000
,
1001
0000
1000
0000
0000
0010
1000
0000
,
0000
0010
0100
0000
0001
1000
0100
0000
,
0010
0001
0100
1000
,
0010
0100
0001
1000
,
0100
0000
0010
0000
0001
1000
0001
1000
,
0010
0110
1001
0001
,
0100
0010
1000
0100
,
1000
0001
0010
0001
,
0100
1000
0010
1000
,
0010
0100
0001
0010
,
0001
1000
0100
0010
,
0001
0100
0010
1000
,
0001
0000
0010
0000
0001
0000
1000
0010
,
1000
0010
1000
0010
0000
0000
0110
0000
,
1001
0001
0100
0010
,
1000
0100
0010
0001
,
1000
0010
1000
0100
,
0001
0010
0100
1000
,
0010
1000
0001
0010
,
0001
0100
0010
1000
,
0100
0010
1001
0110
,
1001
0110
0022
0030
,
1000
1003
0202
0003
,
0020
0330
2020
0030
,
0001
3001
2200
3000
,
0310
0100
0220
0030
,
1300
0001
2002
3000
,
0020
0033
0202
0300
,
1000
1003
2020
3000
,
0001
1030
0202
0300
,
0010
0013
2200
3000
,
0020
0330
2002
0003
,
0100
3100
0022
0030
,
1003
0001
2020
3000
,
1000
1030
0202
0003
,
0020
0330
0220
0030
,
0001
0301
1001
0010
,
2000
3000
0100
0010
,
0002
0003
1000
0001
,
0010
0001
0100
1000
,
0010
0100
0110
1001
,
1000
0100
1000
0001
,
0010
0001
0100
0010
,
1000
0200
0000
0000
,
0320
0030
0001
1000
,
1001
0010
1000
0001
,
0010
0100
0010
0001
,
0100
1000
0010
0100
,
0001
0010
0001
1000
,
0010
1000
0100
0010
,
0001
0100
0001
0010
,
0100
0000
1000
0000
0001
0100
0001
0100
,
0010
0000
1000
0000
0100
0010
0001
0000
,
1000
0000
0001
0000
0010
0001
0100
0000
,
0010
0000
1000
0000
0100
0010
0001
0000
,
1000
0010
1000
0001
,
0010
0100
1000
0001
,
0010
0000
0001
0000
0100
0010
1000
0000
,
0100
0000
1000
0000
0100
0010
0001
0000
,
1000
0010
1000
0001
,
0010
0011
1100
0011
,
0100
0000
1001
0000
1000
0010
0001
0000
,
0100
0000
0001
0000
0010
0100
1000
0000
,
0001
0010
0001
0100
,
1000
0010
1000
0001
,
0110
0001
0100
1000
,
0110
1000
0010
0001
,
1000
0001
0100
0000
0010
0000
1000
0000
,
0100
0000
0010
0000
0001
1000
0001
1000
,
0010
0000
1000
0002
0000
0000
0003
0000
,
0220
0000
0000
0000
,
0330
0000
0000
0000
;

//---------------dance-single - ----------------
#NOTES:
     dance-single:
     :
     Medium:
     13:
     :
0000
0000
0000
0000
,
0000
0000
0000
0000
,
0000
0000
0000
0000
,
0000
0000
0000
0000
,
0000
0000
0000
0000
,
0000
0000
0000
0000
,
0000
0000
0000
0000
,
0000
0000
0000
0000
,
0110
0000
0001
0100
0000
0010
1000
0001
,
1000
0100
0000
0010
0001
0000
1000
0000
,
1001
0000
0010
1000
0000
0100
0010
0001
,
1000
0001
0000
0100
0010
0000
1000
0000
,
0100
0010
0001
1000
0010
0100
0001
0000
,
1000
0001
0010
0001
0100
0010
1000
0000
,
0100
0010
0001
1000
0010
1000
0001
0100
,
0010
1000
0001
0000
0010
0001
0200
0000
,
0320
0000
0000
2030
0000
0000
3001
0000
0000
0000
0011
0000
0000
0000
0110
0000
,
0000
1100
0000
0101
1000
0000
0002
0000
,
0023
0000
0000
0032
0000
0000
0103
0000
0000
0000
0010
0000
0000
0010
0000
0000
,
1000
0001
1000
0100
0010
0001
2000
0000
,
3002
0000
0000
0203
0000
0000
0310
0000
0000
0000
1010
0000
0000
0000
1001
0000
,
0000
1100
0000
0110
0001
0000
0200
0000
,
0320
0000
0000
2030
0000
0000
3001
0000
0000
0000
0010
0000
0001
0000
0100
0000
,
0010
1000
0001
1000
0100
0000
0011
0000
,
2000
0000
0000
3002
0000
0000
0013
0000
0000
0000
1001
0000
0000
0000
0110
0000
,
0000
0101
0000
1010
0100
0000
0110
0000
,
0002
0000
0000
2003
0000
0000
3010
0000
0000
0000
0100
0000
0000
0100
0000
0000
,
0001
0010
0001
1000
0100
0010
0001
0000
,
0020
0000
0000
0230
0000
0000
1300
0000
0010
0000
1000
0000
0001
0000
0010
0000
,
0001
0100
0010
1000
0100
0010
0100
1000
,
0010
0000
1000
0000
0001
0000
0100
0000
0020
0000
0000
2030
0000
0000
3002
0000
,
0000
2003
0000
0000
3010
0000
0100
0000
0202
0000
0000
0000
0300
0000
0000
0000
,
1003
0000
0000
0001
0000
0000
1000
0000
2200
0000
0000
0000
0300
0000
0000
0000
,
3010
0000
0100
0001
0022
0000
0003
0000
,
0031
0000
0000
1000
0000
0000
0010
0000
2002
0000
0000
0000
3000
0000
0000
0000
,
1003
0100
0010
0001
0202
0000
0003
0000
,
0310
0000
0000
0100
0000
0000
0001
0000
2002
0000
0000
0000
3000
0000
0000
0000
,
0013
0000
0001
0100
2020
0000
3000
0000
,
1030
0000
0000
0001
0000
0000
1000
0000
0220
0000
0000
0000
0300
0000
0000
0000
,
0130
0001
1000
0001
0022
0000
0030
0000
,
0103
0000
0000
0010
0000
0000
1000
0000
2200
0000
0000
0000
3000
0000
0000
0000
,
0310
0100
1000
0001
2002
0000
0003
0000
,
3010
0000
0000
0010
0000
0000
0010
0000
2020
0000
0000
0000
0030
0000
0000
0000
,
3001
0010
0100
1000
0022
0000
0030
0000
,
0103
0000
0000
0001
0000
0000
0100
0000
0220
0000
0000
0000
0030
0000
0000
0000
,
0310
1000
0100
0010
0022
0000
0003
0000
,
0130
0000
0000
1000
0000
0000
0001
0000
2100
0000
0000
0000
3010
0000
0100
0000
,
0010
0000
0000
1000
0001
0000
0010
0100
,
1000
0000
0001
0100
0010
0000
1000
0001
,
1000
0020
0230
0302
,
0013
0000
0001
0100
1000
0000
1001
0000
,
0110
0000
0000
0010
1000
0000
0001
0100
,
0001
0000
0010
0100
1000
0000
0010
1000
,
0001
0000
0000
0010
0100
0000
1000
0000
0100
0000
1000
0000
0100
0000
1000
0000
,
0100
0010
0001
1000
0001
0000
0101
0000
,
1010
0000
0001
1000
0010
0000
1000
0100
,
0001
0000
0010
0100
1000
0000
0010
1000
,
0001
0000
0000
0010
0000
0000
0001
0000
0000
1000
0000
0000
0010
0000
0100
0000
,
0001
0000
0000
0010
0000
0000
0001
0000
0000
1000
0000
0000
0100
0000
0010
0000
,
0001
0000
0100
0000
0000
0010
0000
0000
1000
0000
0000
0001
0000
0000
0010
0000
,
0000
0001
0000
0000
1000
0000
0000
0010
0000
0000
0100
0000
0000
0000
0001
0000
,
1000
0010
1000
0100
0010
0001
1000
0001
,
0010
0001
1000
0001
1000
0001
0100
0010
,
1000
0000
0000
0100
0000
0000
1000
0000
0001
0100
0000
0010
0000
0000
1000
0000
,
0100
0000
0000
0010
0000
0000
0001
0000
1000
0010
0000
1000
0000
0000
0100
0000
,
0010
0000
0000
0010
0000
0000
0001
0000
0000
1000
0000
0000
0001
0000
0100
0000
,
0010
1000
0100
0010
0100
1000
0001
0100
,
0010
0000
0000
1000
0000
0000
0001
0000
0010
0100
0000
0010
0000
0000
0001
0000
,
1000
0000
0000
0010
0000
0000
0100
0000
0001
0010
0000
0001
0000
0000
1000
0000
,
0100
0000
0000
0010
0000
0000
0001
0000
0000
0001
0000
0000
1000
0000
0010
0000
,
0100
0000
0002
0000
0000
2003
0000
0000
3002
0000
0000
2003
0000
0000
3001
0000
,
0010
0000
1100
0001
1000
0100
0010
0000
,
0001
0000
0000
1000
0000
0000
0001
0000
0010
0100
0000
0010
0000
0000
0001
0000
,
0100
0000
0000
0100
0000
0000
0010
0000
0000
1000
0000
0000
0001
0000
0010
0000
,
0001
0000
0000
1000
0000
0000
1000
0000
0000
0100
0000
0000
0010
0000
0100
0000
,
1000
0000
0000
0001
0000
0000
0010
0000
0001
0100
0000
0010
0000
0000
1000
0000
,
0100
0000
0000
1000
0000
0000
0010
0000
0100
0001
0000
1000
0000
0000
0010
0000
,
0100
0001
0010
0001
0010
0100
1000
0010
,
1000
0100
1000
0010
0100
0001
1000
0001
,
1000
0100
0010
0002
0000
0000
0003
0000
,
0220
0000
0000
0000
,
0330
0000
0000
0000
;

//---------------dance-single - ----------------
#NOTES:
     dance-single:
     :
     Hard:
     16:
     :
0000
0000
0000
0000
,
0000
0000
0000
0000
,
0000
0000
0000
0000
,
0000
0000
0000
0000
,
0000
0000
0000
0000
,
0000
0000
0000
0000
,
0000
0000
0000
0000
,
0000
0000
0000
0000
,
0110
0010
0001
0100
1000
0100
0001
0010
,
1000
0010
0100
0010
0001
0100
1000
0000
,
0001
0010
1000
0010
0100
0010
1000
0010
,
0001
0100
0010
0001
0010
1000
0100
0000
,
1000
1000
0010
0010
0100
0100
0001
0001
,
0010
0010
0001
0001
1000
1000
0100
0100
,
1000
0010
1000
0010
0100
0001
0100
0001
1000
0100
0010
0001
0100
0010
1000
0001
,
0010
0000
0001
1000
0100
0000
0000
0000
0110
0000
0001
0010
0001
0000
1000
0010
,
2000
0000
0000
3002
0000
0000
0103
0000
0010
0000
0001
0000
0010
0000
1000
0000
,
0100
0000
1000
0000
0001
0000
0100
0000
0010
0000
1000
0100
1000
0000
0001
0100
,
0002
0000
0000
0023
0000
0000
0130
0000
0001
0000
0100
1000
0000
1000
0010
0000
,
0100
0000
0001
0000
1000
0000
0001
0000
0010
0000
0001
1000
0001
0000
0100
0010
,
0200
0000
0000
0302
0000
0000
1003
0000
0010
0000
0001
0000
0010
0000
0100
0000
,
0010
0000
0001
0000
0010
0000
1000
0000
0100
0000
1000
0001
1000
0000
0001
0010
,
0002
0000
0000
2003
0000
0000
3200
0000
0000
0000
0310
0001
0010
0001
0010
0100
,
1000
0010
1000
0001
0010
0100
1000
0000
0001
1000
0001
1000
0010
0000
0100
0000
,
0101
0000
0000
1100
0000
0000
0101
0000
0010
0000
0001
0000
0010
0000
1000
0000
,
0100
0000
0001
0000
0100
0000
1000
0000
0010
0000
0100
0001
1000
0000
0100
0010
,
0001
0000
0000
0011
0000
0000
1100
0000
0010
0000
1000
0001
0000
0001
1000
0000
,
0100
0000
0010
0000
0001
0000
0100
0000
0010
0000
1000
0001
0010
0000
0001
1000
,
0100
0000
0000
1001
0000
0000
0110
0000
0010
0000
1000
0000
0100
0000
0001
0000
,
0100
0000
1000
0000
0001
0000
0100
0000
0010
1000
0010
1000
0001
0100
0001
0100
,
0010
0100
0001
1000
0100
0010
0001
1000
0010
0000
0000
0101
0000
0000
1001
0000
,
0000
0011
0000
0000
0110
0000
1100
0000
0202
0000
0000
0000
0300
0000
0000
0000
,
1000
0000
0000
1000
0000
0000
1003
0000
0202
0000
0000
0000
0300
0000
0000
0000
,
0013
0001
0010
0100
1000
0010
1000
0001
0200
0000
0000
0000
0000
0000
0000
0000
,
0320
0000
0000
2030
0000
0000
3001
0000
2020
0000
0000
0000
0030
0000
0000
0000
,
3001
0010
0100
1000
0022
0000
0003
0000
,
0100
0000
0000
0100
0000
0000
0130
0000
0022
0000
0000
0000
0003
0000
0000
0000
,
0031
0010
0100
0010
0001
1000
0010
0100
0002
0000
0000
0000
0000
0000
0000
0000
,
2003
0000
0000
3002
0000
0000
0103
0000
2020
0000
0000
0000
3000
0000
0000
0000
,
0130
0000
0001
0010
0001
1000
0010
0100
0002
0000
0000
0000
0000
0000
0000
0000
,
0013
0000
0000
0001
0000
0000
1001
0000
0220
0000
0000
0000
0030
0000
0000
0000
,
0301
0000
0100
0010
1000
0001
1000
0100
0020
0000
0000
0000
0000
0000
0000
0000
,
0031
0000
1000
0010
0000
1000
0010
0000
2200
0000
0000
0000
3000
0000
0000
0000
,
1300
0100
0010
0001
0220
0000
0300
0000
,
0230
0000
0000
2300
0000
0000
3001
0000
2020
0000
0000
0000
0030
0000
0000
0000
,
3100
0000
1000
0001
0010
0100
0010
0001
2000
0000
0000
0000
0000
0000
0000
0000
,
3010
0000
0000
0100
0000
0000
0001
0000
1020
0000
0000
0000
1030
0001
1000
0001
,
1000
0000
0010
0100
0001
0000
0010
0100
,
1000
0000
0000
0000
0001
0000
1000
0010
1000
0000
0100
0000
0010
0000
0001
0000
,
0100
0010
2000
0000
3002
0000
0023
0000
,
0230
0000
1300
0001
1000
0000
0010
0000
,
1000
0000
0100
0010
0001
0000
0100
0010
,
1000
0000
0000
0000
0001
0000
0010
0000
0100
0000
1000
0000
0001
0000
1000
0100
,
1000
0000
0000
0010
0100
0001
0100
0001
0100
0001
0100
0001
0100
0001
0100
0001
,
0100
0000
0010
1000
0001
1000
0100
0000
,
1001
0000
0010
0001
1000
0001
0010
0100
,
1000
0000
0000
0000
0010
0000
0100
0000
0001
0000
0010
0000
0100
0000
1000
0001
,
2000
0000
0000
3020
0000
0000
0230
0000
0000
0302
0000
0000
0013
0000
0100
0000
,
1000
0000
0010
0100
0000
0100
0002
0000
0000
2003
0000
0000
3001
0010
0001
1000
,
0100
0100
0010
0010
0001
0001
1000
1000
,
0010
0010
1000
1000
0001
0001
0100
0100
,
0001
0010
0001
0010
0100
1000
0100
1000
0010
1000
0001
0100
0010
0100
0001
1000
,
0100
0000
0010
0001
0010
0000
0001
0100
0010
1000
0001
1000
0100
0000
1000
0001
,
1000
0000
0000
0110
0000
0000
0001
0100
0001
1000
0000
0010
0000
0100
0001
0000
,
0010
0000
0000
0001
0000
0000
1000
0010
1000
0001
0000
0100
0000
0010
1000
0100
,
1000
0000
0001
0100
0000
0001
0100
0000
0010
1000
0000
0010
0100
0000
0001
0000
,
1000
0100
1000
0100
0010
0001
0010
0001
1000
0010
1000
0010
0100
0001
0100
0001
,
0010
0000
0001
0100
0000
0000
0001
1000
0010
1000
0000
0100
0000
1000
0010
0000
,
0100
0000
0001
1000
0000
0000
0001
0010
0100
0010
0000
0001
0000
1000
0010
0100
,
0001
0000
0010
0100
0000
0010
0100
0000
1000
0001
0000
1000
0010
0000
0100
0000
,
0001
0000
1000
0100
1000
0001
0100
0001
1000
0100
1000
0001
0000
0000
0100
0010
,
1000
0001
1000
0001
0010
0000
0001
0100
0010
1000
0000
0100
0000
0000
1001
0000
,
1100
0000
1000
0001
0000
0000
0010
0001
0100
0010
0000
1000
0000
0001
0010
0100
,
0010
0000
0001
0010
0000
0001
1000
0000
0100
1000
0000
0100
1000
0000
0001
0000
,
0010
0000
0001
0100
0000
0010
1000
0000
0100
0010
0000
0001
1000
0000
0010
0000
,
0101
0000
0001
1000
0000
0100
1000
0001
0010
0100
0000
0010
0000
0000
0001
1000
,
0001
0000
0100
0010
0000
0010
1000
0001
1000
0100
0000
0010
0000
0000
0011
0000
,
1000
0100
1000
0100
1000
0001
1000
0001
0100
0010
0100
0010
0100
0001
0100
0001
,
0010
0001
0010
0001
1000
0100
1000
0100
0010
0100
1000
0001
0100
0010
1000
0001
,
0100
0010
1010
0220
0000
0000
0030
0000
,
0002
0000
0000
0303
;
