#VERSION:0.83;
#TITLE:EMPEROR OF THE AVALON;
#SUBTITLE:;
#ARTIST:L.E.D.-G;
#TITLETRANSLIT:;
#SUBTITLETRANSLIT:;
#ARTISTTRANSLIT:;
#GENRE:;
#ORIGIN:;
#TAGS:;
#CREDIT:;
#BANNER:EMPEROR OF THE AVALON-bn.png;
#BACKGROUND:EMPEROR OF THE AVALON-bg.png;
#PREVIEWVID:;
#JACKET:EMPEROR OF THE AVALON-jacket.png;
#CDIMAGE:;
#DISCIMAGE:;
#LYRICSPATH:;
#CDTITLE:;
#MUSIC:EMPEROR OF THE AVALON.ogg;
#OFFSET:0.000000;
#SAMPLESTART:75.543999;
#SAMPLELENGTH:20.000000;
#SELECTABLE:YES;
#DISPLAYBPM:95.000000:190.000000;
#BPMS:0.000000=180.000000,
64.000000=95.000000,
80.000000=190.000000,
112.000000=180.000000;
#STOPS:;
#DELAYS:;
#WARPS:;
#TIMESIGNATURES:0.000000=4=4;
#TICKCOUNTS:0.000000=4;
#COMBOS:0.000000=1;
#SPEEDS:0.000000=1.000000=0.000000=0;
#SCROLLS:0.000000=1.000000;
#FAKES:;
#LABELS:0.000000=Song Start;
#BGCHANGES:;
#KEYSOUNDS:;
#ATTACKS:
;

//---------------dance-single - ----------------
#NOTEDATA:;
#CHARTNAME:;
#CHARTHASH:0:
#STEPSTYPE:dance-single;
#BANNER:;
#DESCRIPTION:;
#CHARTSTYLE:;
#DIFFICULTY:Hard;
#METER:14;
#METERF:0.000000;
#RADARVALUES:0.714533,0.857038,0.627558,0.393395,0.458961,534.000000,467.000000,67.000000,42.000000,0.000000,0.000000,0.000000,0.000000,0.000000,0.714533,0.857038,0.627558,0.393395,0.458961,534.000000,467.000000,67.000000,42.000000,0.000000,0.000000,0.000000,0.000000,0.000000;
#CREDIT:;
#DISPLAYBPM:95.000000:190.000000;
#NOTES:
0000
0000
0000
0000
,
0000
0000
0000
0000
,
0000
0000
0000
0000
,
0101
0000
0001
0000
0100
0010
0020
0000
,
1030
0001
1000
0001
1000
0000
0010
0000
0020
0000
0130
0000
0001
0000
1000
0000
,
0100
0000
0010
0000
0001
0000
1000
0000
1100
0000
0000
0110
0000
0000
0011
0000
,
1000
0010
0020
0130
0001
0002
1003
0100
,
2000
0000
0000
0010
0000
0000
0002
0000
0000
0003
0000
0000
3100
0000
0000
0000
,
1001
0010
0100
0001
0100
1000
0100
0010
,
1000
0000
0001
0000
0001
0000
0010
0000
0100
0000
1000
0001
0000
1000
0001
0000
,
0100
0010
1000
0001
1000
0100
0010
0001
,
0100
0010
1000
0001
0022
0033
2200
3300
,
0010
1000
0010
1000
0010
0000
0100
0000
0001
0000
0001
0000
1000
0000
1000
0000
,
0100
0000
0100
0000
0010
0000
0010
0000
0001
0000
1000
0010
1000
0000
0001
0000
,
0101
0000
0000
0101
0000
0000
1000
0000
1100
0000
0000
1100
0000
0000
0001
0000
,
1000
0000
0000
0000
0010
0000
0000
0000
1000
0000
0000
0000
0010
0000
0000
0000
1000
0000
0000
0000
0010
0000
0000
0000
0200
0000
0000
0000
0000
0000
0000
0000
0000
0302
0000
0000
0000
0000
0000
0000
0000
0000
1003
0000
0000
0000
0000
0000
,
1001
0100
1000
0100
0010
0001
0100
0010
,
1010
0000
0000
1000
0001
0000
0001
0100
0000
0100
0010
0000
1000
0000
0010
0100
,
0110
0000
0000
0100
0001
0000
0001
0010
0000
0010
0100
0000
1000
0000
0001
0100
,
0101
0000
0000
0010
1000
0000
1000
0100
0000
0100
0010
0000
0001
0000
0100
0010
,
1001
0000
1000
0100
0010
0000
0001
0000
,
0200
0000
0010
0000
0010
0000
0000
0000
0302
0000
0000
0000
1003
0100
1000
0100
,
1000
0000
0010
1000
0001
0000
0100
0000
,
0020
0000
1000
0000
1000
0000
0000
0000
0230
0000
0000
0000
0301
1000
0001
1000
,
0001
0000
0010
0001
1000
0000
0100
0000
,
2000
0000
0010
0000
0010
0000
0000
0000
3002
0000
0000
0000
0103
0010
0100
0010
,
0100
0000
0001
1000
0100
0000
0010
0000
,
0001
0000
0100
0000
0010
0000
0000
0000
1000
0001
1000
0001
1000
0000
0100
0000
,
0022
0000
0000
0000
,
0000
0000
0000
0030
,
1000
1000
1000
0100
,
0010
0100
0010
0013
,
0001
0000
0000
0100
0000
0000
0020
0000
0000
0000
1000
0000
1030
0000
0000
0000
,
0100
0000
0000
0010
0000
0000
0001
0000
1000
0000
0000
0001
0000
0000
0100
0000
,
0010
0000
0000
1000
0000
0000
0001
0000
1000
0000
0000
0100
0000
0000
0010
0000
,
0001
0000
0000
0100
0000
0000
0010
0000
1000
0000
0001
0010
0000
0100
1000
0000
,
2100
0000
0000
0001
0000
0000
3002
0000
0000
0000
1003
0000
0010
0000
0100
0000
,
0002
0000
0000
1000
0000
0000
1003
0000
0000
0000
1010
0000
0000
0000
0101
0000
,
0201
0000
0000
0010
0000
0000
0320
0000
0000
0000
1030
0000
0001
0000
0100
0000
,
0002
0000
0000
1000
0000
0000
1003
0000
1100
0000
0000
0000
0110
0000
0110
0000
,
0120
0000
0000
0032
0000
0000
0203
0000
0000
0000
0310
0000
1000
0000
0001
0000
,
0011
0000
0000
0110
0000
0000
1100
0000
1100
0000
0000
1001
0000
0000
0101
0000
,
0101
0000
0000
1000
0000
0000
0001
0000
0010
0000
0000
0100
0000
0000
1000
0000
,
0010
0010
1000
1000
0001
0001
0100
0100
,
0001
0001
0001
0001
,
0001
0001
0001
0001
,
1001
1001
1001
1001
,
1001
1001
1001
1001
,
1000
1000
0001
0001
1000
1000
0001
0001
,
0100
0100
0010
0010
0100
0100
0010
0010
,
1000
0100
0001
0100
1000
0010
0001
0010
,
1000
0000
0100
0000
0010
0000
0001
0000
0100
0000
0001
0010
0001
0000
1000
0020
,
2000
0000
0000
0000
,
0000
0000
0000
0000
3000
0000
0000
0000
1030
0001
1000
0001
1000
0001
1000
0000
,
0001
0000
0000
0010
0000
0000
0001
0000
0000
1000
0100
0000
0010
0000
0100
0000
,
1000
0000
0000
0001
0000
0000
0010
0000
0000
0001
1000
0000
0010
0100
0010
0100
,
0010
0000
0000
1000
0000
0000
0100
0000
0000
0010
0001
0000
1000
0100
1000
0100
,
1000
0000
0000
0001
0000
0000
0100
0000
0000
0010
2000
0000
0001
0000
0001
0000
,
3001
0000
0000
1000
0000
0000
0100
0000
0000
0010
0100
0000
1000
0000
0001
0000
,
0100
0000
0000
0010
0000
0000
0100
0000
0001
0000
0000
0010
0000
0000
1000
0000
,
0001
0100
0001
0100
0001
0000
1000
0100
1000
0000
0000
0010
0000
0000
0100
0000
,
0001
0000
1000
0100
0000
1000
0100
0000
0010
0000
0001
1000
0000
0001
1000
0000
,
1100
0000
0000
1001
0000
0000
0011
0000
0011
0000
0000
0110
0000
0000
1100
0000
,
0000
0000
0000
0000
,
0011
0000
0000
1100
0000
0000
1001
0000
1001
0000
0000
1010
0000
0000
0101
0000
,
0000
0000
0000
0000
1010
0000
0000
0012
0000
0000
1003
0000
0010
0000
0100
0000
,
0110
0000
0000
0110
0000
0000
0110
0000
0110
0000
0000
0110
0000
0000
0110
0000
,
0000
0000
0000
0000
,
1001
0000
0000
1100
0000
0000
0101
0000
0101
0000
0000
1100
0000
0000
1001
0000
,
2000
0000
0000
3002
0000
0000
2003
0000
3020
0000
0000
0230
0000
0000
0302
0000
,
1003
0100
1000
0100
0010
0001
0010
0001
,
0100
0010
0100
0010
1000
0001
1000
0001
,
0010
0010
0001
0001
0100
0100
1000
1000
,
0010
0000
0010
0000
1000
0001
1000
0001
1000
0000
0010
0100
0000
0100
0001
0000
,
0000
2020
0000
0000
,
0000
0000
0000
0000
,
0000
3030
0000
0000
;

//---------------dance-single - ----------------
#NOTEDATA:;
#CHARTNAME:;
#CHARTHASH:0:
#STEPSTYPE:dance-single;
#BANNER:;
#DESCRIPTION:;
#CHARTSTYLE:;
#DIFFICULTY:Medium;
#METER:11;
#METERF:0.000000;
#RADARVALUES:0.503117,0.678489,0.374662,0.487060,0.248213,376.000000,336.000000,40.000000,52.000000,0.000000,0.000000,0.000000,0.000000,0.000000,0.503117,0.678489,0.374662,0.487060,0.248213,376.000000,336.000000,40.000000,52.000000,0.000000,0.000000,0.000000,0.000000,0.000000;
#CREDIT:;
#DISPLAYBPM:95.000000:190.000000;
#NOTES:
0000
0000
0000
0000
,
0000
0000
0000
0000
,
0000
0000
0000
0000
,
1001
0000
0000
0000
0000
0010
0020
0000
,
1030
0100
1000
0001
0001
0000
0100
0000
,
0010
0000
0000
0000
1000
0000
0000
0000
0002
0000
0000
2003
0000
0000
3002
0000
,
0103
0010
0020
0000
1030
2000
0000
3001
,
2002
0000
0000
3003
,
0010
1000
0000
0001
1000
0100
0000
0110
,
0000
0000
0001
0000
0001
0000
0100
0000
0020
0000
0000
2030
0000
0000
3002
0000
,
0000
1003
0010
0000
0100
0001
0000
1010
,
0000
1000
0001
1000
2200
3300
0022
0033
,
1000
0000
0001
0000
1000
0000
0001
0000
0010
0000
0000
0010
0000
0000
0010
0000
,
0000
0000
0001
0000
0100
0000
0010
0000
1000
0000
0000
0001
0000
0000
1000
0000
,
0010
0000
0000
1000
0000
0000
0001
0000
1000
0000
0000
0100
0000
0000
0010
0000
,
0001
0100
0010
1000
0001
0010
0100
1000
,
1001
0000
0000
0000
0000
0100
0100
0010
,
1010
0000
0000
0000
1000
0000
0000
0001
0000
0000
0100
0000
0010
0000
0010
0000
,
0110
0000
0000
0000
0001
0000
0000
0010
0000
0000
1000
0000
1000
0000
0100
0000
,
1100
0000
0000
0000
0001
0000
0000
0100
0000
0010
1000
0010
1000
0001
1000
0001
,
0200
0001
1000
0310
,
0002
1003
2000
3100
,
1020
0000
0000
0001
0000
0000
0130
0000
,
2000
0001
3001
0000
0020
0000
0130
0000
,
0210
0000
0000
1000
0000
0000
0301
0000
,
2000
0100
3100
0000
0020
0000
0031
0000
,
0102
0000
0000
0010
0000
0000
0103
0000
,
1000
0010
1000
0010
0100
0001
0100
0001
,
2002
0000
0000
0000
,
0000
0000
0000
0000
,
0000
0000
0000
0000
,
0000
0000
0000
3000
,
0100
0100
0100
0100
,
1000
1000
1000
1003
,
0001
0001
1000
1000
,
0010
0010
0100
0100
,
1001
0000
0000
0100
0000
0000
0020
0000
0000
0000
0000
0000
0030
0000
0000
0000
,
1000
0000
0000
0001
0000
0000
1000
0000
0000
0000
0101
0000
0000
0000
1100
0000
,
1100
0000
0000
0001
0000
0000
0200
0000
0000
0000
0000
0000
0300
0000
0000
0000
,
0010
0010
1010
0101
,
0110
0000
0000
0001
0000
0000
2000
0000
0000
0000
0000
0000
3000
0000
0000
0000
,
0010
0000
0000
1000
0000
0000
0001
0000
1000
0000
0000
0100
0000
0000
0010
0000
,
0012
0100
1000
0103
,
1000
0001
1000
0010
0100
0001
0010
0100
,
1000
1000
1000
1000
,
1000
1000
1000
1000
,
1001
1001
1001
1001
,
1001
1001
1001
1001
,
0010
0000
0000
0010
0000
0000
0010
0000
1000
0000
0000
1000
0000
0000
1000
0000
,
0001
0000
0000
0001
0000
0000
0001
0000
0100
0000
0000
0100
0000
0000
0100
0000
,
0001
0000
0000
0010
0000
0000
0100
0000
1000
0000
0000
0100
0000
0000
0010
0000
,
0001
0000
0000
0010
0000
0000
0100
0000
1000
0000
0100
0000
0010
0000
0001
0000
,
0220
0000
0000
0000
,
0000
0000
0330
0000
1000
0100
0010
0001
,
0100
0000
0000
0010
0000
0000
2000
0000
0000
0000
3001
0000
1000
0000
0100
0000
,
0010
0000
0000
0001
0000
0000
0200
0000
0000
0000
0301
0000
1000
0000
0100
0000
,
1000
0000
0000
0001
0000
0000
0020
0000
0000
0000
1030
0000
0010
0000
0100
0000
,
1000
0000
0000
0001
0000
0000
0200
0000
0000
0000
0310
0000
0100
0000
0001
0000
,
1000
0000
0000
0100
0000
0000
0002
0000
0000
0000
0013
0000
0100
0000
1000
0000
,
0001
0000
0000
0100
0000
0000
0020
0000
0000
0000
1030
0000
0100
0000
0010
0000
,
0100
0000
0000
1000
0000
0000
0001
0000
1000
0000
0000
0010
0000
0000
0001
0000
,
0100
0000
0000
0010
0000
0000
0100
0000
0001
0000
0000
1000
0000
0000
0010
0000
,
1020
0000
0000
1000
0000
0000
1000
0000
1000
0000
0000
1000
0000
0000
1030
0000
,
0000
0000
0000
0000
,
0012
0000
0000
0010
0000
0000
0010
0000
0010
0000
0000
0010
0000
0000
0013
0000
,
0000
0000
2002
0000
3003
0001
1000
0100
,
2100
0000
0000
0100
0000
0000
0100
0000
0100
0000
0000
0100
0000
0000
3100
0000
,
0000
0000
0000
0000
,
0201
0000
0000
0001
0000
0000
0001
0000
0001
0000
0000
0001
0000
0000
0301
0000
,
2000
0000
0000
0000
3020
0000
0000
0000
2030
0000
0000
3002
0000
0000
0203
0000
,
0310
0000
0000
1000
0000
0000
0001
0000
0010
0000
0000
0100
0000
0000
1000
0000
,
0001
0000
0000
0010
0000
0000
0100
0000
1000
0000
0000
0010
0000
0000
0001
0000
,
1000
0000
0000
0010
0000
0000
0100
0000
0001
0000
0000
1000
0000
0000
0001
0000
,
0010
0000
0000
0010
0000
0000
0010
0000
0011
0000
0000
0110
0000
0000
1100
0000
,
0000
2002
0000
0000
,
0000
0000
0000
0000
,
0000
3003
0000
0000
;

//---------------dance-single - ----------------
#NOTEDATA:;
#CHARTNAME:;
#CHARTHASH:0:
#STEPSTYPE:dance-single;
#BANNER:;
#DESCRIPTION:;
#CHARTSTYLE:;
#DIFFICULTY:Easy;
#METER:8;
#METERF:0.000000;
#RADARVALUES:0.366633,0.607069,0.393395,0.159231,0.023416,274.000000,232.000000,42.000000,17.000000,0.000000,0.000000,0.000000,0.000000,0.000000,0.366633,0.607069,0.393395,0.159231,0.023416,274.000000,232.000000,42.000000,17.000000,0.000000,0.000000,0.000000,0.000000,0.000000;
#CREDIT:;
#DISPLAYBPM:95.000000:190.000000;
#NOTES:
0000
0000
0000
0000
,
0000
0000
0000
0000
,
0000
0000
0000
0000
,
0010
0000
0000
0000
0000
0010
0020
0000
,
0030
1000
0000
0001
0200
0000
0300
0000
,
0000
0000
0000
0000
0000
0000
0000
0000
0001
0000
0000
0001
0000
0000
0001
0000
,
0000
0100
0010
0000
0100
0010
0000
0200
,
0020
0000
0000
0330
,
1000
0001
0010
0001
,
0100
0010
1000
1000
,
0100
0010
0100
1000
,
0001
0100
1001
1001
,
0110
1000
0010
0100
,
0001
0010
0001
1000
,
0010
1010
0100
0101
,
1001
0001
1000
0100
,
1001
0010
1000
0001
,
0011
0010
0100
1000
,
1100
0001
1000
0010
,
0101
0010
0100
0001
,
0110
0000
0000
0010
0000
0000
1000
0000
,
0000
0001
0000
0000
0200
0000
0300
0000
,
0101
0000
0000
0010
0000
0000
0100
0000
,
0000
0001
0000
0000
2000
0000
3000
0000
,
1010
0000
0000
0001
0000
0000
1000
0000
,
0000
0100
0000
0000
0020
0000
0030
0000
,
0011
0000
0000
0001
0000
0000
0100
0000
,
0000
0010
1000
0000
2000
0000
3001
0000
,
1001
0000
0000
0000
,
0000
0000
0000
0000
,
0001
0001
0001
0000
,
1000
1000
1000
0000
,
0001
0000
0000
0001
0000
0000
0001
0000
0000
0000
0000
0000
0000
0000
0000
0000
,
1000
1000
0010
0010
,
2000
3000
0200
0300
,
0020
0030
0002
0003
,
1001
0000
0000
0000
,
0000
0000
0000
0000
0000
2100
0000
0001
,
3001
0000
0000
0000
,
0000
0000
0000
0000
0012
0000
1003
0001
,
1000
0000
0000
0000
,
0010
0000
0000
0010
0000
0000
0010
0000
0100
0000
0000
0100
0000
0000
0100
0000
,
0001
0000
0000
0000
,
1100
0000
0101
0000
1100
0000
0001
1000
,
0001
0001
0001
0001
,
0001
0001
0001
0001
,
1001
1001
1001
1001
,
1001
1001
1001
1001
,
1000
0001
1000
0100
,
0010
0001
0100
0010
,
1000
0100
0010
0001
,
0100
0000
0010
0000
1000
0001
1000
0001
,
2000
0000
0000
0000
,
0000
3000
1001
1001
,
0110
0001
1000
0100
,
1000
0010
0100
0001
,
0010
0001
0100
0001
,
0010
1000
0100
0001
,
1000
0010
1000
0001
,
0010
0001
0100
0010
,
0100
0001
0010
1000
,
0010
0001
0100
0001
,
0010
0010
0011
0011
,
0000
0000
0000
0000
,
1000
1000
1010
1010
,
0000
0010
0000
0010
,
0001
0001
0101
0101
,
0000
0000
0000
0000
,
0100
0100
1100
1100
,
0001
0001
1000
1000
,
0010
1000
0100
0010
,
0001
0100
0001
1000
,
0010
0100
0001
1000
,
1100
0000
0000
0000
0001
0000
0000
0000
0100
0000
0000
0100
0000
0000
0100
0000
,
0000
0220
0000
0000
,
0000
0000
0000
0000
,
0000
0330
0000
0000
;

//---------------dance-single - ----------------
#NOTEDATA:;
#CHARTNAME:;
#CHARTHASH:0:
#STEPSTYPE:dance-single;
#BANNER:;
#DESCRIPTION:;
#CHARTSTYLE:;
#DIFFICULTY:Beginner;
#METER:4;
#METERF:0.000000;
#RADARVALUES:0.196697,0.312960,0.168598,0.018733,0.000000,147.000000,129.000000,18.000000,2.000000,0.000000,0.000000,0.000000,0.000000,0.000000,0.196697,0.312960,0.168598,0.018733,0.000000,147.000000,129.000000,18.000000,2.000000,0.000000,0.000000,0.000000,0.000000,0.000000;
#CREDIT:;
#DISPLAYBPM:95.000000:190.000000;
#NOTES:
0000
0000
0000
0000
,
0000
0000
0000
0000
,
0000
0000
0000
0000
,
0110
0000
0000
0000
,
1000
1000
1000
0000
,
0000
0000
0001
0001
,
0000
0100
0100
0000
,
0110
0000
0000
0000
,
1000
0000
1000
0000
,
0001
0000
0100
0100
,
0100
0000
0010
0000
,
0100
0000
0001
0001
,
0001
0000
1000
0000
,
0001
0000
1000
0000
,
0010
0000
0010
0000
,
0010
0000
0100
0000
,
1001
0000
0000
0000
,
0110
0000
0000
0000
,
1001
0000
0000
0000
,
0110
0000
0000
0000
,
1000
0000
0000
0000
,
0001
0000
0001
0000
,
0100
0000
0000
0000
,
0010
0000
0010
0000
,
0010
0000
0000
0000
,
1000
0000
0000
0000
,
0001
0000
0000
0000
,
0100
0000
0100
0000
,
1001
0000
0000
0000
,
0000
0000
0000
0000
,
0000
0000
0000
0000
,
0000
0000
0000
0000
,
0002
0000
0003
0000
,
2000
0000
3000
0000
,
0010
0000
0010
0000
,
0100
0000
0100
0000
,
1001
0000
0000
0000
,
0000
0000
0000
1000
,
1000
0000
0000
0000
,
0000
0000
0010
0010
,
0010
0000
0000
0000
,
0110
0000
1001
0000
,
0110
0000
0000
0000
,
1001
0000
0110
0000
,
1001
0000
0000
0000
,
0000
0000
0000
0000
,
0010
0010
0010
0010
,
0010
0010
0010
0010
,
0010
0000
1000
0000
,
0001
0000
1000
0000
,
0100
0000
0010
0000
,
0001
0000
0100
0000
,
1001
0000
0000
0000
,
0000
0000
0110
0000
,
1000
0000
1000
0000
,
0001
0001
0001
0000
,
0100
0000
0010
0000
,
0100
0100
0100
0000
,
0001
0000
0010
0000
,
1000
1000
1000
0000
,
0100
0000
0010
0000
,
0001
0000
0100
0000
,
1000
1000
1000
1000
,
0000
0000
0000
0000
,
0100
0100
0100
0100
,
0000
0000
0000
0000
,
0010
0010
0010
0010
,
0000
0000
0000
0000
,
0001
0001
0001
0001
,
0000
0000
0110
0000
,
0010
0010
0010
0000
,
0100
0100
0100
0000
,
1000
1000
1000
0000
,
0001
0001
0001
0001
,
0000
1001
0000
0000
;

//---------------dance-single - ----------------
#NOTEDATA:;
#CHARTNAME:;
#CHARTHASH:0:
#STEPSTYPE:dance-single;
#BANNER:;
#DESCRIPTION:;
#CHARTSTYLE:;
#DIFFICULTY:Challenge;
#METER:17;
#METERF:0.000000;
#RADARVALUES:0.975458,1.428397,0.458961,0.505793,1.147401,729.000000,680.000000,49.000000,54.000000,0.000000,0.000000,0.000000,0.000000,0.000000,0.975458,1.428397,0.458961,0.505793,1.147401,729.000000,680.000000,49.000000,54.000000,0.000000,0.000000,0.000000,0.000000,0.000000;
#CREDIT:;
#DISPLAYBPM:95.000000:190.000000;
#NOTES:
// measure 0
0000
0000
0000
0000
,  // measure 1
0000
0000
0000
0000
,  // measure 2
0000
0000
0000
0000
,  // measure 3
1100
0000
0001
0100
1000
0010
0020
0000
,  // measure 4
1030
0100
0010
0100
1000
0000
0001
0100
0001
0000
0010
0000
0100
0000
1000
0000
,  // measure 5
0010
0000
0100
0000
0001
0000
1000
0000
0100
0000
1000
0010
0000
1000
0001
0000
,  // measure 6
1000
1100
1100
0010
0101
0101
0001
0011
,  // measure 7
1002
0000
0000
0203
0000
0000
0302
0000
1003
0100
0010
0001
0100
0010
1000
0000
,  // measure 8
1001
0000
1000
0100
0010
0000
0001
0000
0100
0010
1000
0000
0001
1000
0100
0000
,  // measure 9
0010
0000
0001
0100
0001
0000
1000
0000
0010
0000
1000
0100
0000
1000
0010
0100
,  // measure 10
0001
0000
0010
0100
1000
0000
0001
0000
1000
0100
0010
0000
0001
0000
0100
0000
,  // measure 11
0010
1010
1010
0001
2200
3300
0202
0303
,  // measure 12
1001
0000
1000
0100
0001
0000
0001
0000
0010
0000
0010
0000
0100
0000
0100
0000
,  // measure 13
1000
0000
1000
0000
0001
0000
0001
0100
0010
0000
1000
0100
1000
0000
0001
0100
,  // measure 14
0001
0000
0000
0011
0000
0000
1100
0000
1001
0000
0000
1010
0000
0000
0101
0000
,  // measure 15
1000
0100
1000
0100
0010
0001
0010
0001
0200
0000
0301
1000
0001
0010
0100
1000
,  // measure 16
0010
0100
0010
0100
0010
0100
0001
1000
0001
1000
0001
1000
0010
0100
0001
1000
,  // measure 17
0100
0010
0100
0010
0100
0010
0001
1000
0001
1000
0001
1000
0100
0010
0001
1000
,  // measure 18
0010
1000
0010
1000
0010
1000
0001
0100
0001
0100
0001
0100
0010
1000
0001
0100
,  // measure 19
0010
0000
1000
0000
0001
0000
0100
0000
0001
0000
0010
0000
0100
0000
1000
0000
0010
0000
0100
0001
0100
0001
0100
0001
1000
0100
1000
0100
0010
0001
0010
0001
,  // measure 20
0100
0010
1000
0001
1000
0100
0001
0100
,  // measure 21
1000
0000
0010
0000
0100
0000
1000
0000
0100
0000
0001
0000
0010
0100
1000
0001
,  // measure 22
0100
0010
1000
0001
0010
1000
0010
0100
,  // measure 23
1000
0000
0010
0000
0001
0000
0010
0000
1000
0000
0100
0000
0010
0001
1000
0010
,  // measure 24
0100
0001
0010
1000
0010
0100
0010
1000
,  // measure 25
0010
0000
0001
0000
0100
0000
1000
0000
0100
0000
0001
0000
0010
0100
1000
0001
,  // measure 26
0010
0100
0001
0100
1000
0100
0010
0001
,  // measure 27
0100
0000
0010
0000
1000
0001
1000
0001
0010
0100
0010
0100
1000
0010
0100
0001
,  // measure 28
0020
0000
0000
0000
,  // measure 29
0000
0000
0000
0000
,  // measure 30
0032
0000
0000
0203
0000
0000
0320
0000
0000
0000
1030
0000
0001
1000
0001
1000
,  // measure 31
0200
0000
0000
0320
0000
0000
0032
0000
0000
0000
0103
0000
0010
0000
1000
0000
,  // measure 32
0002
0000
0000
2003
0000
0000
3020
0000
0000
0000
1030
0000
0001
0100
0001
0100
,  // measure 33
0020
0000
0000
0230
0000
0000
0302
0000
2003
0000
0000
3020
0000
0000
0230
0000
,  // measure 34
0301
0000
1000
0100
0000
1000
0100
0000
0010
0000
0001
1000
0000
0001
1000
0000
,  // measure 35
0020
0000
0000
0230
0000
0000
0302
0000
1003
0100
0010
0001
1000
0100
0010
0001
,  // measure 36
0200
0000
0000
0320
0000
0000
2030
0000
0000
0000
0001
0000
3001
0010
0100
1000
,  // measure 37
0020
0000
0000
0230
0000
0000
0302
0000
0003
0000
0011
0000
0000
0000
1100
0000
,  // measure 38
0102
0000
0000
2003
0000
0000
3200
0000
0000
0000
0310
0100
0010
0001
1000
0001
,  // measure 39
0200
0000
0000
0320
0000
0000
1030
0000
0001
2000
0000
3000
1100
0000
0110
0000
,  // measure 40
0012
0000
0000
0203
0000
0000
2300
0000
0000
3100
0001
0010
0001
1000
0010
0100
,  // measure 41
0010
0000
1000
0100
0000
0100
0001
0000
0010
0000
0001
0100
0000
0100
1000
0000
,  // measure 42
0002
0000
0000
2003
0000
0000
3020
0000
2030
0000
0000
3200
0000
0000
0310
0000
,  // measure 43
0001
0000
0001
0000
1000
0000
1000
0000
0010
0000
1000
0100
1000
0000
0001
0100
,  // measure 44
0001
0000
0000
0001
0100
0000
0000
0100
0010
0000
0000
0010
1000
0000
0000
1000
,  // measure 45
0100
0000
0000
0100
0010
0000
0000
0010
0001
0000
0000
0001
1000
0000
0000
1000
,  // measure 46
0001
0000
0000
0001
0100
0000
0000
0100
0010
0000
0000
0010
1000
0000
0000
1000
,  // measure 47
0100
0000
0000
0100
1000
0000
0000
1000
0010
0000
0000
0010
0001
0000
0000
0001
,  // measure 48
0010
0000
0010
1000
0100
0001
0100
0000
1000
0000
1000
0010
0100
0001
0100
0000
,  // measure 49
0001
0000
0001
0010
0100
1000
0100
0000
0010
0000
0010
0001
1000
0010
1000
0000
,  // measure 50
0001
0010
0001
0010
0100
1000
0100
1000
0001
0100
0001
0100
0010
1000
0010
1000
,  // measure 51
0100
0010
0100
0010
0001
1000
0001
1000
0010
0000
1000
0100
0001
0000
1000
0020
,  // measure 52
0002
0000
0000
0000
,  // measure 53
0000
0000
0000
0000
0030
0000
0000
0000
1003
0100
0010
0001
1000
0100
0010
0001
,  // measure 54
0100
0000
0010
1000
0000
0001
0010
0000
0100
1000
0000
0001
0010
0100
0010
0001
,  // measure 55
1000
0000
0010
0100
0000
0001
0010
0000
0001
0100
0000
0010
1000
0001
1000
0100
,  // measure 56
0001
0000
0010
0100
0000
1000
0010
0000
1000
0001
0010
0001
0100
0010
1000
0010
,  // measure 57
0100
0000
0010
1000
0000
0001
0010
0000
0001
0200
0000
0310
1000
0000
1000
0000
,  // measure 58
1000
0000
0100
1000
0000
0010
0100
0000
0001
0010
0100
0000
1000
0001
0010
0001
,  // measure 59
0100
0000
0010
1000
0000
0001
0100
0000
1000
0000
0100
0001
0000
0010
0100
0000
,  // measure 60
1000
0010
0100
0010
1000
0010
0100
0010
1000
0000
0100
0010
0000
0001
1000
0001
,  // measure 61
0100
0000
0010
1000
0000
1000
0001
0000
0100
0000
0001
0010
1000
0100
0010
0001
,  // measure 62
0100
0000
0000
0110
0000
0000
0101
0000
1100
0000
0000
0011
0000
0000
1010
0000
,  // measure 63
0001
0001
0001
0001
,  // measure 64
0011
0000
0000
1100
0000
0000
1010
0000
1001
0000
0000
0101
0000
0000
0110
0000
,  // measure 65
1000
0000
0000
0000
0011
0000
0100
0010
0000
0010
2000
0000
0001
0000
3001
0000
,  // measure 66
1100
0000
0000
0110
0000
0000
0011
0000
1010
0000
0000
0101
0000
0000
1001
0000
,  // measure 67
0010
0001
0100
0010
1000
0100
0010
0001
,  // measure 68
0101
0000
0000
0110
0000
0000
1010
0000
1100
0000
0000
1001
0000
0000
0011
0000
,  // measure 69
1000
0010
0100
0001
1000
0100
0010
0001
0100
0000
0001
0010
0000
0100
1000
0000
,  // measure 70
0010
0000
1000
0100
0000
0100
0010
0000
0001
0000
1000
0001
0000
0001
0100
0000
,  // measure 71
0010
0000
0100
0001
0000
0001
1000
0000
0100
0000
0010
0100
0000
0100
1000
0000
,  // measure 72
0001
0000
1000
0010
0000
1000
0100
0000
0010
0000
0001
0100
0000
0001
1000
0000
,  // measure 73
0001
0010
0100
1000
0010
0100
0001
1000
0010
1000
0001
0100
0001
0010
0100
1000
,  // measure 74
0010
0220
0000
0000
,  // measure 75
0000
0000
0000
0000
,  // measure 76
0000
0330
0000
0000
;
